  0
SECTION
  2
HEADER
  9
$ACADVER
  1
AC1018
  9
$ACADMAINTVER
 70
   104
  9
$DWGCODEPAGE
  3
ANSI_1252
  9
$INSBASE
 10
0.0
 20
0.0
 30
0.0
  9
$EXTMIN
 10
109.397567444431
 20
-547.332241544306
 30
0.0
  9
$EXTMAX
 10
519.397567444431
 20
-261.332241544306
 30
0.0
  9
$LIMMIN
 10
0.0
 20
0.0
  9
$LIMMAX
 10
12.0
 20
9.0
  9
$ORTHOMODE
 70
     0
  9
$REGENMODE
 70
     1
  9
$FILLMODE
 70
     1
  9
$QTEXTMODE
 70
     0
  9
$MIRRTEXT
 70
     0
  9
$LTSCALE
 40
1.0
  9
$ATTMODE
 70
     1
  9
$TEXTSIZE
 40
0.2
  9
$TRACEWID
 40
0.05
  9
$TEXTSTYLE
  7
Standard
  9
$CLAYER
  8
0
  9
$CELTYPE
  6
ByLayer
  9
$CECOLOR
 62
   256
  9
$CELTSCALE
 40
1.0
  9
$DISPSILH
 70
     0
  9
$DIMSCALE
 40
1.0
  9
$DIMASZ
 40
0.18
  9
$DIMEXO
 40
0.0625
  9
$DIMDLI
 40
0.38
  9
$DIMRND
 40
0.0
  9
$DIMDLE
 40
0.0
  9
$DIMEXE
 40
0.18
  9
$DIMTP
 40
0.0
  9
$DIMTM
 40
0.0
  9
$DIMTXT
 40
0.18
  9
$DIMCEN
 40
0.09
  9
$DIMTSZ
 40
0.0
  9
$DIMTOL
 70
     0
  9
$DIMLIM
 70
     0
  9
$DIMTIH
 70
     1
  9
$DIMTOH
 70
     1
  9
$DIMSE1
 70
     0
  9
$DIMSE2
 70
     0
  9
$DIMTAD
 70
     0
  9
$DIMZIN
 70
     0
  9
$DIMBLK
  1

  9
$DIMASO
 70
     1
  9
$DIMSHO
 70
     1
  9
$DIMPOST
  1

  9
$DIMAPOST
  1

  9
$DIMALT
 70
     0
  9
$DIMALTD
 70
     2
  9
$DIMALTF
 40
25.4
  9
$DIMLFAC
 40
1.0
  9
$DIMTOFL
 70
     0
  9
$DIMTVP
 40
0.0
  9
$DIMTIX
 70
     0
  9
$DIMSOXD
 70
     0
  9
$DIMSAH
 70
     0
  9
$DIMBLK1
  1

  9
$DIMBLK2
  1

  9
$DIMSTYLE
  2
Standard
  9
$DIMCLRD
 70
     0
  9
$DIMCLRE
 70
     0
  9
$DIMCLRT
 70
     0
  9
$DIMTFAC
 40
1.0
  9
$DIMGAP
 40
0.09
  9
$DIMJUST
 70
     0
  9
$DIMSD1
 70
     0
  9
$DIMSD2
 70
     0
  9
$DIMTOLJ
 70
     1
  9
$DIMTZIN
 70
     0
  9
$DIMALTZ
 70
     0
  9
$DIMALTTZ
 70
     0
  9
$DIMUPT
 70
     0
  9
$DIMDEC
 70
     4
  9
$DIMTDEC
 70
     4
  9
$DIMALTU
 70
     2
  9
$DIMALTTD
 70
     2
  9
$DIMTXSTY
  7
Standard
  9
$DIMAUNIT
 70
     0
  9
$DIMADEC
 70
     0
  9
$DIMALTRND
 40
0.0
  9
$DIMAZIN
 70
     0
  9
$DIMDSEP
 70
    46
  9
$DIMATFIT
 70
     3
  9
$DIMFRAC
 70
     0
  9
$DIMLDRBLK
  1

  9
$DIMLUNIT
 70
     2
  9
$DIMLWD
 70
    -2
  9
$DIMLWE
 70
    -2
  9
$DIMTMOVE
 70
     0
  9
$LUNITS
 70
     2
  9
$LUPREC
 70
     4
  9
$SKETCHINC
 40
0.1
  9
$FILLETRAD
 40
0.0
  9
$AUNITS
 70
     0
  9
$AUPREC
 70
     0
  9
$MENU
  1
.
  9
$ELEVATION
 40
0.0
  9
$PELEVATION
 40
0.0
  9
$THICKNESS
 40
0.0
  9
$LIMCHECK
 70
     0
  9
$CHAMFERA
 40
0.0
  9
$CHAMFERB
 40
0.0
  9
$CHAMFERC
 40
0.0
  9
$CHAMFERD
 40
0.0
  9
$SKPOLY
 70
     0
  9
$TDCREATE
 40
2455720.641791644
  9
$TDUCREATE
 40
2455720.558458310
  9
$TDUPDATE
 40
2455720.641791644
  9
$TDUUPDATE
 40
2455720.558458310
  9
$TDINDWG
 40
0.0000162731
  9
$TDUSRTIMER
 40
0.0000162731
  9
$USRTIMER
 70
     1
  9
$ANGBASE
 50
0.0
  9
$ANGDIR
 70
     0
  9
$PDMODE
 70
     0
  9
$PDSIZE
 40
0.0
  9
$PLINEWID
 40
0.0
  9
$SPLFRAME
 70
     0
  9
$SPLINETYPE
 70
     6
  9
$SPLINESEGS
 70
     8
  9
$HANDSEED
  5
7AB
  9
$SURFTAB1
 70
     6
  9
$SURFTAB2
 70
     6
  9
$SURFTYPE
 70
     6
  9
$SURFU
 70
     6
  9
$SURFV
 70
     6
  9
$UCSBASE
  2

  9
$UCSNAME
  2

  9
$UCSORG
 10
0.0
 20
0.0
 30
0.0
  9
$UCSXDIR
 10
1.0
 20
0.0
 30
0.0
  9
$UCSYDIR
 10
0.0
 20
1.0
 30
0.0
  9
$UCSORTHOREF
  2

  9
$UCSORTHOVIEW
 70
     0
  9
$UCSORGTOP
 10
0.0
 20
0.0
 30
0.0
  9
$UCSORGBOTTOM
 10
0.0
 20
0.0
 30
0.0
  9
$UCSORGLEFT
 10
0.0
 20
0.0
 30
0.0
  9
$UCSORGRIGHT
 10
0.0
 20
0.0
 30
0.0
  9
$UCSORGFRONT
 10
0.0
 20
0.0
 30
0.0
  9
$UCSORGBACK
 10
0.0
 20
0.0
 30
0.0
  9
$PUCSBASE
  2

  9
$PUCSNAME
  2

  9
$PUCSORG
 10
0.0
 20
0.0
 30
0.0
  9
$PUCSXDIR
 10
1.0
 20
0.0
 30
0.0
  9
$PUCSYDIR
 10
0.0
 20
1.0
 30
0.0
  9
$PUCSORTHOREF
  2

  9
$PUCSORTHOVIEW
 70
     0
  9
$PUCSORGTOP
 10
0.0
 20
0.0
 30
0.0
  9
$PUCSORGBOTTOM
 10
0.0
 20
0.0
 30
0.0
  9
$PUCSORGLEFT
 10
0.0
 20
0.0
 30
0.0
  9
$PUCSORGRIGHT
 10
0.0
 20
0.0
 30
0.0
  9
$PUCSORGFRONT
 10
0.0
 20
0.0
 30
0.0
  9
$PUCSORGBACK
 10
0.0
 20
0.0
 30
0.0
  9
$USERI1
 70
     0
  9
$USERI2
 70
     0
  9
$USERI3
 70
     0
  9
$USERI4
 70
     0
  9
$USERI5
 70
     0
  9
$USERR1
 40
17.0
  9
$USERR2
 40
0.0
  9
$USERR3
 40
0.0
  9
$USERR4
 40
0.0
  9
$USERR5
 40
0.0
  9
$WORLDVIEW
 70
     1
  9
$SHADEDGE
 70
     3
  9
$SHADEDIF
 70
    70
  9
$TILEMODE
 70
     1
  9
$MAXACTVP
 70
    64
  9
$PINSBASE
 10
0.0
 20
0.0
 30
0.0
  9
$PLIMCHECK
 70
     0
  9
$PEXTMIN
 10
1.000000000000000E+20
 20
1.000000000000000E+20
 30
1.000000000000000E+20
  9
$PEXTMAX
 10
-1.000000000000000E+20
 20
-1.000000000000000E+20
 30
-1.000000000000000E+20
  9
$PLIMMIN
 10
0.0
 20
0.0
  9
$PLIMMAX
 10
12.0
 20
9.0
  9
$UNITMODE
 70
     0
  9
$VISRETAIN
 70
     1
  9
$PLINEGEN
 70
     0
  9
$PSLTSCALE
 70
     1
  9
$TREEDEPTH
 70
  3020
  9
$CMLSTYLE
  2
Standard
  9
$CMLJUST
 70
     0
  9
$CMLSCALE
 40
1.0
  9
$PROXYGRAPHICS
 70
     1
  9
$MEASUREMENT
 70
     1
  9
$CELWEIGHT
370
    -1
  9
$ENDCAPS
280
     0
  9
$JOINSTYLE
280
     0
  9
$LWDISPLAY
290
     0
  9
$INSUNITS
 70
     0
  9
$HYPERLINKBASE
  1

  9
$STYLESHEET
  1

  9
$XEDIT
290
     1
  9
$CEPSNTYPE
380
     0
  9
$PSTYLEMODE
290
     1
  9
$FINGERPRINTGUID
  2
{0F83C403-42EE-4E1E-9015-187741E53153}
  9
$VERSIONGUID
  2
{4D3ED363-61CE-4623-907C-2E07E87A73C3}
  9
$EXTNAMES
290
     1
  9
$PSVPSCALE
 40
0.0
  9
$OLESTARTUP
290
     0
  9
$SORTENTS
280
   127
  9
$INDEXCTL
280
     0
  9
$HIDETEXT
280
     1
  9
$XCLIPFRAME
290
     0
  9
$HALOGAP
280
     0
  9
$OBSCOLOR
 70
   257
  9
$OBSLTYPE
280
     0
  9
$INTERSECTIONDISPLAY
280
     0
  9
$INTERSECTIONCOLOR
 70
   257
  9
$DIMASSOC
280
     2
  9
$PROJECTNAME
  1

  0
ENDSEC
  0
SECTION
  2
CLASSES
  0
CLASS
  1
ACDBDICTIONARYWDFLT
  2
AcDbDictionaryWithDefault
  3
ObjectDBX Classes
 90
        0
 91
        1
280
     0
281
     0
  0
CLASS
  1
MATERIAL
  2
AcDbMaterial
  3
ObjectDBX Classes
 90
     1153
 91
        3
280
     0
281
     0
  0
CLASS
  1
VISUALSTYLE
  2
AcDbVisualStyle
  3
ObjectDBX Classes
 90
     4095
 91
       19
280
     0
281
     0
  0
CLASS
  1
SCALE
  2
AcDbScale
  3
ObjectDBX Classes
 90
     1153
 91
       33
280
     0
281
     0
  0
CLASS
  1
TABLESTYLE
  2
AcDbTableStyle
  3
ObjectDBX Classes
 90
     4095
 91
        1
280
     0
281
     0
  0
CLASS
  1
MLEADERSTYLE
  2
AcDbMLeaderStyle
  3
ACDB_MLEADERSTYLE_CLASS
 90
     4095
 91
        1
280
     0
281
     0
  0
CLASS
  1
DICTIONARYVAR
  2
AcDbDictionaryVar
  3
ObjectDBX Classes
 90
        0
 91
        8
280
     0
281
     0
  0
CLASS
  1
CELLSTYLEMAP
  2
AcDbCellStyleMap
  3
ObjectDBX Classes
 90
     1152
 91
        1
280
     0
281
     0
  0
ENDSEC
  0
SECTION
  2
TABLES
  0
TABLE
  2
VPORT
  5
8
330
0
100
AcDbSymbolTable
 70
     1
  0
VPORT
  5
62
330
8
100
AcDbSymbolTableRecord
100
AcDbViewportTableRecord
  2
*Active
 70
     0
 10
0.0
 20
0.0
 11
1.0
 21
1.0
 12
314.397567444431
 22
-404.332241544306
 13
0.0
 23
0.0
 14
1.0
 24
1.0
 15
0.0
 25
0.0
 16
0.0
 26
0.0
 36
1.0
 17
0.0
 27
0.0
 37
0.0
 40
314.6000000000001
 41
1.60267857142857
 42
50.0
 43
0.0
 44
0.0
 50
0.0
 51
0.0
 71
     0
 72
   100
 73
     1
 74
     1
 75
     0
 76
     0
 77
     0
 78
     0
281
     0
 65
     1
110
0.0
120
0.0
130
0.0
111
1.0
121
0.0
131
0.0
112
0.0
122
1.0
132
0.0
 79
     0
146
0.0
  0
ENDTAB
  0
TABLE
  2
LTYPE
  5
5
330
0
100
AcDbSymbolTable
 70
     8
  0
LTYPE
  5
66
330
5
100
AcDbSymbolTableRecord
100
AcDbLinetypeTableRecord
  2
ByBlock
 70
     0
  3

 72
    65
 73
     0
 40
0.0
  0
LTYPE
  5
67
330
5
100
AcDbSymbolTableRecord
100
AcDbLinetypeTableRecord
  2
ByLayer
 70
     0
  3

 72
    65
 73
     0
 40
0.0
  0
LTYPE
  5
68
330
5
100
AcDbSymbolTableRecord
100
AcDbLinetypeTableRecord
  2
Continuous
 70
     0
  3
Solid line
 72
    65
 73
     0
 40
0.0
  0
LTYPE
  5
7F
330
5
100
AcDbSymbolTableRecord
100
AcDbLinetypeTableRecord
  2
DASHED
 70
     0
  3
Dashed
 72
    65
 73
     2
 40
15.0
 49
7.0
 74
     0
 49
-8.0
 74
     0
  0
LTYPE
  5
80
330
5
100
AcDbSymbolTableRecord
100
AcDbLinetypeTableRecord
  2
DOTTED
 70
     0
  3
Dotted
 72
    65
 73
     2
 40
1.0
 49
0.0
 74
     0
 49
-1.0
 74
     0
  0
LTYPE
  5
81
330
5
100
AcDbSymbolTableRecord
100
AcDbLinetypeTableRecord
  2
DOT_CENTER
 70
     0
  3
Dot_Center
 72
    65
 73
     4
 40
14.0
 49
12.0
 74
     0
 49
-1.0
 74
     0
 49
0.0
 74
     0
 49
-1.0
 74
     0
  0
LTYPE
  5
82
330
5
100
AcDbSymbolTableRecord
100
AcDbLinetypeTableRecord
  2
LONG_DASHED
 70
     0
  3
Long_Dashed
 72
    65
 73
     2
 40
15.0
 49
10.0
 74
     0
 49
-5.0
 74
     0
  0
LTYPE
  5
83
330
5
100
AcDbSymbolTableRecord
100
AcDbLinetypeTableRecord
  2
DASH_CENTER
 70
     0
  3
Dash_Center
 72
    65
 73
     4
 40
14.0
 49
11.0
 74
     0
 49
-1.0
 74
     0
 49
1.0
 74
     0
 49
-1.0
 74
     0
  0
LTYPE
  5
84
330
5
100
AcDbSymbolTableRecord
100
AcDbLinetypeTableRecord
  2
PHANTOM
 70
     0
  3
Phantom
 72
    65
 73
     6
 40
13.0
 49
10.0
 74
     0
 49
-1.0
 74
     0
 49
0.0
 74
     0
 49
-1.0
 74
     0
 49
0.0
 74
     0
 49
-1.0
 74
     0
  0
LTYPE
  5
85
330
5
100
AcDbSymbolTableRecord
100
AcDbLinetypeTableRecord
  2
CENTER_DASH_DASH
 70
     0
  3
Center_Dash_Dash
 72
    65
 73
     6
 40
14.0
 49
9.0
 74
     0
 49
-1.0
 74
     0
 49
1.0
 74
     0
 49
-1.0
 74
     0
 49
1.0
 74
     0
 49
-1.0
 74
     0
  0
ENDTAB
  0
TABLE
  2
LAYER
  5
2
330
0
100
AcDbSymbolTable
 70
     4
  0
LAYER
  5
5F
330
2
100
AcDbSymbolTableRecord
100
AcDbLayerTableRecord
  2
0
 70
     0
 62
     7
  6
Continuous
370
    -3
390
F
  0
LAYER
  5
86
330
2
100
AcDbSymbolTableRecord
100
AcDbLayerTableRecord
  2
1
 70
     0
 62
     7
  6
Continuous
370
    -3
390
F
  0
LAYER
  5
87
330
2
100
AcDbSymbolTableRecord
100
AcDbLayerTableRecord
  2
EBENE_1
 70
     0
 62
     7
  6
Continuous
370
    -3
390
F
  0
LAYER
  5
145
330
2
100
AcDbSymbolTableRecord
100
AcDbLayerTableRecord
  2
Defpoints
 70
     0
 62
     7
  6
Continuous
290
     0
370
    -3
390
F
  0
ENDTAB
  0
TABLE
  2
STYLE
  5
3
330
0
100
AcDbSymbolTable
 70
     9
  0
STYLE
  5
60
330
3
100
AcDbSymbolTableRecord
100
AcDbTextStyleTableRecord
  2
Standard
 70
     0
 40
0.0
 41
1.0
 50
0.0
 71
     0
 42
0.2
  3
txt
  4

  0
STYLE
  5
65
330
3
100
AcDbSymbolTableRecord
100
AcDbTextStyleTableRecord
  2
Annotative
 70
     0
 40
0.0
 41
1.0
 50
0.0
 71
     0
 42
0.2
  3
txt
  4

1001
AcadAnnotative
1000
AnnotativeData
1002
{
1070
     1
1070
     1
1002
}
  0
STYLE
  5
11F
330
3
100
AcDbSymbolTableRecord
100
AcDbTextStyleTableRecord
  2
CONVERTER_11
 70
     0
 40
0.0
 41
0.99
 50
0.0
 71
     0
 42
0.2
  3
txt.shx
  4

  0
STYLE
  5
141
330
3
100
AcDbSymbolTableRecord
100
AcDbTextStyleTableRecord
  2
CONVERTER_12
 70
     0
 40
0.0
 41
0.9
 50
0.0
 71
     0
 42
0.2
  3
txt.shx
  4

  0
STYLE
  5
51C
330
3
100
AcDbSymbolTableRecord
100
AcDbTextStyleTableRecord
  2
CONVERTER_13
 70
     0
 40
0.0
 41
0.8099999999999997
 50
0.0
 71
     0
 42
0.2
  3
txt.shx
  4

  0
STYLE
  5
529
330
3
100
AcDbSymbolTableRecord
100
AcDbTextStyleTableRecord
  2
CONVERTER_14
 70
     0
 40
0.0
 41
0.7200000000000001
 50
0.0
 71
     0
 42
0.2
  3
txt.shx
  4

  0
STYLE
  5
52E
330
3
100
AcDbSymbolTableRecord
100
AcDbTextStyleTableRecord
  2
CONVERTER_15
 70
     0
 40
0.0
 41
0.5400000000000001
 50
0.0
 71
     0
 42
0.2
  3
txt.shx
  4

  0
STYLE
  5
537
330
3
100
AcDbSymbolTableRecord
100
AcDbTextStyleTableRecord
  2
CONVERTER_16
 70
     0
 40
0.0
 41
0.7650000000000001
 50
0.0
 71
     0
 42
0.2
  3
txt.shx
  4

  0
STYLE
  5
682
330
3
100
AcDbSymbolTableRecord
100
AcDbTextStyleTableRecord
  2
CONVERTER_17
 70
     0
 40
0.0
 41
0.792
 50
0.0
 71
     0
 42
0.2
  3
txt.shx
  4

  0
ENDTAB
  0
TABLE
  2
VIEW
  5
6
330
0
100
AcDbSymbolTable
 70
     0
  0
ENDTAB
  0
TABLE
  2
UCS
  5
7
330
0
100
AcDbSymbolTable
 70
     0
  0
ENDTAB
  0
TABLE
  2
APPID
  5
9
330
0
100
AcDbSymbolTable
 70
     3
  0
APPID
  5
61
330
9
100
AcDbSymbolTableRecord
100
AcDbRegAppTableRecord
  2
ACAD
 70
     0
  0
APPID
  5
69
330
9
100
AcDbSymbolTableRecord
100
AcDbRegAppTableRecord
  2
AcadAnnotative
 70
     0
  0
APPID
  5
7AA
330
9
100
AcDbSymbolTableRecord
100
AcDbRegAppTableRecord
  2
ACAD_MLEADERVER
 70
     0
  0
ENDTAB
  0
TABLE
  2
DIMSTYLE
  5
A
330
0
100
AcDbSymbolTable
 70
    28
100
AcDbDimStyleTable
 71
     1
340
63
  0
DIMSTYLE
105
63
330
A
100
AcDbSymbolTableRecord
100
AcDbDimStyleTableRecord
  2
Standard
 70
     0
340
60
  0
DIMSTYLE
105
64
330
A
100
AcDbSymbolTableRecord
100
AcDbDimStyleTableRecord
  2
Annotative
 70
     0
340
60
1001
AcadAnnotative
1000
AnnotativeData
1002
{
1070
     1
1070
     1
1002
}
  0
DIMSTYLE
105
143
102
{ACAD_REACTORS
330
144
102
}
330
A
100
AcDbSymbolTableRecord
100
AcDbDimStyleTableRecord
  2
ME10_DIM_10
 70
     0
 41
13.88862944157506
 42
0.0
 44
11.11090355326005
 47
0.2
 48
0.2
 71
     1
 73
     0
 74
     0
 77
     1
 78
     8
 79
     2
140
13.88862944157506
146
0.7200000000000001
147
0.0
172
     1
173
     1
174
     1
175
     1
176
     3
177
     3
178
     3
271
     2
272
     1
279
     2
340
141
  0
DIMSTYLE
105
161
102
{ACAD_REACTORS
330
162
102
}
330
A
100
AcDbSymbolTableRecord
100
AcDbDimStyleTableRecord
  2
ME10_DIM_11
 70
     0
 41
13.88862944157506
 42
0.0
 44
11.11090355326005
 47
0.2
 48
0.2
 71
     1
 73
     0
 74
     0
 77
     1
 78
     8
 79
     2
140
13.88862944157506
146
0.7200000000000001
147
0.0
172
     1
173
     1
174
     1
175
     1
176
     3
177
     3
178
     3
271
     2
272
     1
279
     2
340
141
  0
DIMSTYLE
105
17E
102
{ACAD_REACTORS
330
17F
102
}
330
A
100
AcDbSymbolTableRecord
100
AcDbDimStyleTableRecord
  2
ME10_DIM_12
 70
     0
 41
13.88862944157506
 42
0.0
 44
11.11090355326005
 73
     0
 74
     0
 77
     1
 78
     8
 79
     2
140
13.88862944157506
147
0.0
172
     1
173
     1
174
     1
175
     1
176
     3
177
     3
178
     3
271
     2
279
     2
340
141
  0
DIMSTYLE
105
19B
102
{ACAD_REACTORS
330
19C
102
}
330
A
100
AcDbSymbolTableRecord
100
AcDbDimStyleTableRecord
  2
ME10_DIM_13
 70
     0
 41
13.88862944157506
 42
0.0
 44
11.11090355326005
 47
0.2
 48
0.2
 71
     1
 73
     0
 74
     0
 77
     1
 78
     8
 79
     2
140
13.88862944157506
146
0.7200000000000001
147
0.0
172
     1
173
     1
174
     1
175
     1
176
     3
177
     3
178
     3
271
     2
272
     1
279
     2
340
141
  0
DIMSTYLE
105
1B8
102
{ACAD_REACTORS
330
1B9
102
}
330
A
100
AcDbSymbolTableRecord
100
AcDbDimStyleTableRecord
  2
ME10_DIM_14
 70
     0
 41
13.88862944157506
 42
0.0
 44
11.11090355326005
 73
     0
 74
     0
 77
     1
 78
     8
 79
     2
140
13.88862944157506
147
0.0
172
     1
173
     1
174
     1
175
     1
176
     3
177
     3
178
     3
271
     2
279
     2
340
141
  0
DIMSTYLE
105
1D5
102
{ACAD_REACTORS
330
1D6
102
}
330
A
100
AcDbSymbolTableRecord
100
AcDbDimStyleTableRecord
  2
ME10_DIM_15
 70
     0
 41
13.88862944157506
 42
0.0
 44
11.11090355326005
 47
0.2
 48
0.2
 71
     1
 73
     0
 74
     0
 77
     1
 78
     8
 79
     2
140
13.88862944157506
146
0.7200000000000001
147
0.0
172
     1
173
     1
174
     1
175
     1
176
     3
177
     3
178
     3
271
     2
272
     1
279
     2
340
141
  0
DIMSTYLE
105
1F2
102
{ACAD_REACTORS
330
1F3
102
}
330
A
100
AcDbSymbolTableRecord
100
AcDbDimStyleTableRecord
  2
ME10_DIM_16
 70
     0
 41
13.88862944157506
 42
0.0
 44
11.11090355326005
 73
     0
 74
     0
 77
     1
 78
     8
 79
     2
140
13.88862944157506
147
0.0
172
     1
173
     1
174
     1
175
     1
176
     3
177
     3
178
     3
271
     2
279
     2
340
141
  0
DIMSTYLE
105
20F
102
{ACAD_REACTORS
330
210
102
}
330
A
100
AcDbSymbolTableRecord
100
AcDbDimStyleTableRecord
  2
ME10_DIM_17
 70
     0
 41
13.88862944157506
 42
0.0
 44
11.11090355326005
 47
0.2
 48
0.2
 71
     1
 73
     0
 74
     0
 77
     1
 78
     8
 79
     2
140
13.88862944157506
146
0.7200000000000001
147
0.0
172
     1
173
     1
174
     1
175
     1
176
     3
177
     3
178
     3
271
     2
272
     1
279
     2
340
141
  0
DIMSTYLE
105
22C
102
{ACAD_REACTORS
330
22D
102
}
330
A
100
AcDbSymbolTableRecord
100
AcDbDimStyleTableRecord
  2
ME10_DIM_18
 70
     0
 41
13.88862944157506
 42
0.0
 44
11.11090355326005
 73
     0
 74
     0
 77
     1
 78
     8
 79
     2
140
13.88862944157506
147
0.0
172
     1
173
     1
174
     1
175
     1
176
     3
177
     3
178
     3
271
     2
279
     2
340
141
  0
DIMSTYLE
105
249
102
{ACAD_REACTORS
330
24A
102
}
330
A
100
AcDbSymbolTableRecord
100
AcDbDimStyleTableRecord
  2
ME10_DIM_19
 70
     0
 41
13.88862944157506
 42
0.0
 44
11.11090355326005
 47
0.2
 48
0.2
 71
     1
 73
     0
 74
     0
 77
     1
 78
     8
 79
     2
140
13.88862944157506
146
0.7200000000000001
147
0.0
172
     1
173
     1
174
     1
175
     1
176
     3
177
     3
178
     3
271
     2
272
     1
279
     2
340
141
  0
DIMSTYLE
105
266
102
{ACAD_REACTORS
330
267
102
}
330
A
100
AcDbSymbolTableRecord
100
AcDbDimStyleTableRecord
  2
ME10_DIM_20
 70
     0
 41
13.88862944157506
 42
0.0
 44
11.11090355326005
 73
     0
 74
     0
 77
     1
 78
     8
 79
     2
140
13.88862944157506
147
0.0
172
     1
173
     1
174
     1
175
     1
176
     3
177
     3
178
     3
271
     2
279
     2
340
141
  0
DIMSTYLE
105
283
102
{ACAD_REACTORS
330
284
102
}
330
A
100
AcDbSymbolTableRecord
100
AcDbDimStyleTableRecord
  2
ME10_DIM_21
 70
     0
 41
13.88862944157506
 42
0.0
 44
11.11090355326005
 47
0.2
 48
0.2
 71
     1
 73
     0
 74
     0
 77
     1
 78
     8
 79
     2
140
13.88862944157506
146
0.7200000000000001
147
0.0
172
     1
173
     1
174
     1
175
     1
176
     3
177
     3
178
     3
271
     2
272
     1
279
     2
340
141
  0
DIMSTYLE
105
2A0
102
{ACAD_REACTORS
330
2A1
102
}
330
A
100
AcDbSymbolTableRecord
100
AcDbDimStyleTableRecord
  2
ME10_DIM_22
 70
     0
 41
13.88862944157506
 42
0.0
 44
11.11090355326005
 47
1.0
 48
1.0
 71
     1
 73
     0
 74
     0
 77
     1
 78
     8
 79
     2
140
13.88862944157506
146
0.7200000000000001
147
0.0
172
     1
173
     1
174
     1
175
     1
176
     3
177
     3
178
     3
271
     2
272
     0
279
     2
340
141
  0
DIMSTYLE
105
2BD
102
{ACAD_REACTORS
330
2BE
102
}
330
A
100
AcDbSymbolTableRecord
100
AcDbDimStyleTableRecord
  2
ME10_DIM_23
 70
     0
 41
13.88862944157506
 42
0.0
 44
11.11090355326005
 47
0.2
 48
0.2
 71
     1
 73
     0
 74
     0
 77
     1
 78
     8
 79
     2
140
13.88862944157506
146
0.7200000000000001
147
0.0
172
     1
173
     1
174
     1
175
     1
176
     3
177
     3
178
     3
271
     2
272
     1
279
     2
340
141
  0
DIMSTYLE
105
2DA
102
{ACAD_REACTORS
330
2DB
102
}
330
A
100
AcDbSymbolTableRecord
100
AcDbDimStyleTableRecord
  2
ME10_DIM_24
 70
     0
 41
13.88862944157506
 42
0.0
 44
11.11090355326005
 73
     0
 74
     0
 77
     1
 78
     8
 79
     2
140
13.88862944157506
147
0.0
172
     1
173
     1
174
     1
175
     1
176
     3
177
     3
178
     3
271
     2
279
     2
340
141
  0
DIMSTYLE
105
2F7
102
{ACAD_REACTORS
330
2F8
102
}
330
A
100
AcDbSymbolTableRecord
100
AcDbDimStyleTableRecord
  2
ME10_DIM_25
 70
     0
 41
13.88862944157506
 42
0.0
 44
11.11090355326005
 47
0.2
 48
0.2
 71
     1
 73
     0
 74
     0
 77
     1
 78
     8
 79
     2
140
13.88862944157506
146
0.7200000000000001
147
0.0
172
     1
173
     1
174
     1
175
     1
176
     3
177
     3
178
     3
271
     2
272
     1
279
     2
340
141
  0
DIMSTYLE
105
314
102
{ACAD_REACTORS
330
315
102
}
330
A
100
AcDbSymbolTableRecord
100
AcDbDimStyleTableRecord
  2
ME10_DIM_26
 70
     0
 41
13.88862944157506
 42
0.0
 44
11.11090355326005
 47
1.0
 48
1.0
 71
     1
 73
     0
 74
     0
 77
     1
 78
     8
 79
     2
140
13.88862944157506
146
0.7200000000000001
147
0.0
172
     1
173
     1
174
     1
175
     1
176
     3
177
     3
178
     3
271
     2
272
     0
279
     2
340
141
  0
DIMSTYLE
105
331
102
{ACAD_REACTORS
330
332
102
}
330
A
100
AcDbSymbolTableRecord
100
AcDbDimStyleTableRecord
  2
ME10_DIM_27
 70
     0
 41
13.88862944157506
 42
0.0
 44
11.11090355326005
 47
0.2
 48
0.2
 71
     1
 73
     0
 74
     0
 77
     1
 78
     8
 79
     2
140
13.88862944157506
146
0.7200000000000001
147
0.0
172
     1
173
     1
174
     1
175
     1
176
     3
177
     3
178
     3
271
     2
272
     1
279
     2
340
141
  0
DIMSTYLE
105
695
102
{ACAD_REACTORS
330
696
102
}
330
A
100
AcDbSymbolTableRecord
100
AcDbDimStyleTableRecord
  2
ME10_DIM_28
 70
     0
 41
3.5
 42
0.0
 44
2.0
 73
     0
 74
     0
 77
     1
 78
     8
 79
     2
140
3.5
147
0.0
172
     1
173
     1
174
     1
175
     1
176
     3
177
     3
178
     4
271
     2
279
     2
340
141
  0
DIMSTYLE
105
6B2
102
{ACAD_REACTORS
330
6B3
102
}
330
A
100
AcDbSymbolTableRecord
100
AcDbDimStyleTableRecord
  2
ME10_DIM_29
 70
     0
 41
3.5
 42
0.0
 44
2.0
 47
0.5
 48
0.5
 71
     1
 73
     0
 74
     0
 77
     1
 78
     8
 79
     2
140
3.5
146
0.6
147
0.0
172
     1
173
     1
174
     1
175
     1
176
     3
177
     3
178
     4
271
     2
272
     1
279
     2
340
141
  0
DIMSTYLE
105
6CF
102
{ACAD_REACTORS
330
6D0
102
}
330
A
100
AcDbSymbolTableRecord
100
AcDbDimStyleTableRecord
  2
ME10_DIM_30
 70
     0
 41
2.5
 42
0.0
 44
2.0
 73
     0
 74
     0
 77
     1
 78
     8
 79
     2
140
2.5
147
0.0
172
     1
173
     1
174
     1
175
     1
176
     3
177
     3
178
     3
271
     2
279
     2
340
141
  0
DIMSTYLE
105
6EC
102
{ACAD_REACTORS
330
6ED
102
}
330
A
100
AcDbSymbolTableRecord
100
AcDbDimStyleTableRecord
  2
ME10_DIM_31
 70
     0
 41
2.5
 42
0.0
 44
2.0
 73
     0
 74
     0
 77
     1
 78
     8
 79
     2
140
2.5
147
0.0
172
     1
173
     1
174
     1
175
     1
176
     3
177
     3
178
     3
271
     2
279
     2
340
141
  0
DIMSTYLE
105
709
102
{ACAD_REACTORS
330
70A
102
}
330
A
100
AcDbSymbolTableRecord
100
AcDbDimStyleTableRecord
  2
ME10_DIM_32
 70
     0
 41
3.5
 42
0.0
 44
2.0
 47
0.1
 48
0.1
 71
     1
 73
     0
 74
     0
 77
     1
 78
     8
 79
     2
140
3.5
146
0.6
147
0.0
172
     1
173
     1
174
     1
175
     1
176
     3
177
     3
178
     4
271
     2
272
     1
279
     2
340
141
  0
DIMSTYLE
105
726
102
{ACAD_REACTORS
330
727
102
}
330
A
100
AcDbSymbolTableRecord
100
AcDbDimStyleTableRecord
  2
ME10_DIM_33
 70
     0
 41
3.5
 42
0.0
 44
2.0
 47
1.0
 48
1.0
 71
     1
 73
     0
 74
     0
 77
     1
 78
     8
 79
     2
140
3.5
146
0.6
147
0.0
172
     1
173
     1
174
     1
175
     1
176
     3
177
     3
178
     4
271
     2
272
     0
279
     2
340
141
  0
DIMSTYLE
105
743
102
{ACAD_REACTORS
330
744
102
}
330
A
100
AcDbSymbolTableRecord
100
AcDbDimStyleTableRecord
  2
ME10_DIM_34
 70
     0
 41
3.5
 42
0.0
 44
2.0
 47
0.2
 48
0.2
 71
     1
 73
     0
 74
     0
 77
     1
 78
     8
 79
     2
140
3.5
146
0.6
147
0.0
172
     1
173
     1
174
     1
175
     1
176
     3
177
     3
178
     4
271
     2
272
     1
279
     2
340
141
  0
DIMSTYLE
105
760
102
{ACAD_REACTORS
330
761
102
}
330
A
100
AcDbSymbolTableRecord
100
AcDbDimStyleTableRecord
  2
ME10_DIM_35
 70
     0
 41
3.5
 42
0.0
 44
2.0
 47
1.0
 48
1.0
 71
     1
 73
     0
 74
     0
 77
     1
 78
     8
 79
     2
140
3.5
146
0.6
147
0.0
172
     1
173
     1
174
     1
175
     1
176
     3
177
     3
178
     4
271
     2
272
     0
279
     2
340
141
  0
ENDTAB
  0
TABLE
  2
BLOCK_RECORD
  5
1
330
0
100
AcDbSymbolTable
 70
    57
  0
BLOCK_RECORD
  5
77
330
1
100
AcDbSymbolTableRecord
100
AcDbBlockTableRecord
  2
*Model_Space
340
7A
  0
BLOCK_RECORD
  5
73
330
1
100
AcDbSymbolTableRecord
100
AcDbBlockTableRecord
  2
*Paper_Space
340
76
  0
BLOCK_RECORD
  5
7B
330
1
100
AcDbSymbolTableRecord
100
AcDbBlockTableRecord
  2
*Paper_Space0
340
7E
  0
BLOCK_RECORD
  5
88
330
1
100
AcDbSymbolTableRecord
100
AcDbBlockTableRecord
  2
ANSCHLAGMASSE
340
0
102
{BLKREFS
331
95
102
}
  0
BLOCK_RECORD
  5
8B
330
1
100
AcDbSymbolTableRecord
100
AcDbBlockTableRecord
  2
UEBERSICHT
340
0
102
{BLKREFS
331
96
102
}
  0
BLOCK_RECORD
  5
8E
330
1
100
AcDbSymbolTableRecord
100
AcDbBlockTableRecord
  2
a3kl
340
0
102
{BLKREFS
331
92
102
}
  0
BLOCK_RECORD
  5
91
330
1
100
AcDbSymbolTableRecord
100
AcDbBlockTableRecord
  2
rahmen
340
0
102
{BLKREFS
331
97
102
}
  0
BLOCK_RECORD
  5
146
330
1
100
AcDbSymbolTableRecord
100
AcDbBlockTableRecord
  2
*D6
340
0
  0
BLOCK_RECORD
  5
163
330
1
100
AcDbSymbolTableRecord
100
AcDbBlockTableRecord
  2
*D8
340
0
  0
BLOCK_RECORD
  5
180
330
1
100
AcDbSymbolTableRecord
100
AcDbBlockTableRecord
  2
*D10
340
0
  0
BLOCK_RECORD
  5
19D
330
1
100
AcDbSymbolTableRecord
100
AcDbBlockTableRecord
  2
*D12
340
0
  0
BLOCK_RECORD
  5
1BA
330
1
100
AcDbSymbolTableRecord
100
AcDbBlockTableRecord
  2
*D14
340
0
  0
BLOCK_RECORD
  5
1D7
330
1
100
AcDbSymbolTableRecord
100
AcDbBlockTableRecord
  2
*D16
340
0
  0
BLOCK_RECORD
  5
1F4
330
1
100
AcDbSymbolTableRecord
100
AcDbBlockTableRecord
  2
*D18
340
0
  0
BLOCK_RECORD
  5
211
330
1
100
AcDbSymbolTableRecord
100
AcDbBlockTableRecord
  2
*D20
340
0
  0
BLOCK_RECORD
  5
22E
330
1
100
AcDbSymbolTableRecord
100
AcDbBlockTableRecord
  2
*D22
340
0
  0
BLOCK_RECORD
  5
24B
330
1
100
AcDbSymbolTableRecord
100
AcDbBlockTableRecord
  2
*D24
340
0
  0
BLOCK_RECORD
  5
268
330
1
100
AcDbSymbolTableRecord
100
AcDbBlockTableRecord
  2
*D26
340
0
  0
BLOCK_RECORD
  5
285
330
1
100
AcDbSymbolTableRecord
100
AcDbBlockTableRecord
  2
*D28
340
0
  0
BLOCK_RECORD
  5
2A2
330
1
100
AcDbSymbolTableRecord
100
AcDbBlockTableRecord
  2
*D30
340
0
  0
BLOCK_RECORD
  5
2BF
330
1
100
AcDbSymbolTableRecord
100
AcDbBlockTableRecord
  2
*D32
340
0
  0
BLOCK_RECORD
  5
2DC
330
1
100
AcDbSymbolTableRecord
100
AcDbBlockTableRecord
  2
*D34
340
0
  0
BLOCK_RECORD
  5
2F9
330
1
100
AcDbSymbolTableRecord
100
AcDbBlockTableRecord
  2
*D36
340
0
  0
BLOCK_RECORD
  5
316
330
1
100
AcDbSymbolTableRecord
100
AcDbBlockTableRecord
  2
*D38
340
0
  0
BLOCK_RECORD
  5
333
330
1
100
AcDbSymbolTableRecord
100
AcDbBlockTableRecord
  2
*D40
340
0
  0
BLOCK_RECORD
  5
697
330
1
100
AcDbSymbolTableRecord
100
AcDbBlockTableRecord
  2
*D42
340
0
  0
BLOCK_RECORD
  5
6B4
330
1
100
AcDbSymbolTableRecord
100
AcDbBlockTableRecord
  2
*D44
340
0
  0
BLOCK_RECORD
  5
6D1
330
1
100
AcDbSymbolTableRecord
100
AcDbBlockTableRecord
  2
*D46
340
0
  0
BLOCK_RECORD
  5
6EE
330
1
100
AcDbSymbolTableRecord
100
AcDbBlockTableRecord
  2
*D48
340
0
  0
BLOCK_RECORD
  5
70B
330
1
100
AcDbSymbolTableRecord
100
AcDbBlockTableRecord
  2
*D50
340
0
  0
BLOCK_RECORD
  5
728
330
1
100
AcDbSymbolTableRecord
100
AcDbBlockTableRecord
  2
*D52
340
0
  0
BLOCK_RECORD
  5
745
330
1
100
AcDbSymbolTableRecord
100
AcDbBlockTableRecord
  2
*D54
340
0
  0
BLOCK_RECORD
  5
762
330
1
100
AcDbSymbolTableRecord
100
AcDbBlockTableRecord
  2
*D56
340
0
  0
ENDTAB
  0
ENDSEC
  0
SECTION
  2
BLOCKS
  0
BLOCK
  5
78
330
77
100
AcDbEntity
  8
0
100
AcDbBlockBegin
  2
*Model_Space
 70
     0
 10
0.0
 20
0.0
 30
0.0
  3
*Model_Space
  1

  0
ENDBLK
  5
79
330
77
100
AcDbEntity
  8
0
100
AcDbBlockEnd
  0
BLOCK
  5
74
330
73
100
AcDbEntity
 67
     1
  8
0
100
AcDbBlockBegin
  2
*Paper_Space
 70
     0
 10
0.0
 20
0.0
 30
0.0
  3
*Paper_Space
  1

  0
ENDBLK
  5
75
330
73
100
AcDbEntity
 67
     1
  8
0
100
AcDbBlockEnd
  0
BLOCK
  5
7C
330
7B
100
AcDbEntity
 67
     1
  8
0
100
AcDbBlockBegin
  2
*Paper_Space0
 70
     0
 10
0.0
 20
0.0
 30
0.0
  3
*Paper_Space0
  1

  0
ENDBLK
  5
7D
330
7B
100
AcDbEntity
 67
     1
  8
0
100
AcDbBlockEnd
  0
BLOCK
  5
89
330
88
100
AcDbEntity
  8
0
100
AcDbBlockBegin
  2
ANSCHLAGMASSE
 70
     0
 10
2138.664426321146
 20
-1373.791750169718
 30
0.0
  3
ANSCHLAGMASSE
  1

  0
LINE
  5
98
330
88
100
AcDbEntity
  8
0
  6
Continuous
 62
     1
100
AcDbLine
 10
1537.152302679929
 20
-2492.967976678225
 30
0.0
 11
2133.761674352085
 21
-2492.967976678225
 31
0.0
  0
LINE
  5
99
330
88
100
AcDbEntity
  8
0
  6
Continuous
 62
     1
100
AcDbLine
 10
1583.763304182748
 20
-2539.578972625592
 30
0.0
 11
2133.760318821851
 21
-2539.578972625592
 31
0.0
  0
LINE
  5
9A
330
88
100
AcDbEntity
  8
0
  6
DASH_CENTER
 62
     3
100
AcDbLine
 10
1568.763856602984
 20
-2539.578972625592
 30
0.0
 11
1568.763856602984
 21
-2650.578826864426
 31
0.0
  0
LINE
  5
9B
330
88
100
AcDbEntity
  8
0
  6
Continuous
 62
     1
100
AcDbLine
 10
1583.763304182748
 20
-2539.578972625592
 30
0.0
 11
1583.763304182748
 21
-2650.578826864426
 31
0.0
  0
LINE
  5
9C
330
88
100
AcDbEntity
  8
0
  6
Continuous
 62
     1
100
AcDbLine
 10
1537.152302679929
 20
-2492.967976678225
 30
0.0
 11
1537.152302679929
 21
-2650.578826864426
 31
0.0
  0
LINE
  5
9D
330
88
100
AcDbEntity
  8
0
  6
DASH_CENTER
 62
     3
100
AcDbLine
 10
1528.652300353584
 20
-2650.578826864426
 30
0.0
 11
2133.761674352085
 21
-2650.578826864426
 31
0.0
  0
LINE
  5
9E
330
88
100
AcDbEntity
  8
0
  6
Continuous
 62
     1
100
AcDbLine
 10
1583.763304182748
 20
-2539.578972625592
 30
0.0
 11
1537.152302679929
 21
-2492.967976678225
 31
0.0
  0
LINE
  5
9F
330
88
100
AcDbEntity
  8
0
  6
DASH_CENTER
 62
     3
100
AcDbLine
 10
2133.761674352085
 20
-2650.578826864426
 30
0.0
 11
2133.761674352085
 21
-2636.81633395544
 31
0.0
  0
LINE
  5
A0
330
88
100
AcDbEntity
  8
0
  6
DASH_CENTER
 62
     3
100
AcDbLine
 10
2133.761674352085
 20
-2564.216373496367
 30
0.0
 11
2133.761674352085
 21
-2482.967891263153
 31
0.0
  0
LINE
  5
A1
330
88
100
AcDbEntity
  8
0
  6
Continuous
 62
     3
100
AcDbLine
 10
1568.763856602984
 20
-2539.578972625592
 30
0.0
 11
1568.763856602984
 21
-2636.278555112558
 31
0.0
  0
LINE
  5
A2
330
88
100
AcDbEntity
  8
0
  6
Continuous
 62
     1
100
AcDbLine
 10
2763.370957345342
 20
-2492.967976678225
 30
0.0
 11
2166.763446749532
 21
-2492.967976678225
 31
0.0
  0
LINE
  5
A3
330
88
100
AcDbEntity
  8
0
  6
Continuous
 62
     1
100
AcDbLine
 10
2716.761311372757
 20
-2539.578972625592
 30
0.0
 11
2716.759955842523
 21
-2539.578972625592
 31
0.0
  0
LINE
  5
A4
330
88
100
AcDbEntity
  8
0
  6
Continuous
 62
     1
100
AcDbLine
 10
2716.759955842523
 20
-2539.578972625592
 30
0.0
 11
2166.764802279765
 21
-2539.578972625592
 31
0.0
  0
LINE
  5
A5
330
88
100
AcDbEntity
  8
0
  6
DASH_CENTER
 62
     3
100
AcDbLine
 10
2731.760758952521
 20
-2539.578972625592
 30
0.0
 11
2731.760758952521
 21
-2650.578826864426
 31
0.0
  0
LINE
  5
A6
330
88
100
AcDbEntity
  8
0
  6
Continuous
 62
     1
100
AcDbLine
 10
2716.761311372757
 20
-2539.578972625592
 30
0.0
 11
2716.761311372757
 21
-2650.578826864426
 31
0.0
  0
LINE
  5
A7
330
88
100
AcDbEntity
  8
0
  6
Continuous
 62
     1
100
AcDbLine
 10
2763.370957345342
 20
-2492.967976678225
 30
0.0
 11
2763.370957345342
 21
-2650.578826864426
 31
0.0
  0
LINE
  5
A8
330
88
100
AcDbEntity
  8
0
  6
DASH_CENTER
 62
     3
100
AcDbLine
 10
2771.870959671688
 20
-2650.578826864426
 30
0.0
 11
2166.763446749532
 21
-2650.578826864426
 31
0.0
  0
LINE
  5
A9
330
88
100
AcDbEntity
  8
0
  6
Continuous
 62
     1
100
AcDbLine
 10
2716.761311372757
 20
-2539.578972625592
 30
0.0
 11
2763.370957345342
 21
-2492.967976678225
 31
0.0
  0
LINE
  5
AA
330
88
100
AcDbEntity
  8
0
  6
DASH_CENTER
 62
     3
100
AcDbLine
 10
2166.763446749532
 20
-2650.578826864426
 30
0.0
 11
2166.763446749532
 21
-2636.81633395544
 31
0.0
  0
LINE
  5
AB
330
88
100
AcDbEntity
  8
0
  6
DASH_CENTER
 62
     3
100
AcDbLine
 10
2166.763446749532
 20
-2564.216373496367
 30
0.0
 11
2166.763446749532
 21
-2482.967891263153
 31
0.0
  0
LINE
  5
AC
330
88
100
AcDbEntity
  8
0
  6
Continuous
 62
     1
100
AcDbLine
 10
1545.653666091959
 20
-2077.293775036574
 30
0.0
 11
2142.260326703649
 21
-2077.293775036574
 31
0.0
  0
LINE
  5
AD
330
88
100
AcDbEntity
  8
0
  6
Continuous
 62
     1
100
AcDbLine
 10
1592.263306509093
 20
-2123.904093218824
 30
0.0
 11
1592.264662039327
 21
-2123.904093218824
 31
0.0
  0
LINE
  5
AE
330
88
100
AcDbEntity
  8
0
  6
Continuous
 62
     1
100
AcDbLine
 10
1592.264662039327
 20
-2123.904093218824
 30
0.0
 11
2142.258965617963
 21
-2123.904093218824
 31
0.0
  0
LINE
  5
AF
330
88
100
AcDbEntity
  8
0
  6
DASH_CENTER
 62
     3
100
AcDbLine
 10
1577.263858929329
 20
-2123.904093218824
 30
0.0
 11
1577.263858929329
 21
-2234.903269692542
 31
0.0
  0
LINE
  5
B0
330
88
100
AcDbEntity
  8
0
  6
Continuous
 62
     1
100
AcDbLine
 10
1592.263306509093
 20
-2123.904093218824
 30
0.0
 11
1592.263306509093
 21
-2234.903269692542
 31
0.0
  0
LINE
  5
B1
330
88
100
AcDbEntity
  8
0
  6
Continuous
 62
     1
100
AcDbLine
 10
1545.653666091959
 20
-2077.293775036574
 30
0.0
 11
1545.653666091959
 21
-2234.903269692542
 31
0.0
  0
LINE
  5
B2
330
88
100
AcDbEntity
  8
0
  6
Continuous
 62
     1
100
AcDbLine
 10
1592.263306509093
 20
-2123.904093218824
 30
0.0
 11
1545.653666091959
 21
-2077.293775036574
 31
0.0
  0
LINE
  5
B3
330
88
100
AcDbEntity
  8
0
  6
Continuous
 62
     1
100
AcDbLine
 10
2764.199658531411
 20
-2077.293775036574
 30
0.0
 11
2167.593509021285
 21
-2077.293775036574
 31
0.0
  0
LINE
  5
B4
330
88
100
AcDbEntity
  8
0
  6
Continuous
 62
     1
100
AcDbLine
 10
2717.590018114277
 20
-2123.904093218824
 30
0.0
 11
2717.588662584043
 21
-2123.904093218824
 31
0.0
  0
LINE
  5
B5
330
88
100
AcDbEntity
  8
0
  6
Continuous
 62
     1
100
AcDbLine
 10
2717.588662584043
 20
-2123.904093218824
 30
0.0
 11
2167.594864551518
 21
-2123.904093218824
 31
0.0
  0
LINE
  5
B6
330
88
100
AcDbEntity
  8
0
  6
DASH_CENTER
 62
     3
100
AcDbLine
 10
2732.58946569404
 20
-2123.904093218824
 30
0.0
 11
2732.58946569404
 21
-2234.903269692542
 31
0.0
  0
LINE
  5
B7
330
88
100
AcDbEntity
  8
0
  6
Continuous
 62
     1
100
AcDbLine
 10
2717.590018114277
 20
-2123.904093218824
 30
0.0
 11
2717.590018114277
 21
-2234.903269692542
 31
0.0
  0
LINE
  5
B8
330
88
100
AcDbEntity
  8
0
  6
Continuous
 62
     1
100
AcDbLine
 10
2764.199658531411
 20
-2077.293775036574
 30
0.0
 11
2764.199658531411
 21
-2234.903269692542
 31
0.0
  0
LINE
  5
B9
330
88
100
AcDbEntity
  8
0
  6
Continuous
 62
     1
100
AcDbLine
 10
2717.590018114277
 20
-2123.904093218824
 30
0.0
 11
2764.199658531411
 21
-2077.293775036574
 31
0.0
  0
LINE
  5
BA
330
88
100
AcDbEntity
  8
0
  6
Continuous
 62
     3
100
AcDbLine
 10
2732.58946569404
 20
-2123.904093218824
 30
0.0
 11
2732.58946569404
 21
-2207.323351567401
 31
0.0
  0
LINE
  5
BB
330
88
100
AcDbEntity
  8
0
  6
Continuous
 62
     3
100
AcDbLine
 10
2731.760758952521
 20
-2539.578972625592
 30
0.0
 11
2731.760758952521
 21
-2636.278555112558
 31
0.0
  0
LINE
  5
BC
330
88
100
AcDbEntity
  8
0
  6
Continuous
 62
     1
100
AcDbLine
 10
2719.389840048158
 20
-2185.403327712291
 30
0.0
 11
2745.790446870156
 21
-2185.403327712291
 31
0.0
  0
LINE
  5
BD
330
88
100
AcDbEntity
  8
0
  6
Continuous
 62
     1
100
AcDbLine
 10
2745.790446870156
 20
-2185.403327712291
 30
0.0
 11
2745.790446870156
 21
-2234.903269692542
 31
0.0
  0
LINE
  5
BE
330
88
100
AcDbEntity
  8
0
  6
Continuous
 62
     1
100
AcDbLine
 10
2719.389840048158
 20
-2234.903269692542
 30
0.0
 11
2719.389840048158
 21
-2185.403327712291
 31
0.0
  0
LINE
  5
BF
330
88
100
AcDbEntity
  8
0
  6
Continuous
 62
     1
100
AcDbLine
 10
1564.064238838899
 20
-2185.403327712291
 30
0.0
 11
1590.463484575212
 21
-2185.403327712291
 31
0.0
  0
LINE
  5
C0
330
88
100
AcDbEntity
  8
0
  6
Continuous
 62
     1
100
AcDbLine
 10
1590.463484575212
 20
-2185.403327712291
 30
0.0
 11
1590.463484575212
 21
-2234.903269692542
 31
0.0
  0
LINE
  5
C1
330
88
100
AcDbEntity
  8
0
  6
Continuous
 62
     1
100
AcDbLine
 10
1564.064238838899
 20
-2234.903269692542
 30
0.0
 11
1564.064238838899
 21
-2185.403327712291
 31
0.0
  0
LINE
  5
C2
330
88
100
AcDbEntity
  8
0
  6
Continuous
 62
     1
100
AcDbLine
 10
2744.960384598402
 20
-2601.078884884176
 30
0.0
 11
2718.561138862091
 21
-2601.078884884176
 31
0.0
  0
LINE
  5
C3
330
88
100
AcDbEntity
  8
0
  6
Continuous
 62
     1
100
AcDbLine
 10
2718.561138862091
 20
-2601.078884884176
 30
0.0
 11
2718.561138862091
 21
-2650.578826864426
 31
0.0
  0
LINE
  5
C4
330
88
100
AcDbEntity
  8
0
  6
Continuous
 62
     1
100
AcDbLine
 10
2744.960384598402
 20
-2650.578826864426
 30
0.0
 11
2744.960384598402
 21
-2601.078884884176
 31
0.0
  0
LINE
  5
C5
330
88
100
AcDbEntity
  8
0
  6
Continuous
 62
     1
100
AcDbLine
 10
1555.564230957102
 20
-2601.078884884176
 30
0.0
 11
1581.963476693414
 21
-2601.078884884176
 31
0.0
  0
LINE
  5
C6
330
88
100
AcDbEntity
  8
0
  6
Continuous
 62
     1
100
AcDbLine
 10
1581.963476693414
 20
-2601.078884884176
 30
0.0
 11
1581.963476693414
 21
-2650.578826864426
 31
0.0
  0
LINE
  5
C7
330
88
100
AcDbEntity
  8
0
  6
Continuous
 62
     1
100
AcDbLine
 10
1555.564230957102
 20
-2650.578826864426
 30
0.0
 11
1555.564230957102
 21
-2601.078884884176
 31
0.0
  0
LINE
  5
C8
330
88
100
AcDbEntity
  8
0
  6
DASH_CENTER
 62
     3
100
AcDbLine
 10
2142.260326703649
 20
-2067.293689621502
 30
0.0
 11
2142.260326703649
 21
-2154.791377338308
 31
0.0
  0
LINE
  5
C9
330
88
100
AcDbEntity
  8
0
  6
DASH_CENTER
 62
     3
100
AcDbLine
 10
2142.260326703649
 20
-2228.2159779482
 30
0.0
 11
2142.260326703649
 21
-2234.903269692542
 31
0.0
  0
LINE
  5
CA
330
88
100
AcDbEntity
  8
0
  6
DASH_CENTER
 62
     3
100
AcDbLine
 10
1537.152302679929
 20
-2234.903269692542
 30
0.0
 11
2142.260326703649
 21
-2234.903269692542
 31
0.0
  0
LINE
  5
CB
330
88
100
AcDbEntity
  8
0
  6
DASH_CENTER
 62
     3
100
AcDbLine
 10
2167.593509021285
 20
-2234.903269692542
 30
0.0
 11
2772.699666413208
 21
-2234.903269692542
 31
0.0
  0
LINE
  5
CC
330
88
100
AcDbEntity
  8
0
  6
DASH_CENTER
 62
     3
100
AcDbLine
 10
2167.593509021285
 20
-2067.293689621502
 30
0.0
 11
2167.593509021285
 21
-2150.436258694344
 31
0.0
  0
LINE
  5
CD
330
88
100
AcDbEntity
  8
0
  6
DASH_CENTER
 62
     3
100
AcDbLine
 10
2167.593509021285
 20
-2226.566019881444
 30
0.0
 11
2167.593509021285
 21
-2234.903269692542
 31
0.0
  0
LINE
  5
CE
330
88
100
AcDbEntity
  8
1
  6
DOT_CENTER
 62
     3
100
AcDbLine
 10
1683.403315074211
 20
-2100.904445087251
 30
0.0
 11
1711.125074994113
 21
-2100.904445087251
 31
0.0
  0
LINE
  5
CF
330
88
100
AcDbEntity
  8
1
  6
DOT_CENTER
 62
     3
100
AcDbLine
 10
1697.264195034163
 20
-2114.765325047202
 30
0.0
 11
1697.264195034163
 21
-2087.0435651273
 31
0.0
  0
LINE
  5
D0
330
88
100
AcDbEntity
  8
1
  6
DOT_CENTER
 62
     3
100
AcDbLine
 10
1693.402028292694
 20
-2138.904224119156
 30
0.0
 11
1721.123821545306
 21
-2138.904224119156
 31
0.0
  0
LINE
  5
D1
330
88
100
AcDbEntity
  8
1
  6
DOT_CENTER
 62
     3
100
AcDbLine
 10
1707.262924919
 20
-2152.765120745463
 30
0.0
 11
1707.262924919
 21
-2125.04332749285
 31
0.0
  0
LINE
  5
D2
330
88
100
AcDbEntity
  8
1
  6
DOT_CENTER
 62
     3
100
AcDbLine
 10
1828.402489742407
 20
-2138.904224119156
 30
0.0
 11
1856.12428299502
 21
-2138.904224119156
 31
0.0
  0
LINE
  5
D3
330
88
100
AcDbEntity
  8
1
  6
DOT_CENTER
 62
     3
100
AcDbLine
 10
1842.263386368714
 20
-2152.765120745463
 30
0.0
 11
1842.263386368714
 21
-2125.04332749285
 31
0.0
  0
LINE
  5
D4
330
88
100
AcDbEntity
  8
1
  6
DOT_CENTER
 62
     3
100
AcDbLine
 10
1828.402489742407
 20
-2182.904324395061
 30
0.0
 11
1853.401850518238
 21
-2182.904324395061
 31
0.0
  0
LINE
  5
D5
330
88
100
AcDbEntity
  8
1
  6
DOT_CENTER
 62
     3
100
AcDbLine
 10
1842.263386368714
 20
-2196.765221021368
 30
0.0
 11
1842.263386368714
 21
-2169.043427768755
 31
0.0
  0
LINE
  5
D6
330
88
100
AcDbEntity
  8
1
  6
DOT_CENTER
 62
     3
100
AcDbLine
 10
1853.401850518238
 20
-2182.904324395061
 30
0.0
 11
1881.12364377085
 21
-2182.904324395061
 31
0.0
  0
LINE
  5
D7
330
88
100
AcDbEntity
  8
1
  6
DOT_CENTER
 62
     3
100
AcDbLine
 10
1853.401850518238
 20
-2182.904324395061
 30
0.0
 11
1856.12428299502
 21
-2182.904324395061
 31
0.0
  0
LINE
  5
D8
330
88
100
AcDbEntity
  8
1
  6
DOT_CENTER
 62
     3
100
AcDbLine
 10
1867.262747144544
 20
-2196.765221021368
 30
0.0
 11
1867.262747144544
 21
-2169.043427768755
 31
0.0
  0
LINE
  5
D9
330
88
100
AcDbEntity
  8
1
  6
DOT_CENTER
 62
     3
100
AcDbLine
 10
2111.910765872528
 20
-2100.904445087251
 30
0.0
 11
2139.63252579243
 21
-2100.904445087251
 31
0.0
  0
LINE
  5
DA
330
88
100
AcDbEntity
  8
1
  6
DOT_CENTER
 62
     3
100
AcDbLine
 10
2125.771645832479
 20
-2114.765325047202
 30
0.0
 11
2125.771645832479
 21
-2087.0435651273
 31
0.0
  0
LINE
  5
DB
330
88
100
AcDbEntity
  8
1
  6
DOT_CENTER
 62
     3
100
AcDbLine
 10
2598.730282924607
 20
-2100.904445087251
 30
0.0
 11
2626.452042844508
 21
-2100.904445087251
 31
0.0
  0
LINE
  5
DC
330
88
100
AcDbEntity
  8
1
  6
DOT_CENTER
 62
     3
100
AcDbLine
 10
2612.591162884558
 20
-2114.765325047202
 30
0.0
 11
2612.591162884558
 21
-2087.0435651273
 31
0.0
  0
LINE
  5
DD
330
88
100
AcDbEntity
  8
1
  6
DOT_CENTER
 62
     3
100
AcDbLine
 10
2588.731280822632
 20
-2182.904324395061
 30
0.0
 11
2616.450885227245
 21
-2182.904324395061
 31
0.0
  0
LINE
  5
DE
330
88
100
AcDbEntity
  8
1
  6
DOT_CENTER
 62
     3
100
AcDbLine
 10
2602.591083024939
 20
-2196.764126597367
 30
0.0
 11
2602.591083024939
 21
-2169.044522192755
 31
0.0
  0
LINE
  5
DF
330
88
100
AcDbEntity
  8
1
  6
DOT_CENTER
 62
     3
100
AcDbLine
 10
2453.729719393467
 20
-2182.904324395061
 30
0.0
 11
2481.45151264608
 21
-2182.904324395061
 31
0.0
  0
LINE
  5
E0
330
88
100
AcDbEntity
  8
1
  6
DOT_CENTER
 62
     3
100
AcDbLine
 10
2467.590616019774
 20
-2196.765221021368
 30
0.0
 11
2467.590616019774
 21
-2169.043427768755
 31
0.0
  0
LINE
  5
E1
330
88
100
AcDbEntity
  8
1
  6
DOT_CENTER
 62
     3
100
AcDbLine
 10
2453.729719393467
 20
-2138.904224119156
 30
0.0
 11
2481.45151264608
 21
-2138.904224119156
 31
0.0
  0
LINE
  5
E2
330
88
100
AcDbEntity
  8
1
  6
DOT_CENTER
 62
     3
100
AcDbLine
 10
2467.590616019774
 20
-2152.765120745463
 30
0.0
 11
2467.590616019774
 21
-2125.04332749285
 31
0.0
  0
LINE
  5
E3
330
88
100
AcDbEntity
  8
1
  6
DOT_CENTER
 62
     3
100
AcDbLine
 10
2428.730186398632
 20
-2138.90557964939
 30
0.0
 11
2456.451979651244
 21
-2138.90557964939
 31
0.0
  0
LINE
  5
E4
330
88
100
AcDbEntity
  8
1
  6
DOT_CENTER
 62
     3
100
AcDbLine
 10
2442.591083024939
 20
-2152.766476275696
 30
0.0
 11
2442.591083024939
 21
-2125.044683023084
 31
0.0
  0
LINE
  5
E5
330
88
100
AcDbEntity
  8
1
  6
DOT_CENTER
 62
     3
100
AcDbLine
 10
2170.219954402271
 20
-2100.904445087251
 30
0.0
 11
2197.941714322172
 21
-2100.904445087251
 31
0.0
  0
LINE
  5
E6
330
88
100
AcDbEntity
  8
1
  6
DOT_CENTER
 62
     3
100
AcDbLine
 10
2184.080834362221
 20
-2114.765325047202
 30
0.0
 11
2184.080834362221
 21
-2087.0435651273
 31
0.0
  0
LINE
  5
E7
330
88
100
AcDbEntity
  8
1
  6
DOT_CENTER
 62
     3
100
AcDbLine
 10
1674.903301636963
 20
-2516.578646728902
 30
0.0
 11
1702.625083778671
 21
-2516.578646728902
 31
0.0
  0
LINE
  5
E8
330
88
100
AcDbEntity
  8
1
  6
DOT_CENTER
 62
     3
100
AcDbLine
 10
1688.764192707817
 20
-2530.439537799757
 30
0.0
 11
1688.764192707817
 21
-2502.717755658049
 31
0.0
  0
LINE
  5
E9
330
88
100
AcDbEntity
  8
1
  6
DOT_CENTER
 62
     3
100
AcDbLine
 10
1696.902674009798
 20
-2581.57851582857
 30
0.0
 11
1724.624456151507
 21
-2581.57851582857
 31
0.0
  0
LINE
  5
EA
330
88
100
AcDbEntity
  8
1
  6
DOT_CENTER
 62
     3
100
AcDbLine
 10
1710.763565080652
 20
-2595.439406899425
 30
0.0
 11
1710.763565080652
 21
-2583.715998121436
 31
0.0
  0
LINE
  5
EB
330
88
100
AcDbEntity
  8
1
  6
DOT_CENTER
 62
     3
100
AcDbLine
 10
1696.902674009798
 20
-2597.57688919229
 30
0.0
 11
1724.624456151507
 21
-2597.57688919229
 31
0.0
  0
LINE
  5
EC
330
88
100
AcDbEntity
  8
1
  6
DOT_CENTER
 62
     3
100
AcDbLine
 10
1710.763565080652
 20
-2611.437780263143
 30
0.0
 11
1710.763565080652
 21
-2583.715998121436
 31
0.0
  0
LINE
  5
ED
330
88
100
AcDbEntity
  8
1
  6
DOT_CENTER
 62
     3
100
AcDbLine
 10
1710.763565080652
 20
-2583.715998121436
 30
0.0
 11
1710.763565080652
 21
-2567.717624757716
 31
0.0
  0
LINE
  5
EE
330
88
100
AcDbEntity
  8
1
  6
DOT_CENTER
 62
     3
100
AcDbLine
 10
1856.902496235342
 20
-2581.57851582857
 30
0.0
 11
1884.624278377051
 21
-2581.57851582857
 31
0.0
  0
LINE
  5
EF
330
88
100
AcDbEntity
  8
1
  6
DOT_CENTER
 62
     3
100
AcDbLine
 10
1870.763387306196
 20
-2595.439406899425
 30
0.0
 11
1870.763387306196
 21
-2583.715998121436
 31
0.0
  0
LINE
  5
F0
330
88
100
AcDbEntity
  8
1
  6
DOT_CENTER
 62
     3
100
AcDbLine
 10
1856.902496235342
 20
-2597.57688919229
 30
0.0
 11
1884.624278377051
 21
-2597.57688919229
 31
0.0
  0
LINE
  5
F1
330
88
100
AcDbEntity
  8
1
  6
DOT_CENTER
 62
     3
100
AcDbLine
 10
1870.763387306196
 20
-2611.437780263143
 30
0.0
 11
1870.763387306196
 21
-2583.715998121436
 31
0.0
  0
LINE
  5
F2
330
88
100
AcDbEntity
  8
1
  6
DOT_CENTER
 62
     3
100
AcDbLine
 10
1870.763387306196
 20
-2583.715998121436
 30
0.0
 11
1870.763387306196
 21
-2567.717624757716
 31
0.0
  0
LINE
  5
F3
330
88
100
AcDbEntity
  8
1
  6
DOT_CENTER
 62
     3
100
AcDbLine
 10
2169.389881019613
 20
-2516.578646728902
 30
0.0
 11
2197.111663161322
 21
-2516.578646728902
 31
0.0
  0
LINE
  5
F4
330
88
100
AcDbEntity
  8
1
  6
DOT_CENTER
 62
     3
100
AcDbLine
 10
2183.250772090469
 20
-2530.439537799757
 30
0.0
 11
2183.250772090469
 21
-2502.717755658049
 31
0.0
  0
LINE
  5
F5
330
88
100
AcDbEntity
  8
1
  6
DOT_CENTER
 62
     3
100
AcDbLine
 10
2103.413463495746
 20
-2516.578646728902
 30
0.0
 11
2131.135245637455
 21
-2516.578646728902
 31
0.0
  0
LINE
  5
F6
330
88
100
AcDbEntity
  8
1
  6
DOT_CENTER
 62
     3
100
AcDbLine
 10
2117.2743545666
 20
-2530.439537799757
 30
0.0
 11
2117.2743545666
 21
-2502.717755658049
 31
0.0
  0
LINE
  5
F7
330
88
100
AcDbEntity
  8
1
  6
DOT_CENTER
 62
     3
100
AcDbLine
 10
2597.90020954195
 20
-2516.578646728902
 30
0.0
 11
2625.621991683659
 21
-2516.578646728902
 31
0.0
  0
LINE
  5
F8
330
88
100
AcDbEntity
  8
1
  6
DOT_CENTER
 62
     3
100
AcDbLine
 10
2611.761100612805
 20
-2530.439537799757
 30
0.0
 11
2611.761100612805
 21
-2502.717755658047
 31
0.0
  0
LINE
  5
F9
330
88
100
AcDbEntity
  8
1
  6
DOT_CENTER
 62
     3
100
AcDbLine
 10
2575.900837169114
 20
-2581.57851582857
 30
0.0
 11
2603.622619310824
 21
-2581.57851582857
 31
0.0
  0
LINE
  5
FA
330
88
100
AcDbEntity
  8
1
  6
DOT_CENTER
 62
     3
100
AcDbLine
 10
2589.761728239969
 20
-2595.439406899425
 30
0.0
 11
2589.761728239969
 21
-2583.715998121436
 31
0.0
  0
LINE
  5
FB
330
88
100
AcDbEntity
  8
1
  6
DOT_CENTER
 62
     3
100
AcDbLine
 10
2575.900837169114
 20
-2597.57688919229
 30
0.0
 11
2603.622619310824
 21
-2597.57688919229
 31
0.0
  0
LINE
  5
FC
330
88
100
AcDbEntity
  8
1
  6
DOT_CENTER
 62
     3
100
AcDbLine
 10
2589.761728239969
 20
-2611.437780263143
 30
0.0
 11
2589.761728239969
 21
-2583.715998121436
 31
0.0
  0
LINE
  5
FD
330
88
100
AcDbEntity
  8
1
  6
DOT_CENTER
 62
     3
100
AcDbLine
 10
2589.761728239969
 20
-2583.715998121436
 30
0.0
 11
2589.761728239969
 21
-2567.717624757716
 31
0.0
  0
LINE
  5
FE
330
88
100
AcDbEntity
  8
1
  6
DOT_CENTER
 62
     3
100
AcDbLine
 10
2415.900842724566
 20
-2597.57688919229
 30
0.0
 11
2443.622624866274
 21
-2597.57688919229
 31
0.0
  0
LINE
  5
FF
330
88
100
AcDbEntity
  8
1
  6
DOT_CENTER
 62
     3
100
AcDbLine
 10
2429.76173379542
 20
-2611.437780263143
 30
0.0
 11
2429.76173379542
 21
-2595.439406899425
 31
0.0
  0
LINE
  5
100
330
88
100
AcDbEntity
  8
1
  6
DOT_CENTER
 62
     3
100
AcDbLine
 10
2415.900842724566
 20
-2581.57851582857
 30
0.0
 11
2443.622624866274
 21
-2581.57851582857
 31
0.0
  0
LINE
  5
101
330
88
100
AcDbEntity
  8
1
  6
DOT_CENTER
 62
     3
100
AcDbLine
 10
2429.76173379542
 20
-2595.439406899425
 30
0.0
 11
2429.76173379542
 21
-2567.717624757716
 31
0.0
  0
LINE
  5
102
330
88
100
AcDbEntity
  8
1
  6
DOT_CENTER
 62
     3
100
AcDbLine
 10
2429.76173379542
 20
-2595.439406899425
 30
0.0
 11
2429.76173379542
 21
-2583.715998121436
 31
0.0
  0
ARC
  5
103
330
88
100
AcDbEntity
  8
0
  6
Continuous
 62
     1
100
AcDbCircle
 10
2732.58946569404
 20
-2185.403327712291
 30
0.0
 40
13.19962564588195
100
AcDbArc
 50
0.0
 51
180.0
  0
ARC
  5
104
330
88
100
AcDbEntity
  8
0
  6
Continuous
 62
     1
100
AcDbCircle
 10
1577.263858929329
 20
-2185.403327712291
 30
0.0
 40
13.19962564588309
100
AcDbArc
 50
0.0
 51
180.0
  0
ARC
  5
105
330
88
100
AcDbEntity
  8
0
  6
Continuous
 62
     1
100
AcDbCircle
 10
2731.760758952521
 20
-2601.078884884176
 30
0.0
 40
13.19962564588104
100
AcDbArc
 50
0.0
 51
180.0
  0
ARC
  5
106
330
88
100
AcDbEntity
  8
0
  6
Continuous
 62
     1
100
AcDbCircle
 10
1568.763856602984
 20
-2601.078884884176
 30
0.0
 40
13.19962564588195
100
AcDbArc
 50
0.0
 51
180.0
  0
CIRCLE
  5
107
330
88
100
AcDbEntity
  8
0
  6
Continuous
 62
     4
100
AcDbCircle
 10
1688.764192707817
 20
-2516.578646728902
 30
0.0
 40
2.749987517594036
  0
CIRCLE
  5
108
330
88
100
AcDbEntity
  8
0
  6
Continuous
 62
     4
100
AcDbCircle
 10
1710.763565080652
 20
-2581.57851582857
 30
0.0
 40
2.749987517595172
  0
CIRCLE
  5
109
330
88
100
AcDbEntity
  8
0
  6
Continuous
 62
     4
100
AcDbCircle
 10
1710.763565080652
 20
-2597.57688919229
 30
0.0
 40
2.749987517595172
  0
CIRCLE
  5
10A
330
88
100
AcDbEntity
  8
0
  6
Continuous
 62
     4
100
AcDbCircle
 10
1870.763387306196
 20
-2581.57851582857
 30
0.0
 40
2.749987517595172
  0
CIRCLE
  5
10B
330
88
100
AcDbEntity
  8
0
  6
Continuous
 62
     4
100
AcDbCircle
 10
1870.763387306196
 20
-2597.57688919229
 30
0.0
 40
2.749987517595172
  0
CIRCLE
  5
10C
330
88
100
AcDbEntity
  8
0
  6
Continuous
 62
     4
100
AcDbCircle
 10
2117.2743545666
 20
-2516.578646728902
 30
0.0
 40
2.749987517594036
  0
CIRCLE
  5
10D
330
88
100
AcDbEntity
  8
0
  6
Continuous
 62
     4
100
AcDbCircle
 10
2611.761100612805
 20
-2516.578646728902
 30
0.0
 40
2.749987517594036
  0
CIRCLE
  5
10E
330
88
100
AcDbEntity
  8
0
  6
Continuous
 62
     4
100
AcDbCircle
 10
2589.761728239969
 20
-2581.57851582857
 30
0.0
 40
2.749987517593581
  0
CIRCLE
  5
10F
330
88
100
AcDbEntity
  8
0
  6
Continuous
 62
     4
100
AcDbCircle
 10
2589.761728239969
 20
-2597.57688919229
 30
0.0
 40
2.749987517593581
  0
CIRCLE
  5
110
330
88
100
AcDbEntity
  8
0
  6
Continuous
 62
     4
100
AcDbCircle
 10
2429.76173379542
 20
-2581.57851582857
 30
0.0
 40
2.749987517594036
  0
CIRCLE
  5
111
330
88
100
AcDbEntity
  8
0
  6
Continuous
 62
     4
100
AcDbCircle
 10
2429.76173379542
 20
-2597.57688919229
 30
0.0
 40
2.749987517594036
  0
CIRCLE
  5
112
330
88
100
AcDbEntity
  8
0
  6
Continuous
 62
     4
100
AcDbCircle
 10
2183.250772090469
 20
-2516.578646728902
 30
0.0
 40
2.749987517593581
  0
CIRCLE
  5
113
330
88
100
AcDbEntity
  8
0
  6
Continuous
 62
     4
100
AcDbCircle
 10
1697.264195034163
 20
-2100.904445087251
 30
0.0
 40
2.749976406689938
  0
CIRCLE
  5
114
330
88
100
AcDbEntity
  8
0
  6
Continuous
 62
     4
100
AcDbCircle
 10
2125.771645832479
 20
-2100.904445087251
 30
0.0
 40
2.749976406691075
  0
CIRCLE
  5
115
330
88
100
AcDbEntity
  8
0
  6
Continuous
 62
     4
100
AcDbCircle
 10
1707.262924919
 20
-2138.904224119156
 30
0.0
 40
2.74999307304597
  0
CIRCLE
  5
116
330
88
100
AcDbEntity
  8
0
  6
Continuous
 62
     4
100
AcDbCircle
 10
1842.263386368714
 20
-2138.904224119156
 30
0.0
 40
2.74999307304597
  0
CIRCLE
  5
117
330
88
100
AcDbEntity
  8
0
  6
Continuous
 62
     4
100
AcDbCircle
 10
1842.263386368714
 20
-2182.904324395061
 30
0.0
 40
2.74999307304597
  0
CIRCLE
  5
118
330
88
100
AcDbEntity
  8
0
  6
Continuous
 62
     4
100
AcDbCircle
 10
1867.262747144544
 20
-2182.904324395061
 30
0.0
 40
2.74999307304597
  0
CIRCLE
  5
119
330
88
100
AcDbEntity
  8
0
  6
Continuous
 62
     4
100
AcDbCircle
 10
2612.591162884558
 20
-2100.904445087251
 30
0.0
 40
2.749976406691075
  0
CIRCLE
  5
11A
330
88
100
AcDbEntity
  8
0
  6
Continuous
 62
     4
100
AcDbCircle
 10
2184.080834362221
 20
-2100.904445087251
 30
0.0
 40
2.749976406691075
  0
CIRCLE
  5
11B
330
88
100
AcDbEntity
  8
0
  6
Continuous
 62
     4
100
AcDbCircle
 10
2467.590616019774
 20
-2138.904224119156
 30
0.0
 40
2.749993073044606
  0
CIRCLE
  5
11C
330
88
100
AcDbEntity
  8
0
  6
Continuous
 62
     4
100
AcDbCircle
 10
2467.590616019774
 20
-2182.904324395061
 30
0.0
 40
2.749993073044606
  0
CIRCLE
  5
11D
330
88
100
AcDbEntity
  8
0
  6
Continuous
 62
     4
100
AcDbCircle
 10
2442.591083024939
 20
-2138.90557964939
 30
0.0
 40
2.749993073045061
  0
CIRCLE
  5
11E
330
88
100
AcDbEntity
  8
0
  6
Continuous
 62
     4
100
AcDbCircle
 10
2602.591083024939
 20
-2182.904324395061
 30
0.0
 40
2.748898649044804
  0
TEXT
  5
120
330
88
100
AcDbEntity
  8
0
 62
     1
100
AcDbText
 10
2001.439929529123
 20
-1940.810185736957
 30
0.0
 40
22.2218071065201
  1
Direktbefestigung
 41
0.99
  7
CONVERTER_11
100
AcDbText
  0
TEXT
  5
122
330
88
100
AcDbEntity
  8
0
 62
     3
100
AcDbText
 10
2001.439929529123
 20
-1986.901041400833
 30
0.0
 40
11.11090355326005
  1
fixation direct
 41
0.9900000000000003
  7
CONVERTER_11
100
AcDbText
  0
TEXT
  5
123
330
88
100
AcDbEntity
  8
0
 62
     3
100
AcDbText
 10
2001.439929529123
 20
-1964.846058955714
 30
0.0
 40
11.11090355326005
  1
direct installation
 41
0.9900000000000003
  7
CONVERTER_11
100
AcDbText
  0
TEXT
  5
124
330
88
100
AcDbEntity
  8
0
 62
     3
100
AcDbText
 10
1999.360701703588
 20
-2413.155823169147
 30
0.0
 40
11.11090355326005
  1
fixation par plaque de montage
 41
0.9900000000000003
  7
CONVERTER_11
100
AcDbText
  0
TEXT
  5
125
330
88
100
AcDbEntity
  8
0
 62
     3
100
AcDbText
 10
1986.681905217215
 20
-2391.100168514363
 30
0.0
 40
11.11090355326005
  1
installation with mounting plate
 41
0.9900000000000003
  7
CONVERTER_11
100
AcDbText
  0
TEXT
  5
126
330
88
100
AcDbEntity
  8
0
 62
     1
100
AcDbText
 10
1866.67139708018
 20
-2357.68743157174
 30
0.0
 40
22.2218071065201
  1
Befestigung mit Montageplatte
 41
0.99
  7
CONVERTER_11
100
AcDbText
  0
TEXT
  5
127
330
88
100
AcDbEntity
  8
0
 62
     4
100
AcDbText
 10
2026.887043051795
 20
-2173.766172878587
 30
0.0
 40
16.66635532989007
  1
Gewindebohrung M5
 41
0.99
  7
CONVERTER_11
100
AcDbText
  0
TEXT
  5
128
330
88
100
AcDbEntity
  8
0
 62
     3
100
AcDbText
 10
2105.92473880595
 20
-2195.024320209029
 30
0.0
 40
11.11090355326005
  1
threads M5
 41
0.9900000000000003
  7
CONVERTER_11
100
AcDbText
  0
TEXT
  5
129
330
88
100
AcDbEntity
  8
0
 62
     3
100
AcDbText
 10
2039.814051568094
 20
-2214.301576765833
 30
0.0
 40
11.11090355326005
  1
pergages de filetage M5
 41
0.9900000000000003
  7
CONVERTER_11
100
AcDbText
  0
TEXT
  5
12A
330
88
100
AcDbEntity
  8
0
 62
     4
100
AcDbText
 10
2026.887043051795
 20
-2588.141704335674
 30
0.0
 40
16.66635532989007
  1
Gewindebohrung M5
 41
0.99
  7
CONVERTER_11
100
AcDbText
  0
TEXT
  5
12B
330
88
100
AcDbEntity
  8
0
 62
     3
100
AcDbText
 10
2105.92473880595
 20
-2612.177577554431
 30
0.0
 40
11.11090355326005
  1
threads M5
 41
0.9900000000000003
  7
CONVERTER_11
100
AcDbText
  0
TEXT
  5
12C
330
88
100
AcDbEntity
  8
0
 62
     3
100
AcDbText
 10
2042.591777456409
 20
-2628.677785988037
 30
0.0
 40
11.11090355326005
  1
pergages de filetage M5
 41
0.9900000000000003
  7
CONVERTER_11
100
AcDbText
  0
TEXT
  5
12D
330
88
100
AcDbEntity
  8
0
 62
     4
100
AcDbText
 10
1641.112899527113
 20
-2269.449202133109
 30
0.0
 40
16.66635532989007
  1
Anschlagmaße DIN links
 41
0.99
  7
CONVERTER_11
100
AcDbText
  0
TEXT
  5
12E
330
88
100
AcDbEntity
  8
0
 62
     3
100
AcDbText
 10
1641.112899527113
 20
-2294.804767365953
 30
0.0
 40
11.11090355326005
  1
marking dimensions DIN left
 41
0.9900000000000003
  7
CONVERTER_11
100
AcDbText
  0
TEXT
  5
12F
330
88
100
AcDbEntity
  8
0
 62
     3
100
AcDbText
 10
1641.112899527113
 20
-2316.859744255622
 30
0.0
 40
11.11090355326005
  1
dimensions de butee DIN gauche
 41
0.9900000000000003
  7
CONVERTER_11
100
AcDbText
  0
TEXT
  5
130
330
88
100
AcDbEntity
  8
0
 62
     4
100
AcDbText
 10
2313.75234535969
 20
-2269.449202133109
 30
0.0
 40
16.66635532989007
  1
Anschlagmaße DIN rechts
 41
0.99
  7
CONVERTER_11
100
AcDbText
  0
TEXT
  5
131
330
88
100
AcDbEntity
  8
0
 62
     3
100
AcDbText
 10
2313.75234535969
 20
-2294.804767365953
 30
0.0
 40
11.11090355326005
  1
marking dimensions DIN right
 41
0.9900000000000003
  7
CONVERTER_11
100
AcDbText
  0
TEXT
  5
132
330
88
100
AcDbEntity
  8
0
 62
     3
100
AcDbText
 10
2313.75234535969
 20
-2317.382606710482
 30
0.0
 40
11.11090355326005
  1
dimensions de butee DIN droite
 41
0.9900000000000003
  7
CONVERTER_11
100
AcDbText
  0
TEXT
  5
133
330
88
100
AcDbEntity
  8
0
 62
     4
100
AcDbText
 10
1641.112899527113
 20
-2683.824733590197
 30
0.0
 40
16.66635532989007
  1
Anschlagmaße DIN links
 41
0.99
  7
CONVERTER_11
100
AcDbText
  0
TEXT
  5
134
330
88
100
AcDbEntity
  8
0
 62
     3
100
AcDbText
 10
1641.112899527113
 20
-2709.180298823041
 30
0.0
 40
11.11090355326005
  1
marking dimensions DIN left
 41
0.9900000000000003
  7
CONVERTER_11
100
AcDbText
  0
TEXT
  5
135
330
88
100
AcDbEntity
  8
0
 62
     3
100
AcDbText
 10
1641.112899527113
 20
-2731.235959033277
 30
0.0
 40
11.11090355326005
  1
dimensions de butee DIN gauche
 41
0.9900000000000003
  7
CONVERTER_11
100
AcDbText
  0
TEXT
  5
136
330
88
100
AcDbEntity
  8
0
 62
     4
100
AcDbText
 10
2313.75234535969
 20
-2683.824733590197
 30
0.0
 40
16.66635532989007
  1
Anschlagmaße DIN rechts
 41
0.99
  7
CONVERTER_11
100
AcDbText
  0
TEXT
  5
137
330
88
100
AcDbEntity
  8
0
 62
     3
100
AcDbText
 10
2313.75234535969
 20
-2709.180298823041
 30
0.0
 40
11.11090355326005
  1
marking dimensions DIN right
 41
0.9900000000000003
  7
CONVERTER_11
100
AcDbText
  0
TEXT
  5
138
330
88
100
AcDbEntity
  8
0
 62
     3
100
AcDbText
 10
2313.75234535969
 20
-2734.535864055886
 30
0.0
 40
11.11090355326005
  1
dimensions de butee DIN droite
 41
0.9900000000000003
  7
CONVERTER_11
100
AcDbText
  0
DIMENSION
  5
144
330
88
100
AcDbEntity
  8
1
100
AcDbDimension
  2
*D6
 10
1707.262924919
 20
-2227.09410422698
 30
0.0
 11
1786.31955796228
 21
-2212.213128665965
 31
0.0
 70
   160
  1
160
 71
     5
 42
159.999822225544
 53
0.0001388888888889
  3
ME10_DIM_10
100
AcDbAlignedDimension
 13
1867.262747144544
 23
-2196.765221021368
 33
0.0
 14
1707.262924919
 24
-2152.765120745463
 34
0.0
100
AcDbRotatedDimension
  0
DIMENSION
  5
162
330
88
100
AcDbEntity
  8
1
100
AcDbDimension
  2
*D8
 10
2602.591083024939
 20
-2226.641891843069
 30
0.0
 11
2523.097517546338
 21
-2208.586673569022
 31
0.0
 70
   160
  1
160
 71
     5
 42
160.0
 53
0.0001388888888889
  3
ME10_DIM_11
100
AcDbAlignedDimension
 13
2442.591083024939
 23
-2152.766476275696
 33
0.0
 14
2602.591083024939
 24
-2196.764126597367
 34
0.0
100
AcDbRotatedDimension
  0
DIMENSION
  5
17F
330
88
100
AcDbEntity
  8
1
100
AcDbDimension
  2
*D10
 10
1577.263858929329
 20
-2028.857992043096
 30
0.0
 11
1636.279081022367
 21
-2010.802773769049
 31
0.0
 70
   160
  1
120
 71
     5
 42
120.0003361048341
 53
0.0001388888888889
  3
ME10_DIM_12
100
AcDbAlignedDimension
 13
1697.264195034163
 23
-2087.0435651273
 33
0.0
 14
1577.263858929329
 24
-2123.904093218824
 34
0.0
100
AcDbRotatedDimension
  0
DIMENSION
  5
19C
330
88
100
AcDbEntity
  8
1
100
AcDbDimension
  2
*D12
 10
1697.264195034163
 20
-2029.031599911117
 30
0.0
 11
1911.517920433321
 21
-2010.80277376905
 31
0.0
 70
   160
  1
428.5
 71
     5
 42
428.5074507983158
 53
0.0001388888888889
  3
ME10_DIM_13
100
AcDbAlignedDimension
 13
2125.771645832479
 23
-2087.0435651273
 33
0.0
 14
1697.264195034163
 24
-2087.0435651273
 34
0.0
100
AcDbRotatedDimension
  0
DIMENSION
  5
1B9
330
88
100
AcDbEntity
  8
1
100
AcDbDimension
  2
*D14
 10
1577.263858929329
 20
-2197.312380093215
 30
0.0
 11
1638.635888667765
 21
-2179.257161819168
 31
0.0
 70
   160
  1
130
 71
     5
 42
129.9990659896709
 53
0.0001388888888889
  3
ME10_DIM_14
100
AcDbAlignedDimension
 13
1707.262924919
 23
-2152.765120745463
 33
0.0
 14
1577.263858929329
 24
-2123.904093218824
 34
0.0
100
AcDbRotatedDimension
  0
DIMENSION
  5
1D6
330
88
100
AcDbEntity
  8
1
100
AcDbDimension
  2
*D16
 10
1707.262924919
 20
-2197.256222724499
 30
0.0
 11
1778.066526908402
 21
-2179.201004450452
 31
0.0
 70
   160
  1
135
 71
     5
 42
135.000461449714
 53
0.0001388888888889
  3
ME10_DIM_15
100
AcDbAlignedDimension
 13
1842.263386368714
 23
-2196.765221021368
 33
0.0
 14
1707.262924919
 24
-2152.765120745463
 34
0.0
100
AcDbRotatedDimension
  0
DIMENSION
  5
1F3
330
88
100
AcDbEntity
  8
1
100
AcDbDimension
  2
*D18
 10
2732.58946569404
 20
-2027.389339523919
 30
0.0
 11
2667.303644905725
 21
-2009.334121249872
 31
0.0
 70
   160
  1
120
 71
     5
 42
119.9983028094821
 53
0.0001388888888889
  3
ME10_DIM_16
100
AcDbAlignedDimension
 13
2612.591162884558
 23
-2087.0435651273
 33
0.0
 14
2732.58946569404
 24
-2123.904093218824
 34
0.0
100
AcDbRotatedDimension
  0
DIMENSION
  5
210
330
88
100
AcDbEntity
  8
1
100
AcDbDimension
  2
*D20
 10
2612.591162884558
 20
-2027.562947391939
 30
0.0
 11
2398.33599862339
 21
-2009.334121249872
 31
0.0
 70
   160
  1
428.5
 71
     5
 42
428.5103285223367
 53
0.0001388888888889
  3
ME10_DIM_17
100
AcDbAlignedDimension
 13
2184.080834362221
 23
-2087.0435651273
 33
0.0
 14
2612.591162884558
 24
-2087.0435651273
 34
0.0
100
AcDbRotatedDimension
  0
DIMENSION
  5
22D
330
88
100
AcDbEntity
  8
1
100
AcDbDimension
  2
*D22
 10
2732.58946569404
 20
-2196.4051232032
 30
0.0
 11
2663.427136105742
 21
-2178.349904929153
 31
0.0
 70
   160
  1
130
 71
     5
 42
129.9983826691009
 53
0.0001388888888889
  3
ME10_DIM_18
100
AcDbAlignedDimension
 13
2602.591083024939
 23
-2196.764126597367
 33
0.0
 14
2732.58946569404
 24
-2123.904093218824
 34
0.0
100
AcDbRotatedDimension
  0
DIMENSION
  5
24A
330
88
100
AcDbEntity
  8
1
100
AcDbDimension
  2
*D24
 10
2602.591083024939
 20
-2196.4051232032
 30
0.0
 11
2535.090849522357
 21
-2178.349904929153
 31
0.0
 70
   160
  1
135
 71
     5
 42
135.0004670051648
 53
0.0001388888888889
  3
ME10_DIM_19
100
AcDbAlignedDimension
 13
2467.590616019774
 23
-2196.765221021368
 33
0.0
 14
2602.591083024939
 24
-2196.764126597367
 34
0.0
100
AcDbRotatedDimension
  0
DIMENSION
  5
267
330
88
100
AcDbEntity
  8
1
100
AcDbDimension
  2
*D26
 10
1568.763856602984
 20
-2443.230929192259
 30
0.0
 11
1631.159584225249
 21
-2425.175710918211
 31
0.0
 70
   160
  1
120
 71
     5
 42
120.0003361048329
 53
0.0001388888888889
  3
ME10_DIM_20
100
AcDbAlignedDimension
 13
1688.764192707817
 23
-2502.717755658049
 33
0.0
 14
1568.763856602984
 24
-2539.578972625592
 34
0.0
100
AcDbRotatedDimension
  0
DIMENSION
  5
284
330
88
100
AcDbEntity
  8
1
100
AcDbDimension
  2
*D28
 10
1688.764192707817
 20
-2443.404537060278
 30
0.0
 11
1903.019273637209
 21
-2425.175710918211
 31
0.0
 70
   160
  1
428.5
 71
     5
 42
428.5101618587828
 53
0.0001388888888889
  3
ME10_DIM_21
100
AcDbAlignedDimension
 13
2117.2743545666
 23
-2502.717755658049
 33
0.0
 14
1688.764192707817
 24
-2502.717755658049
 34
0.0
100
AcDbRotatedDimension
  0
DIMENSION
  5
2A1
330
88
100
AcDbEntity
  8
1
100
AcDbDimension
  2
*D30
 10
1568.763856602984
 20
-2634.243903138449
 30
0.0
 11
1637.885393167016
 21
-2616.188684864401
 31
0.0
 70
   160
  1
142
 71
     5
 42
141.9997084776678
 53
0.0001388888888889
  3
ME10_DIM_22
100
AcDbAlignedDimension
 13
1710.763565080652
 23
-2611.437780263143
 33
0.0
 14
1568.763856602984
 24
-2539.578972625592
 34
0.0
100
AcDbRotatedDimension
  0
DIMENSION
  5
2BE
330
88
100
AcDbEntity
  8
1
100
AcDbDimension
  2
*D32
 10
1710.763565080652
 20
-2634.243903138449
 30
0.0
 11
1790.763476193425
 21
-2616.188684864401
 31
0.0
 70
   160
  1
160
 71
     5
 42
159.999822225544
 53
0.0001388888888889
  3
ME10_DIM_23
100
AcDbAlignedDimension
 13
1870.763387306196
 23
-2611.437780263143
 33
0.0
 14
1710.763565080652
 24
-2611.437780263143
 34
0.0
100
AcDbRotatedDimension
  0
DIMENSION
  5
2DB
330
88
100
AcDbEntity
  8
1
100
AcDbDimension
  2
*D34
 10
2731.760758952521
 20
-2442.670445113778
 30
0.0
 11
2667.38608841963
 21
-2424.615226839731
 31
0.0
 70
   160
  1
120
 71
     5
 42
119.999658339716
 53
0.0001388888888889
  3
ME10_DIM_24
100
AcDbAlignedDimension
 13
2611.761100612805
 23
-2502.717755658047
 33
0.0
 14
2731.760758952521
 24
-2539.578972625592
 34
0.0
100
AcDbRotatedDimension
  0
DIMENSION
  5
2F8
330
88
100
AcDbEntity
  8
1
100
AcDbDimension
  2
*D36
 10
2611.761100612805
 20
-2442.844052981798
 30
0.0
 11
2397.505936351636
 21
-2424.615226839731
 31
0.0
 70
   160
  1
428.5
 71
     5
 42
428.5103285223367
 53
0.0001388888888889
  3
ME10_DIM_25
100
AcDbAlignedDimension
 13
2183.250772090469
 23
-2502.717755658049
 33
0.0
 14
2611.761100612805
 24
-2502.717755658047
 34
0.0
100
AcDbRotatedDimension
  0
DIMENSION
  5
315
330
88
100
AcDbEntity
  8
1
100
AcDbDimension
  2
*D38
 10
2731.760758952521
 20
-2634.120006657943
 30
0.0
 11
2660.896272774063
 21
-2616.064788383895
 31
0.0
 70
   160
  1
142
 71
     5
 42
141.9990307125517
 53
0.0001388888888889
  3
ME10_DIM_26
100
AcDbAlignedDimension
 13
2589.761728239969
 23
-2611.437780263143
 33
0.0
 14
2731.760758952521
 24
-2539.578972625592
 34
0.0
100
AcDbRotatedDimension
  0
DIMENSION
  5
332
330
88
100
AcDbEntity
  8
1
100
AcDbDimension
  2
*D40
 10
2589.761728239969
 20
-2634.120006657943
 30
0.0
 11
2509.761731017694
 21
-2616.064788383895
 31
0.0
 70
   160
  1
160
 71
     5
 42
159.9999944445494
 53
0.0001388888888889
  3
ME10_DIM_27
100
AcDbAlignedDimension
 13
2429.76173379542
 23
-2611.437780263143
 33
0.0
 14
2589.761728239969
 24
-2611.437780263143
 34
0.0
100
AcDbRotatedDimension
  0
ENDBLK
  5
8A
330
88
100
AcDbEntity
  8
0
100
AcDbBlockEnd
  0
BLOCK
  5
8C
330
8B
100
AcDbEntity
  8
0
100
AcDbBlockBegin
  2
UEBERSICHT
 70
     0
 10
1043.164647319128
 20
-703.6902693949881
 30
0.0
  3
UEBERSICHT
  1

  0
LINE
  5
345
330
8B
100
AcDbEntity
  8
0
  6
DASH_CENTER
 62
     3
100
AcDbLine
 10
1427.151967819852
 20
-767.5865231208828
 30
0.0
 11
1427.151967819852
 21
-917.213231020662
 31
0.0
  0
LINE
  5
346
330
8B
100
AcDbEntity
  8
0
  6
Continuous
 62
     3
100
AcDbLine
 10
1193.750912525375
 20
-880.8763022343406
 30
0.0
 11
1193.788270308342
 21
-880.7741598277425
 31
0.0
  0
LINE
  5
347
330
8B
100
AcDbEntity
  8
0
  6
Continuous
 62
     3
100
AcDbLine
 10
1195.753240892733
 20
-880.9841376078649
 30
0.0
 11
1229.648492976315
 21
-880.9841356078763
 31
0.0
  0
LINE
  5
348
330
8B
100
AcDbEntity
  8
0
  6
Continuous
 62
     3
100
AcDbLine
 10
1229.952553209859
 20
-881.3083777241727
 30
0.0
 11
1229.951271217307
 21
-881.2801188883442
 31
0.0
  0
LINE
  5
349
330
8B
100
AcDbEntity
  8
0
  6
Continuous
 62
     3
100
AcDbLine
 10
1229.951271217307
 20
-881.2801188883442
 30
0.0
 11
1229.947807237431
 21
-881.2520750512666
 31
0.0
  0
LINE
  5
34A
330
8B
100
AcDbEntity
  8
0
  6
Continuous
 62
     3
100
AcDbLine
 10
1229.947807237431
 20
-881.2520750512666
 30
0.0
 11
1229.94207027076
 21
-881.2244592117023
 31
0.0
  0
LINE
  5
34B
330
8B
100
AcDbEntity
  8
0
  6
Continuous
 62
     3
100
AcDbLine
 10
1229.94207027076
 20
-881.2244592117023
 30
0.0
 11
1229.93409731708
 21
-881.1974813684317
 31
0.0
  0
LINE
  5
34C
330
8B
100
AcDbEntity
  8
0
  6
Continuous
 62
     3
100
AcDbLine
 10
1229.93409731708
 20
-881.1974813684317
 30
0.0
 11
1229.92394337607
 21
-881.1713485202517
 31
0.0
  0
LINE
  5
34D
330
8B
100
AcDbEntity
  8
0
  6
Continuous
 62
     3
100
AcDbLine
 10
1229.92394337607
 20
-881.1713485202517
 30
0.0
 11
1229.911705447167
 21
-881.1462576660186
 31
0.0
  0
LINE
  5
34E
330
8B
100
AcDbEntity
  8
0
  6
Continuous
 62
     3
100
AcDbLine
 10
1229.911705447167
 20
-881.1462576660186
 30
0.0
 11
1229.897469529871
 21
-881.1224008046165
 31
0.0
  0
LINE
  5
34F
330
8B
100
AcDbEntity
  8
0
  6
Continuous
 62
     3
100
AcDbLine
 10
1229.897469529871
 20
-881.1224008046165
 30
0.0
 11
1229.881317623707
 21
-881.099958934994
 31
0.0
  0
LINE
  5
350
330
8B
100
AcDbEntity
  8
0
  6
Continuous
 62
     3
100
AcDbLine
 10
1229.881317623707
 20
-881.099958934994
 30
0.0
 11
1229.863403727778
 21
-881.0791050561457
 31
0.0
  0
LINE
  5
351
330
8B
100
AcDbEntity
  8
0
  6
Continuous
 62
     3
100
AcDbLine
 10
1229.863403727778
 20
-881.0791050561457
 30
0.0
 11
1229.843857841331
 21
-881.0599961671599
 31
0.0
  0
LINE
  5
352
330
8B
100
AcDbEntity
  8
0
  6
Continuous
 62
     3
100
AcDbLine
 10
1229.843857841331
 20
-881.0599961671599
 30
0.0
 11
1229.822815963575
 21
-881.0427742672114
 31
0.0
  0
LINE
  5
353
330
8B
100
AcDbEntity
  8
0
  6
Continuous
 62
     3
100
AcDbLine
 10
1229.822815963575
 20
-881.0427742672114
 30
0.0
 11
1229.800462093441
 21
-881.0275763555045
 31
0.0
  0
LINE
  5
354
330
8B
100
AcDbEntity
  8
0
  6
Continuous
 62
     3
100
AcDbLine
 10
1229.800462093441
 20
-881.0275763555045
 30
0.0
 11
1229.776940230093
 21
-881.0145154313826
 31
0.0
  0
LINE
  5
355
330
8B
100
AcDbEntity
  8
0
  6
Continuous
 62
     3
100
AcDbLine
 10
1229.776940230093
 20
-881.0145154313826
 30
0.0
 11
1229.752443372409
 21
-881.0036914942653
 31
0.0
  0
LINE
  5
356
330
8B
100
AcDbEntity
  8
0
  6
Continuous
 62
     3
100
AcDbLine
 10
1229.752443372409
 20
-881.0036914942653
 30
0.0
 11
1229.727159519297
 21
-880.9951845436868
 31
0.0
  0
LINE
  5
357
330
8B
100
AcDbEntity
  8
0
  6
Continuous
 62
     3
100
AcDbLine
 10
1229.727159519297
 20
-880.9951845436868
 30
0.0
 11
1229.701272669688
 21
-880.9890625792524
 31
0.0
  0
LINE
  5
358
330
8B
100
AcDbEntity
  8
0
  6
Continuous
 62
     3
100
AcDbLine
 10
1229.701272669688
 20
-880.9890625792524
 30
0.0
 11
1229.674981822426
 21
-880.9853706007018
 31
0.0
  0
LINE
  5
359
330
8B
100
AcDbEntity
  8
0
  6
Continuous
 62
     3
100
AcDbLine
 10
1229.674981822426
 20
-880.9853706007018
 30
0.0
 11
1229.648492976315
 21
-880.9841356078763
 31
0.0
  0
LINE
  5
35A
330
8B
100
AcDbEntity
  8
0
  6
Continuous
 62
     3
100
AcDbLine
 10
1229.952553209859
 20
-881.3083777241727
 30
0.0
 11
1229.952553209859
 21
-886.9599688909287
 31
0.0
  0
LINE
  5
35B
330
8B
100
AcDbEntity
  8
0
  6
Continuous
 62
     3
100
AcDbLine
 10
1229.648492976315
 20
-887.2842120072197
 30
0.0
 11
1229.67498982238
 21
-887.2831090136275
 31
0.0
  0
LINE
  5
35C
330
8B
100
AcDbEntity
  8
0
  6
Continuous
 62
     3
100
AcDbLine
 10
1229.67498982238
 20
-887.2831090136275
 30
0.0
 11
1229.701295669554
 21
-887.2794160350819
 31
0.0
  0
LINE
  5
35D
330
8B
100
AcDbEntity
  8
0
  6
Continuous
 62
     3
100
AcDbLine
 10
1229.701295669554
 20
-887.2794160350819
 30
0.0
 11
1229.727189519122
 21
-887.2732910706655
 31
0.0
  0
LINE
  5
35E
330
8B
100
AcDbEntity
  8
0
  6
Continuous
 62
     3
100
AcDbLine
 10
1229.727189519122
 20
-887.2732910706655
 30
0.0
 11
1229.752481372188
 21
-887.2647811201046
 31
0.0
  0
LINE
  5
35F
330
8B
100
AcDbEntity
  8
0
  6
Continuous
 62
     3
100
AcDbLine
 10
1229.752481372188
 20
-887.2647811201046
 30
0.0
 11
1229.776986229826
 21
-887.2539521830159
 31
0.0
  0
LINE
  5
360
330
8B
100
AcDbEntity
  8
0
  6
Continuous
 62
     3
100
AcDbLine
 10
1229.776986229826
 20
-887.2539521830159
 30
0.0
 11
1229.800523093087
 21
-887.2408852589291
 31
0.0
  0
LINE
  5
361
330
8B
100
AcDbEntity
  8
0
  6
Continuous
 62
     3
100
AcDbLine
 10
1229.800523093087
 20
-887.2408852589291
 30
0.0
 11
1229.822899963087
 21
-887.2256813472567
 31
0.0
  0
LINE
  5
362
330
8B
100
AcDbEntity
  8
0
  6
Continuous
 62
     3
100
AcDbLine
 10
1229.822899963087
 20
-887.2256813472567
 30
0.0
 11
1229.843941840843
 21
-887.2084544473374
 31
0.0
  0
LINE
  5
363
330
8B
100
AcDbEntity
  8
0
  6
Continuous
 62
     3
100
AcDbLine
 10
1229.843941840843
 20
-887.2084544473374
 30
0.0
 11
1229.863495727244
 21
-887.1893365584041
 31
0.0
  0
LINE
  5
364
330
8B
100
AcDbEntity
  8
0
  6
Continuous
 62
     3
100
AcDbLine
 10
1229.863495727244
 20
-887.1893365584041
 30
0.0
 11
1229.881409623172
 21
-887.1684726796141
 31
0.0
  0
LINE
  5
365
330
8B
100
AcDbEntity
  8
0
  6
Continuous
 62
     3
100
AcDbLine
 10
1229.881409623172
 20
-887.1684726796141
 30
0.0
 11
1229.897560529342
 21
-887.1460228100376
 31
0.0
  0
LINE
  5
366
330
8B
100
AcDbEntity
  8
0
  6
Continuous
 62
     3
100
AcDbLine
 10
1229.897560529342
 20
-887.1460228100376
 30
0.0
 11
1229.911812446545
 21
-887.1221559486937
 31
0.0
  0
LINE
  5
367
330
8B
100
AcDbEntity
  8
0
  6
Continuous
 62
     3
100
AcDbLine
 10
1229.911812446545
 20
-887.1221559486937
 30
0.0
 11
1229.924065375361
 21
-887.0970550945186
 31
0.0
  0
LINE
  5
368
330
8B
100
AcDbEntity
  8
0
  6
Continuous
 62
     3
100
AcDbLine
 10
1229.924065375361
 20
-887.0970550945186
 30
0.0
 11
1229.934212316412
 21
-887.0709112464025
 31
0.0
  0
LINE
  5
369
330
8B
100
AcDbEntity
  8
0
  6
Continuous
 62
     3
100
AcDbLine
 10
1229.934212316412
 20
-887.0709112464025
 30
0.0
 11
1229.942185270092
 21
-887.043922403196
 31
0.0
  0
LINE
  5
36A
330
8B
100
AcDbEntity
  8
0
  6
Continuous
 62
     3
100
AcDbLine
 10
1229.942185270092
 20
-887.043922403196
 30
0.0
 11
1229.947929236722
 21
-887.0162955636956
 31
0.0
  0
LINE
  5
36B
330
8B
100
AcDbEntity
  8
0
  6
Continuous
 62
     3
100
AcDbLine
 10
1229.947929236722
 20
-887.0162955636956
 30
0.0
 11
1229.951393216598
 21
-886.9882397266875
 31
0.0
  0
LINE
  5
36C
330
8B
100
AcDbEntity
  8
0
  6
Continuous
 62
     3
100
AcDbLine
 10
1229.951393216598
 20
-886.9882397266875
 30
0.0
 11
1229.952553209859
 21
-886.9599688909287
 31
0.0
  0
LINE
  5
36D
330
8B
100
AcDbEntity
  8
0
  6
Continuous
 62
     3
100
AcDbLine
 10
1229.648492976315
 20
-887.2842120072197
 30
0.0
 11
1195.753240892733
 21
-887.2842120072197
 31
0.0
  0
LINE
  5
36E
330
8B
100
AcDbEntity
  8
0
  6
Continuous
 62
     3
100
AcDbLine
 10
1195.449182659176
 20
-886.9599688909287
 30
0.0
 11
1195.45046265174
 21
-886.9882277267576
 31
0.0
  0
LINE
  5
36F
330
8B
100
AcDbEntity
  8
0
  6
Continuous
 62
     3
100
AcDbLine
 10
1195.45046265174
 20
-886.9882277267576
 30
0.0
 11
1195.453923631633
 21
-887.0162725638291
 31
0.0
  0
LINE
  5
370
330
8B
100
AcDbEntity
  8
0
  6
Continuous
 62
     3
100
AcDbLine
 10
1195.453923631633
 20
-887.0162725638291
 30
0.0
 11
1195.459662598293
 21
-887.0438884033935
 31
0.0
  0
LINE
  5
371
330
8B
100
AcDbEntity
  8
0
  6
Continuous
 62
     3
100
AcDbLine
 10
1195.459662598293
 20
-887.0438884033935
 30
0.0
 11
1195.467635551973
 21
-887.0708662466643
 31
0.0
  0
LINE
  5
372
330
8B
100
AcDbEntity
  8
0
  6
Continuous
 62
     3
100
AcDbLine
 10
1195.467635551973
 20
-887.0708662466643
 30
0.0
 11
1195.477782493024
 21
-887.0969990948438
 31
0.0
  0
LINE
  5
373
330
8B
100
AcDbEntity
  8
0
  6
Continuous
 62
     3
100
AcDbLine
 10
1195.477782493024
 20
-887.0969990948438
 30
0.0
 11
1195.490025421898
 21
-887.1220899490772
 31
0.0
  0
LINE
  5
374
330
8B
100
AcDbEntity
  8
0
  6
Continuous
 62
     3
100
AcDbLine
 10
1195.490025421898
 20
-887.1220899490772
 30
0.0
 11
1195.50427233913
 21
-887.1459468104793
 31
0.0
  0
LINE
  5
375
330
8B
100
AcDbEntity
  8
0
  6
Continuous
 62
     3
100
AcDbLine
 10
1195.50427233913
 20
-887.1459468104793
 30
0.0
 11
1195.520413245358
 21
-887.168387680108
 31
0.0
  0
LINE
  5
376
330
8B
100
AcDbEntity
  8
0
  6
Continuous
 62
     3
100
AcDbLine
 10
1195.520413245358
 20
-887.168387680108
 30
0.0
 11
1195.538326141292
 21
-887.1892425589502
 31
0.0
  0
LINE
  5
377
330
8B
100
AcDbEntity
  8
0
  6
Continuous
 62
     3
100
AcDbLine
 10
1195.538326141292
 20
-887.1892425589502
 30
0.0
 11
1195.557875027722
 21
-887.2083534479246
 31
0.0
  0
LINE
  5
378
330
8B
100
AcDbEntity
  8
0
  6
Continuous
 62
     3
100
AcDbLine
 10
1195.557875027722
 20
-887.2083534479246
 30
0.0
 11
1195.578910905513
 21
-887.2255723478902
 31
0.0
  0
LINE
  5
379
330
8B
100
AcDbEntity
  8
0
  6
Continuous
 62
     3
100
AcDbLine
 10
1195.578910905513
 20
-887.2255723478902
 30
0.0
 11
1195.601273775595
 21
-887.2407712595911
 31
0.0
  0
LINE
  5
37A
330
8B
100
AcDbEntity
  8
0
  6
Continuous
 62
     3
100
AcDbLine
 10
1195.601273775595
 20
-887.2407712595911
 30
0.0
 11
1195.62479263896
 21
-887.2538321837131
 31
0.0
  0
LINE
  5
37B
330
8B
100
AcDbEntity
  8
0
  6
Continuous
 62
     3
100
AcDbLine
 10
1195.62479263896
 20
-887.2538321837131
 30
0.0
 11
1195.649289496644
 21
-887.264657120825
 31
0.0
  0
LINE
  5
37C
330
8B
100
AcDbEntity
  8
0
  6
Continuous
 62
     3
100
AcDbLine
 10
1195.649289496644
 20
-887.264657120825
 30
0.0
 11
1195.674576349739
 21
-887.2731630714095
 31
0.0
  0
LINE
  5
37D
330
8B
100
AcDbEntity
  8
0
  6
Continuous
 62
     3
100
AcDbLine
 10
1195.674576349739
 20
-887.2731630714095
 30
0.0
 11
1195.700463199348
 21
-887.2792850358434
 31
0.0
  0
LINE
  5
37E
330
8B
100
AcDbEntity
  8
0
  6
Continuous
 62
     3
100
AcDbLine
 10
1195.700463199348
 20
-887.2792850358434
 30
0.0
 11
1195.726751046627
 21
-887.2829780143884
 31
0.0
  0
LINE
  5
37F
330
8B
100
AcDbEntity
  8
0
  6
Continuous
 62
     3
100
AcDbLine
 10
1195.726751046627
 20
-887.2829780143884
 30
0.0
 11
1195.753240892733
 21
-887.2842120072197
 31
0.0
  0
LINE
  5
380
330
8B
100
AcDbEntity
  8
0
  6
Continuous
 62
     3
100
AcDbLine
 10
1195.449182659176
 20
-886.9599688909287
 30
0.0
 11
1195.449182659176
 21
-881.3083817241496
 31
0.0
  0
LINE
  5
381
330
8B
100
AcDbEntity
  8
0
  6
Continuous
 62
     3
100
AcDbLine
 10
1195.753240892733
 20
-880.9841376078649
 30
0.0
 11
1195.726740046691
 21
-880.9852416014505
 31
0.0
  0
LINE
  5
382
330
8B
100
AcDbEntity
  8
0
  6
Continuous
 62
     3
100
AcDbLine
 10
1195.726740046691
 20
-880.9852416014505
 30
0.0
 11
1195.700441199476
 21
-880.9889355799906
 31
0.0
  0
LINE
  5
383
330
8B
100
AcDbEntity
  8
0
  6
Continuous
 62
     3
100
AcDbLine
 10
1195.700441199476
 20
-880.9889355799906
 30
0.0
 11
1195.674544349925
 21
-880.995060544407
 31
0.0
  0
LINE
  5
384
330
8B
100
AcDbEntity
  8
0
  6
Continuous
 62
     3
100
AcDbLine
 10
1195.674544349925
 20
-880.995060544407
 30
0.0
 11
1195.649246496894
 21
-881.0035694949741
 31
0.0
  0
LINE
  5
385
330
8B
100
AcDbEntity
  8
0
  6
Continuous
 62
     3
100
AcDbLine
 10
1195.649246496894
 20
-881.0035694949741
 30
0.0
 11
1195.624739639268
 21
-881.0143994320569
 31
0.0
  0
LINE
  5
386
330
8B
100
AcDbEntity
  8
0
  6
Continuous
 62
     3
100
AcDbLine
 10
1195.624739639268
 20
-881.0143994320569
 30
0.0
 11
1195.601211775955
 21
-881.0274653561494
 31
0.0
  0
LINE
  5
387
330
8B
100
AcDbEntity
  8
0
  6
Continuous
 62
     3
100
AcDbLine
 10
1195.601211775955
 20
-881.0274653561494
 30
0.0
 11
1195.578839905925
 21
-881.0426692678213
 31
0.0
  0
LINE
  5
388
330
8B
100
AcDbEntity
  8
0
  6
Continuous
 62
     3
100
AcDbLine
 10
1195.578839905925
 20
-881.0426692678213
 30
0.0
 11
1195.557796028181
 21
-881.059897167735
 31
0.0
  0
LINE
  5
389
330
8B
100
AcDbEntity
  8
0
  6
Continuous
 62
     3
100
AcDbLine
 10
1195.557796028181
 20
-881.059897167735
 30
0.0
 11
1195.538239141798
 21
-881.0790160566629
 31
0.0
  0
LINE
  5
38A
330
8B
100
AcDbEntity
  8
0
  6
Continuous
 62
     3
100
AcDbLine
 10
1195.538239141798
 20
-881.0790160566629
 30
0.0
 11
1195.52031824591
 21
-881.0998789354584
 31
0.0
  0
LINE
  5
38B
330
8B
100
AcDbEntity
  8
0
  6
Continuous
 62
     3
100
AcDbLine
 10
1195.52031824591
 20
-881.0998789354584
 30
0.0
 11
1195.504170339722
 21
-881.1223278050405
 31
0.0
  0
LINE
  5
38C
330
8B
100
AcDbEntity
  8
0
  6
Continuous
 62
     3
100
AcDbLine
 10
1195.504170339722
 20
-881.1223278050405
 30
0.0
 11
1195.48991842252
 21
-881.1461946663849
 31
0.0
  0
LINE
  5
38D
330
8B
100
AcDbEntity
  8
0
  6
Continuous
 62
     3
100
AcDbLine
 10
1195.48991842252
 20
-881.1461946663849
 30
0.0
 11
1195.477670493675
 21
-881.1712955205598
 31
0.0
  0
LINE
  5
38E
330
8B
100
AcDbEntity
  8
0
  6
Continuous
 62
     3
100
AcDbLine
 10
1195.477670493675
 20
-881.1712955205598
 30
0.0
 11
1195.467519552647
 21
-881.1974393686757
 31
0.0
  0
LINE
  5
38F
330
8B
100
AcDbEntity
  8
0
  6
Continuous
 62
     3
100
AcDbLine
 10
1195.467519552647
 20
-881.1974393686757
 30
0.0
 11
1195.45954259899
 21
-881.2244282118824
 31
0.0
  0
LINE
  5
390
330
8B
100
AcDbEntity
  8
0
  6
Continuous
 62
     3
100
AcDbLine
 10
1195.45954259899
 20
-881.2244282118824
 30
0.0
 11
1195.453801632342
 21
-881.2520550513829
 31
0.0
  0
LINE
  5
391
330
8B
100
AcDbEntity
  8
0
  6
Continuous
 62
     3
100
AcDbLine
 10
1195.453801632342
 20
-881.2520550513829
 30
0.0
 11
1195.450339652455
 21
-881.2801108883911
 31
0.0
  0
LINE
  5
392
330
8B
100
AcDbEntity
  8
0
  6
Continuous
 62
     3
100
AcDbLine
 10
1195.450339652455
 20
-881.2801108883911
 30
0.0
 11
1195.449182659176
 21
-881.3083817241496
 31
0.0
  0
LINE
  5
393
330
8B
100
AcDbEntity
  8
0
  6
Continuous
 62
     3
100
AcDbLine
 10
1195.149481400308
 20
-880.1341195460933
 30
0.0
 11
1230.252249468757
 21
-880.1341155461166
 31
0.0
  0
LINE
  5
394
330
8B
100
AcDbEntity
  8
0
  6
Continuous
 62
     3
100
AcDbLine
 10
1231.650823343661
 20
-880.8188935678591
 30
0.0
 11
1231.540647983731
 21
-880.6937872946715
 31
0.0
  0
LINE
  5
395
330
8B
100
AcDbEntity
  8
0
  6
Continuous
 62
     3
100
AcDbLine
 10
1231.540647983731
 20
-880.6937872946715
 30
0.0
 11
1231.420722680444
 21
-880.5793519594899
 31
0.0
  0
LINE
  5
396
330
8B
100
AcDbEntity
  8
0
  6
Continuous
 62
     3
100
AcDbLine
 10
1231.420722680444
 20
-880.5793519594899
 30
0.0
 11
1231.291893428885
 21
-880.4765005570111
 31
0.0
  0
LINE
  5
397
330
8B
100
AcDbEntity
  8
0
  6
Continuous
 62
     3
100
AcDbLine
 10
1231.291893428885
 20
-880.4765005570111
 30
0.0
 11
1231.155167223204
 21
-880.3860190826689
 31
0.0
  0
LINE
  5
398
330
8B
100
AcDbEntity
  8
0
  6
Continuous
 62
     3
100
AcDbLine
 10
1231.155167223204
 20
-880.3860190826689
 30
0.0
 11
1231.011560057498
 21
-880.3085945324708
 31
0.0
  0
LINE
  5
399
330
8B
100
AcDbEntity
  8
0
  6
Continuous
 62
     3
100
AcDbLine
 10
1231.011560057498
 20
-880.3085945324708
 30
0.0
 11
1230.862177925342
 21
-880.2448199029731
 31
0.0
  0
LINE
  5
39A
330
8B
100
AcDbEntity
  8
0
  6
Continuous
 62
     3
100
AcDbLine
 10
1230.862177925342
 20
-880.2448199029731
 30
0.0
 11
1230.708155820142
 21
-880.1951731913986
 31
0.0
  0
LINE
  5
39B
330
8B
100
AcDbEntity
  8
0
  6
Continuous
 62
     3
100
AcDbLine
 10
1230.708155820142
 20
-880.1951731913986
 30
0.0
 11
1230.550655735148
 21
-880.1600403955049
 31
0.0
  0
LINE
  5
39C
330
8B
100
AcDbEntity
  8
0
  6
Continuous
 62
     3
100
AcDbLine
 10
1230.550655735148
 20
-880.1600403955049
 30
0.0
 11
1230.390889663318
 21
-880.1396835137692
 31
0.0
  0
LINE
  5
39D
330
8B
100
AcDbEntity
  8
0
  6
Continuous
 62
     3
100
AcDbLine
 10
1230.390889663318
 20
-880.1396835137692
 30
0.0
 11
1230.252249468757
 21
-880.1341155461166
 31
0.0
  0
LINE
  5
39E
330
8B
100
AcDbEntity
  8
0
  6
Continuous
 62
     3
100
AcDbLine
 10
1231.650823343661
 20
-880.8188935678591
 30
0.0
 11
1231.650823343661
 21
-887.4493210480091
 31
0.0
  0
LINE
  5
39F
330
8B
100
AcDbEntity
  8
0
  6
Continuous
 62
     3
100
AcDbLine
 10
1230.252249468757
 20
-888.1340980697578
 30
0.0
 11
1230.41299953487
 21
-888.1267251125912
 31
0.0
  0
LINE
  5
3A0
330
8B
100
AcDbEntity
  8
0
  6
Continuous
 62
     3
100
AcDbLine
 10
1230.41299953487
 20
-888.1267251125912
 30
0.0
 11
1230.572521608117
 21
-888.1043192427595
 31
0.0
  0
LINE
  5
3A1
330
8B
100
AcDbEntity
  8
0
  6
Continuous
 62
     3
100
AcDbLine
 10
1230.572521608117
 20
-888.1043192427595
 30
0.0
 11
1230.729617695459
 21
-888.0671674585949
 31
0.0
  0
LINE
  5
3A2
330
8B
100
AcDbEntity
  8
0
  6
Continuous
 62
     3
100
AcDbLine
 10
1230.729617695459
 20
-888.0671674585949
 30
0.0
 11
1230.883066803987
 21
-888.0155507584651
 31
0.0
  0
LINE
  5
3A3
330
8B
100
AcDbEntity
  8
0
  6
Continuous
 62
     3
100
AcDbLine
 10
1230.883066803987
 20
-888.0155507584651
 30
0.0
 11
1231.031716940395
 21
-887.9498621400868
 31
0.0
  0
LINE
  5
3A4
330
8B
100
AcDbEntity
  8
0
  6
Continuous
 62
     3
100
AcDbLine
 10
1231.031716940395
 20
-887.9498621400868
 30
0.0
 11
1231.174439111242
 21
-887.8706026005497
 31
0.0
  0
LINE
  5
3A5
330
8B
100
AcDbEntity
  8
0
  6
Continuous
 62
     3
100
AcDbLine
 10
1231.174439111242
 20
-887.8706026005497
 30
0.0
 11
1231.310135322908
 21
-887.7783731363619
 31
0.0
  0
LINE
  5
3A6
330
8B
100
AcDbEntity
  8
0
  6
Continuous
 62
     3
100
AcDbLine
 10
1231.310135322908
 20
-887.7783731363619
 30
0.0
 11
1231.437789581293
 21
-887.6738787434282
 31
0.0
  0
LINE
  5
3A7
330
8B
100
AcDbEntity
  8
0
  6
Continuous
 62
     3
100
AcDbLine
 10
1231.437789581293
 20
-887.6738787434282
 30
0.0
 11
1231.556425892069
 21
-887.5579124171414
 31
0.0
  0
LINE
  5
3A8
330
8B
100
AcDbEntity
  8
0
  6
Continuous
 62
     3
100
AcDbLine
 10
1231.556425892069
 20
-887.5579124171414
 30
0.0
 11
1231.650823343661
 21
-887.4493210480091
 31
0.0
  0
LINE
  5
3A9
330
8B
100
AcDbEntity
  8
0
  6
Continuous
 62
     3
100
AcDbLine
 10
1230.252249468757
 20
-888.1340980697578
 30
0.0
 11
1195.149481400308
 21
-888.1340980697578
 31
0.0
  0
LINE
  5
3AA
330
8B
100
AcDbEntity
  8
0
  6
Continuous
 62
     3
100
AcDbLine
 10
1193.750912525375
 20
-887.4493210480091
 30
0.0
 11
1193.861102885217
 21
-887.5743963213771
 31
0.0
  0
LINE
  5
3AB
330
8B
100
AcDbEntity
  8
0
  6
Continuous
 62
     3
100
AcDbLine
 10
1193.861102885217
 20
-887.5743963213771
 30
0.0
 11
1193.981018188563
 21
-887.6888316565585
 31
0.0
  0
LINE
  5
3AC
330
8B
100
AcDbEntity
  8
0
  6
Continuous
 62
     3
100
AcDbLine
 10
1193.981018188563
 20
-887.6888316565585
 30
0.0
 11
1194.109826440244
 21
-887.7916820590431
 31
0.0
  0
LINE
  5
3AD
330
8B
100
AcDbEntity
  8
0
  6
Continuous
 62
     3
100
AcDbLine
 10
1194.109826440244
 20
-887.7916820590431
 30
0.0
 11
1194.246546645959
 21
-887.8821645333799
 31
0.0
  0
LINE
  5
3AE
330
8B
100
AcDbEntity
  8
0
  6
Continuous
 62
     3
100
AcDbLine
 10
1194.246546645959
 20
-887.8821645333799
 30
0.0
 11
1194.390138811753
 21
-887.9595910835659
 31
0.0
  0
LINE
  5
3AF
330
8B
100
AcDbEntity
  8
0
  6
Continuous
 62
     3
100
AcDbLine
 10
1194.390138811753
 20
-887.9595910835659
 30
0.0
 11
1194.539509943973
 21
-888.0233717130288
 31
0.0
  0
LINE
  5
3B0
330
8B
100
AcDbEntity
  8
0
  6
Continuous
 62
     3
100
AcDbLine
 10
1194.539509943973
 20
-888.0233717130288
 30
0.0
 11
1194.693523049225
 21
-888.0730204245917
 31
0.0
  0
LINE
  5
3B1
330
8B
100
AcDbEntity
  8
0
  6
Continuous
 62
     3
100
AcDbLine
 10
1194.693523049225
 20
-888.0730204245917
 30
0.0
 11
1194.851007134312
 21
-888.1081612204393
 31
0.0
  0
LINE
  5
3B2
330
8B
100
AcDbEntity
  8
0
  6
Continuous
 62
     3
100
AcDbLine
 10
1194.851007134312
 20
-888.1081612204393
 30
0.0
 11
1195.010761206211
 21
-888.12852410214
 31
0.0
  0
LINE
  5
3B3
330
8B
100
AcDbEntity
  8
0
  6
Continuous
 62
     3
100
AcDbLine
 10
1195.010761206211
 20
-888.12852410214
 30
0.0
 11
1195.149481400308
 21
-888.1340980697578
 31
0.0
  0
LINE
  5
3B4
330
8B
100
AcDbEntity
  8
0
  6
Continuous
 62
     3
100
AcDbLine
 10
1193.750912525375
 20
-887.4493210480091
 30
0.0
 11
1193.750912525375
 21
-880.8763022343406
 31
0.0
  0
LINE
  5
3B5
330
8B
100
AcDbEntity
  8
0
  6
Continuous
 62
     3
100
AcDbLine
 10
1195.149481400308
 20
-880.1341195460933
 30
0.0
 11
1194.988738334154
 21
-880.1416815021616
 31
0.0
  0
LINE
  5
3B6
330
8B
100
AcDbEntity
  8
0
  6
Continuous
 62
     3
100
AcDbLine
 10
1194.988738334154
 20
-880.1416815021616
 30
0.0
 11
1194.829218260895
 21
-880.1640843720109
 31
0.0
  0
LINE
  5
3B7
330
8B
100
AcDbEntity
  8
0
  6
Continuous
 62
     3
100
AcDbLine
 10
1194.829218260895
 20
-880.1640843720109
 30
0.0
 11
1194.672136173473
 21
-880.2012361561757
 31
0.0
  0
LINE
  5
3B8
330
8B
100
AcDbEntity
  8
0
  6
Continuous
 62
     3
100
AcDbLine
 10
1194.672136173473
 20
-880.2012361561757
 30
0.0
 11
1194.518687064944
 21
-880.2528518563113
 31
0.0
  0
LINE
  5
3B9
330
8B
100
AcDbEntity
  8
0
  6
Continuous
 62
     3
100
AcDbLine
 10
1194.518687064944
 20
-880.2528518563113
 30
0.0
 11
1194.37003792853
 21
-880.318538474701
 31
0.0
  0
LINE
  5
3BA
330
8B
100
AcDbEntity
  8
0
  6
Continuous
 62
     3
100
AcDbLine
 10
1194.37003792853
 20
-880.318538474701
 30
0.0
 11
1194.227320757653
 21
-880.397797014244
 31
0.0
  0
LINE
  5
3BB
330
8B
100
AcDbEntity
  8
0
  6
Continuous
 62
     3
100
AcDbLine
 10
1194.227320757653
 20
-880.397797014244
 30
0.0
 11
1194.091622546
 21
-880.4900224784548
 31
0.0
  0
LINE
  5
3BC
330
8B
100
AcDbEntity
  8
0
  6
Continuous
 62
     3
100
AcDbLine
 10
1194.091622546
 20
-880.4900224784548
 30
0.0
 11
1193.963975287574
 21
-880.5945148714005
 31
0.0
  0
LINE
  5
3BD
330
8B
100
AcDbEntity
  8
0
  6
Continuous
 62
     3
100
AcDbLine
 10
1193.963975287574
 20
-880.5945148714005
 30
0.0
 11
1193.845349976735
 21
-880.7104781977049
 31
0.0
  0
LINE
  5
3BE
330
8B
100
AcDbEntity
  8
0
  6
Continuous
 62
     3
100
AcDbLine
 10
1193.845349976735
 20
-880.7104781977049
 30
0.0
 11
1193.788270308342
 21
-880.7741598277425
 31
0.0
  0
LINE
  5
3BF
330
8B
100
AcDbEntity
  8
0
  6
Continuous
 62
     3
100
AcDbLine
 10
1198.634769152328
 20
-881.8841033794617
 30
0.0
 11
1202.392786319911
 21
-881.8841033794617
 31
0.0
  0
LINE
  5
3C0
330
8B
100
AcDbEntity
  8
0
  6
Continuous
 62
     3
100
AcDbLine
 10
1203.900156562757
 20
-882.6125351475949
 30
0.0
 11
1203.781536251889
 21
-882.4793249214875
 31
0.0
  0
LINE
  5
3C1
330
8B
100
AcDbEntity
  8
0
  6
Continuous
 62
     3
100
AcDbLine
 10
1203.781536251889
 20
-882.4793249214875
 30
0.0
 11
1203.652245003013
 21
-882.3576046286287
 31
0.0
  0
LINE
  5
3C2
330
8B
100
AcDbEntity
  8
0
  6
Continuous
 62
     3
100
AcDbLine
 10
1203.652245003013
 20
-882.3576046286287
 30
0.0
 11
1203.513367809829
 21
-882.2482102641615
 31
0.0
  0
LINE
  5
3C3
330
8B
100
AcDbEntity
  8
0
  6
Continuous
 62
     3
100
AcDbLine
 10
1203.513367809829
 20
-882.2482102641615
 30
0.0
 11
1203.365961666193
 21
-882.1519738232533
 31
0.0
  0
LINE
  5
3C4
330
8B
100
AcDbEntity
  8
0
  6
Continuous
 62
     3
100
AcDbLine
 10
1203.365961666193
 20
-882.1519738232533
 30
0.0
 11
1203.211152565565
 21
-882.0696283016438
 31
0.0
  0
LINE
  5
3C5
330
8B
100
AcDbEntity
  8
0
  6
Continuous
 62
     3
100
AcDbLine
 10
1203.211152565565
 20
-882.0696283016438
 30
0.0
 11
1203.050110501149
 21
-882.0018016956865
 31
0.0
  0
LINE
  5
3C6
330
8B
100
AcDbEntity
  8
0
  6
Continuous
 62
     3
100
AcDbLine
 10
1203.050110501149
 20
-882.0018016956865
 30
0.0
 11
1202.884070465768
 21
-881.9490090023888
 31
0.0
  0
LINE
  5
3C7
330
8B
100
AcDbEntity
  8
0
  6
Continuous
 62
     3
100
AcDbLine
 10
1202.884070465768
 20
-881.9490090023888
 30
0.0
 11
1202.714288452126
 21
-881.9116492194325
 31
0.0
  0
LINE
  5
3C8
330
8B
100
AcDbEntity
  8
0
  6
Continuous
 62
     3
100
AcDbLine
 10
1202.714288452126
 20
-881.9116492194325
 30
0.0
 11
1202.542060452695
 21
-881.8900123451332
 31
0.0
  0
LINE
  5
3C9
330
8B
100
AcDbEntity
  8
0
  6
Continuous
 62
     3
100
AcDbLine
 10
1202.542060452695
 20
-881.8900123451332
 30
0.0
 11
1202.392786319911
 21
-881.8841033794617
 31
0.0
  0
LINE
  5
3CA
330
8B
100
AcDbEntity
  8
0
  6
Continuous
 62
     3
100
AcDbLine
 10
1203.900156562757
 20
-882.6125351475949
 30
0.0
 11
1203.900156562757
 21
-882.7581103018681
 31
0.0
  0
LINE
  5
3CB
330
8B
100
AcDbEntity
  8
0
  6
Continuous
 62
     3
100
AcDbLine
 10
1203.900156562757
 20
-882.7581103018681
 30
0.0
 11
1202.720291417251
 21
-882.7581103018681
 31
0.0
  0
LINE
  5
3CC
330
8B
100
AcDbEntity
  8
0
  6
Continuous
 62
     3
100
AcDbLine
 10
1202.720291417251
 20
-882.7581103018681
 30
0.0
 11
1202.720291417251
 21
-882.1831136423442
 31
0.0
  0
LINE
  5
3CD
330
8B
100
AcDbEntity
  8
0
  6
Continuous
 62
     3
100
AcDbLine
 10
1202.720291417251
 20
-882.1831136423442
 30
0.0
 11
1198.307266054976
 21
-882.1831136423442
 31
0.0
  0
LINE
  5
3CE
330
8B
100
AcDbEntity
  8
0
  6
Continuous
 62
     3
100
AcDbLine
 10
1198.307266054976
 20
-882.1831136423442
 30
0.0
 11
1198.307266054976
 21
-886.1852073919502
 31
0.0
  0
LINE
  5
3CF
330
8B
100
AcDbEntity
  8
0
  6
Continuous
 62
     3
100
AcDbLine
 10
1198.307266054976
 20
-886.1852073919502
 30
0.0
 11
1202.720291417251
 21
-886.1852073919502
 31
0.0
  0
LINE
  5
3D0
330
8B
100
AcDbEntity
  8
0
  6
Continuous
 62
     3
100
AcDbLine
 10
1202.720291417251
 20
-886.1852073919502
 30
0.0
 11
1202.720291417251
 21
-884.3335941490041
 31
0.0
  0
LINE
  5
3D1
330
8B
100
AcDbEntity
  8
0
  6
Continuous
 62
     3
100
AcDbLine
 10
1202.720291417251
 20
-884.3335941490041
 30
0.0
 11
1200.841416332685
 21
-884.3335941490041
 31
0.0
  0
LINE
  5
3D2
330
8B
100
AcDbEntity
  8
0
  6
Continuous
 62
     3
100
AcDbLine
 10
1200.841416332685
 20
-884.3335941490041
 30
0.0
 11
1200.841416332685
 21
-884.0345848861158
 31
0.0
  0
LINE
  5
3D3
330
8B
100
AcDbEntity
  8
0
  6
Continuous
 62
     3
100
AcDbLine
 10
1200.841416332685
 20
-884.0345848861158
 30
0.0
 11
1203.900156562757
 21
-884.0345848861158
 31
0.0
  0
LINE
  5
3D4
330
8B
100
AcDbEntity
  8
0
  6
Continuous
 62
     3
100
AcDbLine
 10
1203.900156562757
 20
-884.0345848861158
 30
0.0
 11
1203.900156562757
 21
-885.7557848867051
 31
0.0
  0
LINE
  5
3D5
330
8B
100
AcDbEntity
  8
0
  6
Continuous
 62
     3
100
AcDbLine
 10
1202.392786319911
 20
-886.4842166548392
 30
0.0
 11
1202.566060313266
 21
-886.4761127019191
 31
0.0
  0
LINE
  5
3D6
330
8B
100
AcDbEntity
  8
0
  6
Continuous
 62
     3
100
AcDbLine
 10
1202.566060313266
 20
-886.4761127019191
 30
0.0
 11
1202.738016314278
 21
-886.4522798403777
 31
0.0
  0
LINE
  5
3D7
330
8B
100
AcDbEntity
  8
0
  6
Continuous
 62
     3
100
AcDbLine
 10
1202.738016314278
 20
-886.4522798403777
 30
0.0
 11
1202.907342330569
 21
-886.412761069964
 31
0.0
  0
LINE
  5
3D8
330
8B
100
AcDbEntity
  8
0
  6
Continuous
 62
     3
100
AcDbLine
 10
1202.907342330569
 20
-886.412761069964
 30
0.0
 11
1203.072756369586
 21
-886.3578573889302
 31
0.0
  0
LINE
  5
3D9
330
8B
100
AcDbEntity
  8
0
  6
Continuous
 62
     3
100
AcDbLine
 10
1203.072756369586
 20
-886.3578573889302
 30
0.0
 11
1203.232989438703
 21
-886.2879857948533
 31
0.0
  0
LINE
  5
3DA
330
8B
100
AcDbEntity
  8
0
  6
Continuous
 62
     3
100
AcDbLine
 10
1203.232989438703
 20
-886.2879857948533
 30
0.0
 11
1203.386831544948
 21
-886.2036772846483
 31
0.0
  0
LINE
  5
3DB
330
8B
100
AcDbEntity
  8
0
  6
Continuous
 62
     3
100
AcDbLine
 10
1203.386831544948
 20
-886.2036772846483
 30
0.0
 11
1203.533108695143
 21
-886.1055748545799
 31
0.0
  0
LINE
  5
3DC
330
8B
100
AcDbEntity
  8
0
  6
Continuous
 62
     3
100
AcDbLine
 10
1203.533108695143
 20
-886.1055748545799
 30
0.0
 11
1203.670705895764
 21
-885.9944245003147
 31
0.0
  0
LINE
  5
3DD
330
8B
100
AcDbEntity
  8
0
  6
Continuous
 62
     3
100
AcDbLine
 10
1203.670705895764
 20
-885.9944245003147
 30
0.0
 11
1203.798578152883
 21
-885.8710722169366
 31
0.0
  0
LINE
  5
3DE
330
8B
100
AcDbEntity
  8
0
  6
Continuous
 62
     3
100
AcDbLine
 10
1203.798578152883
 20
-885.8710722169366
 30
0.0
 11
1203.900156562757
 21
-885.7557848867051
 31
0.0
  0
LINE
  5
3DF
330
8B
100
AcDbEntity
  8
0
  6
Continuous
 62
     3
100
AcDbLine
 10
1202.392786319911
 20
-886.4842166548392
 30
0.0
 11
1198.634769152328
 21
-886.4842166548392
 31
0.0
  0
LINE
  5
3E0
330
8B
100
AcDbEntity
  8
0
  6
Continuous
 62
     3
100
AcDbLine
 10
1197.127400909471
 20
-885.7557848867051
 30
0.0
 11
1197.246023220328
 21
-885.8889961128069
 31
0.0
  0
LINE
  5
3E1
330
8B
100
AcDbEntity
  8
0
  6
Continuous
 62
     3
100
AcDbLine
 10
1197.246023220328
 20
-885.8889961128069
 30
0.0
 11
1197.375313469209
 21
-886.0107164056657
 31
0.0
  0
LINE
  5
3E2
330
8B
100
AcDbEntity
  8
0
  6
Continuous
 62
     3
100
AcDbLine
 10
1197.375313469209
 20
-886.0107164056657
 30
0.0
 11
1197.514189662399
 21
-886.1201107701329
 31
0.0
  0
LINE
  5
3E3
330
8B
100
AcDbEntity
  8
0
  6
Continuous
 62
     3
100
AcDbLine
 10
1197.514189662399
 20
-886.1201107701329
 30
0.0
 11
1197.661594806041
 21
-886.2163462110473
 31
0.0
  0
LINE
  5
3E4
330
8B
100
AcDbEntity
  8
0
  6
Continuous
 62
     3
100
AcDbLine
 10
1197.661594806041
 20
-886.2163462110473
 30
0.0
 11
1197.816405906657
 21
-886.2986907326623
 31
0.0
  0
LINE
  5
3E5
330
8B
100
AcDbEntity
  8
0
  6
Continuous
 62
     3
100
AcDbLine
 10
1197.816405906657
 20
-886.2986907326623
 30
0.0
 11
1197.977444971091
 21
-886.3665183386141
 31
0.0
  0
LINE
  5
3E6
330
8B
100
AcDbEntity
  8
0
  6
Continuous
 62
     3
100
AcDbLine
 10
1197.977444971091
 20
-886.3665183386141
 30
0.0
 11
1198.143488006455
 21
-886.4193120319059
 31
0.0
  0
LINE
  5
3E7
330
8B
100
AcDbEntity
  8
0
  6
Continuous
 62
     3
100
AcDbLine
 10
1198.143488006455
 20
-886.4193120319059
 30
0.0
 11
1198.313268020108
 21
-886.4566708148677
 31
0.0
  0
LINE
  5
3E8
330
8B
100
AcDbEntity
  8
0
  6
Continuous
 62
     3
100
AcDbLine
 10
1198.313268020108
 20
-886.4566708148677
 30
0.0
 11
1198.485496019539
 21
-886.4783086891614
 31
0.0
  0
LINE
  5
3E9
330
8B
100
AcDbEntity
  8
0
  6
Continuous
 62
     3
100
AcDbLine
 10
1198.485496019539
 20
-886.4783086891614
 30
0.0
 11
1198.634769152328
 21
-886.4842166548392
 31
0.0
  0
LINE
  5
3EA
330
8B
100
AcDbEntity
  8
0
  6
Continuous
 62
     3
100
AcDbLine
 10
1197.127400909471
 20
-885.7557848867051
 30
0.0
 11
1197.127400909471
 21
-882.6125351475949
 31
0.0
  0
LINE
  5
3EB
330
8B
100
AcDbEntity
  8
0
  6
Continuous
 62
     3
100
AcDbLine
 10
1198.634769152328
 20
-881.8841033794617
 30
0.0
 11
1198.461495158974
 21
-881.8922083323755
 31
0.0
  0
LINE
  5
3EC
330
8B
100
AcDbEntity
  8
0
  6
Continuous
 62
     3
100
AcDbLine
 10
1198.461495158974
 20
-881.8922083323755
 30
0.0
 11
1198.28954115795
 21
-881.9160401939226
 31
0.0
  0
LINE
  5
3ED
330
8B
100
AcDbEntity
  8
0
  6
Continuous
 62
     3
100
AcDbLine
 10
1198.28954115795
 20
-881.9160401939226
 30
0.0
 11
1198.120214141665
 21
-881.9555589643362
 31
0.0
  0
LINE
  5
3EE
330
8B
100
AcDbEntity
  8
0
  6
Continuous
 62
     3
100
AcDbLine
 10
1198.120214141665
 20
-881.9555589643362
 30
0.0
 11
1197.954804102624
 21
-882.0104626453705
 31
0.0
  0
LINE
  5
3EF
330
8B
100
AcDbEntity
  8
0
  6
Continuous
 62
     3
100
AcDbLine
 10
1197.954804102624
 20
-882.0104626453705
 30
0.0
 11
1197.794567033531
 21
-882.0803352394412
 31
0.0
  0
LINE
  5
3F0
330
8B
100
AcDbEntity
  8
0
  6
Continuous
 62
     3
100
AcDbLine
 10
1197.794567033531
 20
-882.0803352394412
 30
0.0
 11
1197.64072592728
 21
-882.1646427496519
 31
0.0
  0
LINE
  5
3F1
330
8B
100
AcDbEntity
  8
0
  6
Continuous
 62
     3
100
AcDbLine
 10
1197.64072592728
 20
-882.1646427496519
 30
0.0
 11
1197.494448777085
 21
-882.2627451797202
 31
0.0
  0
LINE
  5
3F2
330
8B
100
AcDbEntity
  8
0
  6
Continuous
 62
     3
100
AcDbLine
 10
1197.494448777085
 20
-882.2627451797202
 30
0.0
 11
1197.35685057647
 21
-882.3738965339801
 31
0.0
  0
LINE
  5
3F3
330
8B
100
AcDbEntity
  8
0
  6
Continuous
 62
     3
100
AcDbLine
 10
1197.35685057647
 20
-882.3738965339801
 30
0.0
 11
1197.228979319345
 21
-882.497247817364
 31
0.0
  0
LINE
  5
3F4
330
8B
100
AcDbEntity
  8
0
  6
Continuous
 62
     3
100
AcDbLine
 10
1197.228979319345
 20
-882.497247817364
 30
0.0
 11
1197.127400909471
 21
-882.6125351475949
 31
0.0
  0
LINE
  5
3F5
330
8B
100
AcDbEntity
  8
0
  6
Continuous
 62
     3
100
AcDbLine
 10
1205.578373813058
 20
-881.8841033794617
 30
0.0
 11
1212.351131466332
 21
-881.8841033794617
 31
0.0
  0
LINE
  5
3F6
330
8B
100
AcDbEntity
  8
0
  6
Continuous
 62
     3
100
AcDbLine
 10
1212.351131466332
 20
-881.8841033794617
 30
0.0
 11
1212.351131466332
 21
-882.1831136423442
 31
0.0
  0
LINE
  5
3F7
330
8B
100
AcDbEntity
  8
0
  6
Continuous
 62
     3
100
AcDbLine
 10
1212.351131466332
 20
-882.1831136423442
 30
0.0
 11
1206.758237958569
 21
-882.1831136423442
 31
0.0
  0
LINE
  5
3F8
330
8B
100
AcDbEntity
  8
0
  6
Continuous
 62
     3
100
AcDbLine
 10
1206.758237958569
 20
-882.1831136423442
 30
0.0
 11
1206.758237958569
 21
-884.0345848861158
 31
0.0
  0
LINE
  5
3F9
330
8B
100
AcDbEntity
  8
0
  6
Continuous
 62
     3
100
AcDbLine
 10
1206.758237958569
 20
-884.0345848861158
 30
0.0
 11
1212.351131466332
 21
-884.0345848861158
 31
0.0
  0
LINE
  5
3FA
330
8B
100
AcDbEntity
  8
0
  6
Continuous
 62
     3
100
AcDbLine
 10
1212.351131466332
 20
-884.0345848861158
 30
0.0
 11
1212.351131466332
 21
-884.3335941490041
 31
0.0
  0
LINE
  5
3FB
330
8B
100
AcDbEntity
  8
0
  6
Continuous
 62
     3
100
AcDbLine
 10
1212.351131466332
 20
-884.3335941490041
 30
0.0
 11
1206.758237958569
 21
-884.3335941490041
 31
0.0
  0
LINE
  5
3FC
330
8B
100
AcDbEntity
  8
0
  6
Continuous
 62
     3
100
AcDbLine
 10
1206.758237958569
 20
-884.3335941490041
 30
0.0
 11
1206.758237958569
 21
-886.1852073919502
 31
0.0
  0
LINE
  5
3FD
330
8B
100
AcDbEntity
  8
0
  6
Continuous
 62
     3
100
AcDbLine
 10
1206.758237958569
 20
-886.1852073919502
 30
0.0
 11
1212.351131466332
 21
-886.1852073919502
 31
0.0
  0
LINE
  5
3FE
330
8B
100
AcDbEntity
  8
0
  6
Continuous
 62
     3
100
AcDbLine
 10
1212.351131466332
 20
-886.1852073919502
 30
0.0
 11
1212.351131466332
 21
-886.4842166548392
 31
0.0
  0
LINE
  5
3FF
330
8B
100
AcDbEntity
  8
0
  6
Continuous
 62
     3
100
AcDbLine
 10
1212.351131466332
 20
-886.4842166548392
 30
0.0
 11
1205.578373813058
 21
-886.4842166548392
 31
0.0
  0
LINE
  5
400
330
8B
100
AcDbEntity
  8
0
  6
Continuous
 62
     3
100
AcDbLine
 10
1205.578373813058
 20
-886.4842166548392
 30
0.0
 11
1205.578373813058
 21
-881.8841033794617
 31
0.0
  0
LINE
  5
401
330
8B
100
AcDbEntity
  8
0
  6
Continuous
 62
     3
100
AcDbLine
 10
1213.539867560301
 20
-881.8841033794617
 30
0.0
 11
1220.312621213599
 21
-881.8841033794617
 31
0.0
  0
LINE
  5
402
330
8B
100
AcDbEntity
  8
0
  6
Continuous
 62
     3
100
AcDbLine
 10
1220.312621213599
 20
-881.8841033794617
 30
0.0
 11
1220.312621213599
 21
-882.3327587729723
 31
0.0
  0
LINE
  5
403
330
8B
100
AcDbEntity
  8
0
  6
Continuous
 62
     3
100
AcDbLine
 10
1220.312621213599
 20
-882.3327587729723
 30
0.0
 11
1214.21381064499
 21
-886.1852073919502
 31
0.0
  0
LINE
  5
404
330
8B
100
AcDbEntity
  8
0
  6
Continuous
 62
     3
100
AcDbLine
 10
1214.21381064499
 20
-886.1852073919502
 30
0.0
 11
1220.312621213599
 21
-886.1852073919502
 31
0.0
  0
LINE
  5
405
330
8B
100
AcDbEntity
  8
0
  6
Continuous
 62
     3
100
AcDbLine
 10
1220.312621213599
 20
-886.1852073919502
 30
0.0
 11
1220.312621213599
 21
-886.4842166548392
 31
0.0
  0
LINE
  5
406
330
8B
100
AcDbEntity
  8
0
  6
Continuous
 62
     3
100
AcDbLine
 10
1220.312621213599
 20
-886.4842166548392
 30
0.0
 11
1213.539867560301
 21
-886.4842166548392
 31
0.0
  0
LINE
  5
407
330
8B
100
AcDbEntity
  8
0
  6
Continuous
 62
     3
100
AcDbLine
 10
1213.539867560301
 20
-886.4842166548392
 30
0.0
 11
1213.539867560301
 21
-886.0355622613223
 31
0.0
  0
LINE
  5
408
330
8B
100
AcDbEntity
  8
0
  6
Continuous
 62
     3
100
AcDbLine
 10
1213.539867560301
 20
-886.0355622613223
 30
0.0
 11
1219.638682128887
 21
-882.1831136423442
 31
0.0
  0
LINE
  5
409
330
8B
100
AcDbEntity
  8
0
  6
Continuous
 62
     3
100
AcDbLine
 10
1219.638682128887
 20
-882.1831136423442
 30
0.0
 11
1213.539867560301
 21
-882.1831136423442
 31
0.0
  0
LINE
  5
40A
330
8B
100
AcDbEntity
  8
0
  6
Continuous
 62
     3
100
AcDbLine
 10
1213.539867560301
 20
-882.1831136423442
 30
0.0
 11
1213.539867560301
 21
-881.8841033794617
 31
0.0
  0
LINE
  5
40B
330
8B
100
AcDbEntity
  8
0
  6
Continuous
 62
     3
100
AcDbLine
 10
1221.501354307586
 20
-881.8841033794617
 30
0.0
 11
1228.274110960866
 21
-881.8841033794617
 31
0.0
  0
LINE
  5
40C
330
8B
100
AcDbEntity
  8
0
  6
Continuous
 62
     3
100
AcDbLine
 10
1228.274110960866
 20
-881.8841033794617
 30
0.0
 11
1228.274110960866
 21
-882.1831136423442
 31
0.0
  0
LINE
  5
40D
330
8B
100
AcDbEntity
  8
0
  6
Continuous
 62
     3
100
AcDbLine
 10
1228.274110960866
 20
-882.1831136423442
 30
0.0
 11
1222.681217453103
 21
-882.1831136423442
 31
0.0
  0
LINE
  5
40E
330
8B
100
AcDbEntity
  8
0
  6
Continuous
 62
     3
100
AcDbLine
 10
1222.681217453103
 20
-882.1831136423442
 30
0.0
 11
1222.681217453103
 21
-884.0345848861158
 31
0.0
  0
LINE
  5
40F
330
8B
100
AcDbEntity
  8
0
  6
Continuous
 62
     3
100
AcDbLine
 10
1222.681217453103
 20
-884.0345848861158
 30
0.0
 11
1228.274110960866
 21
-884.0345848861158
 31
0.0
  0
LINE
  5
410
330
8B
100
AcDbEntity
  8
0
  6
Continuous
 62
     3
100
AcDbLine
 10
1228.274110960866
 20
-884.0345848861158
 30
0.0
 11
1228.274110960866
 21
-884.3335941490041
 31
0.0
  0
LINE
  5
411
330
8B
100
AcDbEntity
  8
0
  6
Continuous
 62
     3
100
AcDbLine
 10
1228.274110960866
 20
-884.3335941490041
 30
0.0
 11
1222.681217453103
 21
-884.3335941490041
 31
0.0
  0
LINE
  5
412
330
8B
100
AcDbEntity
  8
0
  6
Continuous
 62
     3
100
AcDbLine
 10
1222.681217453103
 20
-884.3335941490041
 30
0.0
 11
1222.681217453103
 21
-886.1852073919502
 31
0.0
  0
LINE
  5
413
330
8B
100
AcDbEntity
  8
0
  6
Continuous
 62
     3
100
AcDbLine
 10
1222.681217453103
 20
-886.1852073919502
 30
0.0
 11
1228.274110960866
 21
-886.1852073919502
 31
0.0
  0
LINE
  5
414
330
8B
100
AcDbEntity
  8
0
  6
Continuous
 62
     3
100
AcDbLine
 10
1228.274110960866
 20
-886.1852073919502
 30
0.0
 11
1228.274110960866
 21
-886.4842166548392
 31
0.0
  0
LINE
  5
415
330
8B
100
AcDbEntity
  8
0
  6
Continuous
 62
     3
100
AcDbLine
 10
1228.274110960866
 20
-886.4842166548392
 30
0.0
 11
1221.501354307586
 21
-886.4842166548392
 31
0.0
  0
LINE
  5
416
330
8B
100
AcDbEntity
  8
0
  6
Continuous
 62
     3
100
AcDbLine
 10
1221.501354307586
 20
-886.4842166548392
 30
0.0
 11
1221.501354307586
 21
-881.8841033794617
 31
0.0
  0
LINE
  5
417
330
8B
100
AcDbEntity
  8
1
  6
Continuous
 62
     1
100
AcDbLine
 10
1251.650707153185
 20
-893.6396340850293
 30
0.0
 11
964.6523744865183
 21
-893.6396340850293
 31
0.0
  0
LINE
  5
418
330
8B
100
AcDbEntity
  8
1
  6
Continuous
 62
     1
100
AcDbLine
 10
964.6523744865183
 20
-893.6396340850293
 30
0.0
 11
964.6523744865183
 21
-833.343325099152
 31
0.0
  0
LINE
  5
419
330
8B
100
AcDbEntity
  8
1
  6
Continuous
 62
     1
100
AcDbLine
 10
1251.650707153185
 20
-833.343325099152
 30
0.0
 11
1251.650707153185
 21
-893.6396340850293
 31
0.0
  0
LINE
  5
41A
330
8B
100
AcDbEntity
  8
1
  6
Continuous
 62
     1
100
AcDbLine
 10
1251.650707153185
 20
-833.343325099152
 30
0.0
 11
964.6523744865183
 21
-833.343325099152
 31
0.0
  0
LINE
  5
41B
330
8B
100
AcDbEntity
  8
0
  6
Continuous
 62
     3
100
AcDbLine
 10
1055.652247819851
 20
-826.4914647035244
 30
0.0
 11
1427.151967819852
 21
-826.4914647035244
 31
0.0
  0
LINE
  5
41C
330
8B
100
AcDbEntity
  8
1
  6
Continuous
 62
     3
100
AcDbLine
 10
804.0460750983394
 20
-770.1928088562085
 30
0.0
 11
941.0669197632307
 21
-907.2114824226014
 31
0.0
  0
LINE
  5
41D
330
8B
100
AcDbEntity
  8
0
  6
Continuous
 62
     3
100
AcDbLine
 10
804.0460750983394
 20
-770.1928088562085
 30
0.0
 11
804.0460750983397
 21
-992.8717110206617
 31
0.0
  0
LINE
  5
41E
330
8B
100
AcDbEntity
  8
0
  6
Continuous
 62
     3
100
AcDbLine
 10
1427.151967819852
 20
-907.2114824226014
 30
0.0
 11
941.0669197632307
 21
-907.2114824226014
 31
0.0
  0
LINE
  5
41F
330
8B
100
AcDbEntity
  8
0
  6
Continuous
 62
     3
100
AcDbLine
 10
860.3434043470921
 20
-986.0148481635189
 30
0.0
 11
860.3433970109165
 21
-992.8717110206617
 31
0.0
  0
LINE
  5
420
330
8B
100
AcDbEntity
  8
0
  6
Continuous
 62
     3
100
AcDbLine
 10
848.9632526928728
 20
-992.8717110206617
 30
0.0
 11
848.9632595052949
 21
-986.0148481635189
 31
0.0
  0
LINE
  5
421
330
8B
100
AcDbEntity
  8
0
  6
Continuous
 62
     3
100
AcDbLine
 10
848.963335002602
 20
-910.0250338778046
 30
0.0
 11
848.9635037322173
 21
-815.112137479047
 31
0.0
  0
LINE
  5
422
330
8B
100
AcDbEntity
  8
0
  6
Continuous
 62
     3
100
AcDbLine
 10
941.0669197632307
 20
-907.2114824226014
 30
0.0
 11
941.0669197632307
 21
-992.8717110206617
 31
0.0
  0
LINE
  5
423
330
8B
100
AcDbEntity
  8
0
  6
Continuous
 62
     3
100
AcDbLine
 10
860.3436465075111
 20
-826.4914647035244
 30
0.0
 11
1033.652387819852
 21
-826.4914647035244
 31
0.0
  0
LINE
  5
424
330
8B
100
AcDbEntity
  8
0
  6
Continuous
 62
     3
100
AcDbLine
 10
860.3436465075111
 20
-826.4914647035244
 30
0.0
 11
860.3434856487934
 21
-910.0250338778046
 31
0.0
  0
LINE
  5
425
330
8B
100
AcDbEntity
  8
0
  6
DASH_CENTER
 62
     3
100
AcDbLine
 10
974.6526649627085
 20
-796.4916195920903
 30
0.0
 11
974.6526649627085
 21
-810.4916910206616
 31
0.0
  0
LINE
  5
426
330
8B
100
AcDbEntity
  8
0
  6
DASH_CENTER
 62
     3
100
AcDbLine
 10
967.6521078198515
 20
-803.4918281635187
 30
0.0
 11
981.6525278198515
 21
-803.4918281635187
 31
0.0
  0
LINE
  5
427
330
8B
100
AcDbEntity
  8
0
  6
Continuous
 62
     1
100
AcDbLine
 10
1033.652387819852
 20
-833.343325099152
 30
0.0
 11
1033.652387819852
 21
-824.7554310206616
 31
0.0
  0
LINE
  5
428
330
8B
100
AcDbEntity
  8
0
  6
Continuous
 62
     1
100
AcDbLine
 10
1055.652247819851
 20
-824.7554310206616
 30
0.0
 11
1055.652247819851
 21
-833.343325099152
 31
0.0
  0
LINE
  5
429
330
8B
100
AcDbEntity
  8
0
  6
Continuous
 62
     1
100
AcDbLine
 10
1033.652387819852
 20
-822.9916910206616
 30
0.0
 11
1033.652387819852
 21
-816.9917595920903
 31
0.0
  0
LINE
  5
42A
330
8B
100
AcDbEntity
  8
0
  6
DASH_CENTER
 62
     3
100
AcDbLine
 10
1403.162710676994
 20
-796.4916195920903
 30
0.0
 11
1403.162710676994
 21
-810.4916910206616
 31
0.0
  0
LINE
  5
42B
330
8B
100
AcDbEntity
  8
0
  6
DASH_CENTER
 62
     3
100
AcDbLine
 10
1396.162850676994
 20
-803.4918281635187
 30
0.0
 11
1410.162570676994
 21
-803.4918281635187
 31
0.0
  0
LINE
  5
42C
330
8B
100
AcDbEntity
  8
0
  6
Continuous
 62
     1
100
AcDbLine
 10
1385.650853534137
 20
-816.9917595920903
 30
0.0
 11
1385.650853534137
 21
-822.9916910206616
 31
0.0
  0
LINE
  5
42D
330
8B
100
AcDbEntity
  8
0
  6
DASH_CENTER
 62
     3
100
AcDbLine
 10
791.9573401809588
 20
-992.8717110206617
 30
0.0
 11
952.1520563912799
 21
-992.8717110206617
 31
0.0
  0
LINE
  5
42E
330
8B
100
AcDbEntity
  8
0
  6
Continuous
 62
     1
100
AcDbLine
 10
842.6518478198515
 20
-910.0250338778046
 30
0.0
 11
909.1323849627086
 21
-910.0250338778046
 31
0.0
  0
LINE
  5
42F
330
8B
100
AcDbEntity
  8
0
  6
Continuous
 62
     1
100
AcDbLine
 10
817.6616135341372
 20
-986.0148481635189
 30
0.0
 11
866.65191639128
 21
-986.0148481635189
 31
0.0
  0
LINE
  5
430
330
8B
100
AcDbEntity
  8
0
  6
DASH_CENTER
 62
     3
100
AcDbLine
 10
854.65205639128
 20
-992.8717110206617
 30
0.0
 11
854.65205639128
 21
-857.729065306376
 31
0.0
  0
LINE
  5
431
330
8B
100
AcDbEntity
  8
0
  6
Continuous
 62
     1
100
AcDbLine
 10
817.6616135341372
 20
-950.0145681635187
 30
0.0
 11
866.65191639128
 21
-950.0145681635187
 31
0.0
  0
LINE
  5
432
330
8B
100
AcDbEntity
  8
0
  6
Continuous
 62
     1
100
AcDbLine
 10
842.6518478198515
 20
-946.024962449233
 30
0.0
 11
909.1323849627086
 21
-946.024962449233
 31
0.0
  0
LINE
  5
433
330
8B
100
AcDbEntity
  8
0
  6
Continuous
 62
     1
100
AcDbLine
 10
842.6518478198515
 20
-946.024962449233
 30
0.0
 11
842.6518478198515
 21
-950.0145681635187
 31
0.0
  0
LINE
  5
434
330
8B
100
AcDbEntity
  8
0
  6
Continuous
 62
     1
100
AcDbLine
 10
866.65191639128
 20
-950.0145681635187
 30
0.0
 11
866.65191639128
 21
-946.024962449233
 31
0.0
  0
LINE
  5
435
330
8B
100
AcDbEntity
  8
0
  6
Continuous
 62
     1
100
AcDbLine
 10
909.1323849627086
 20
-910.0250338778046
 30
0.0
 11
909.1323849627086
 21
-946.024962449233
 31
0.0
  0
LINE
  5
436
330
8B
100
AcDbEntity
  8
0
  6
Continuous
 62
     1
100
AcDbLine
 10
842.6518478198515
 20
-946.024962449233
 30
0.0
 11
842.6518478198515
 21
-910.0250338778046
 31
0.0
  0
LINE
  5
437
330
8B
100
AcDbEntity
  8
0
  6
Continuous
 62
     1
100
AcDbLine
 10
817.6616135341372
 20
-950.0145681635187
 30
0.0
 11
817.6616135341372
 21
-986.0148481635189
 31
0.0
  0
LINE
  5
438
330
8B
100
AcDbEntity
  8
0
  6
Continuous
 62
     1
100
AcDbLine
 10
866.65191639128
 20
-986.0148481635189
 30
0.0
 11
866.65191639128
 21
-950.0145681635187
 31
0.0
  0
LINE
  5
439
330
8B
100
AcDbEntity
  8
0
  6
Continuous
 62
     4
100
AcDbLine
 10
964.6526649627086
 20
-812.1916053063761
 30
0.0
 11
964.6526649627086
 21
-793.1918853063761
 31
0.0
  0
LINE
  5
43A
330
8B
100
AcDbEntity
  8
0
  6
Continuous
 62
     4
100
AcDbLine
 10
1413.145679987758
 20
-812.1916053063761
 30
0.0
 11
1413.145679987758
 21
-793.1918853063761
 31
0.0
  0
LINE
  5
43B
330
8B
100
AcDbEntity
  8
0
  6
Continuous
 62
     4
100
AcDbLine
 10
1028.401967819851
 20
-894.0762969421724
 30
0.0
 11
1028.401967819852
 21
-893.6396340850293
 31
0.0
  0
LINE
  5
43C
330
8B
100
AcDbEntity
  8
0
  6
Continuous
 62
     4
100
AcDbLine
 10
1060.901967819852
 20
-894.0762969421724
 30
0.0
 11
1060.901967819852
 21
-893.6396340850293
 31
0.0
  0
LINE
  5
43D
330
8B
100
AcDbEntity
  8
0
  6
Continuous
 62
     4
100
AcDbLine
 10
1036.651827819851
 20
-898.6913281635189
 30
0.0
 11
1028.401967819851
 21
-894.0762969421724
 31
0.0
  0
LINE
  5
43E
330
8B
100
AcDbEntity
  8
0
  6
Continuous
 62
     4
100
AcDbLine
 10
1052.652107819851
 20
-898.6913281635189
 30
0.0
 11
1060.901967819852
 21
-894.0762969421724
 31
0.0
  0
LINE
  5
43F
330
8B
100
AcDbEntity
  8
0
  6
Continuous
 62
     4
100
AcDbLine
 10
1036.651827819851
 20
-898.6913281635189
 30
0.0
 11
1052.652107819851
 21
-898.6913281635189
 31
0.0
  0
LINE
  5
440
330
8B
100
AcDbEntity
  8
0
  6
Continuous
 62
     1
100
AcDbLine
 10
1385.650853534137
 20
-822.9916910206616
 30
0.0
 11
1033.652387819852
 21
-822.9916910206616
 31
0.0
  0
LINE
  5
441
330
8B
100
AcDbEntity
  8
0
  6
DASH_CENTER
 62
     3
100
AcDbLine
 10
1374.650573534137
 20
-826.9914110206617
 30
0.0
 11
1374.650573534137
 21
-806.9914110206616
 31
0.0
  0
LINE
  5
442
330
8B
100
AcDbEntity
  8
0
  6
Continuous
 62
     1
100
AcDbLine
 10
1033.652387819852
 20
-816.9917595920903
 30
0.0
 11
1385.650853534137
 21
-816.9917595920903
 31
0.0
  0
LINE
  5
443
330
8B
100
AcDbEntity
  8
0
  6
Continuous
 62
     4
100
AcDbLine
 10
976.2786421055658
 20
-801.865505306376
 30
0.0
 11
973.025993534137
 21
-805.1181538778045
 31
0.0
  0
LINE
  5
444
330
8B
100
AcDbEntity
  8
0
  6
Continuous
 62
     4
100
AcDbLine
 10
973.025993534137
 20
-801.865505306376
 30
0.0
 11
976.2786421055658
 21
-805.1181538778045
 31
0.0
  0
LINE
  5
445
330
8B
100
AcDbEntity
  8
0
  6
Continuous
 62
     4
100
AcDbLine
 10
966.1523878198515
 20
-813.6916767349474
 30
0.0
 11
966.6525278198514
 21
-813.6916767349474
 31
0.0
  0
LINE
  5
446
330
8B
100
AcDbEntity
  8
0
  6
Continuous
 62
     4
100
AcDbLine
 10
966.6525278198514
 20
-793.1918853063761
 30
0.0
 11
964.6526649627086
 21
-793.1918853063761
 31
0.0
  0
LINE
  5
447
330
8B
100
AcDbEntity
  8
0
  6
Continuous
 62
     4
100
AcDbLine
 10
1404.788687819851
 20
-801.865505306376
 30
0.0
 11
1401.53603639128
 21
-805.1178053063759
 31
0.0
  0
LINE
  5
448
330
8B
100
AcDbEntity
  8
0
  6
Continuous
 62
     4
100
AcDbLine
 10
1401.53603639128
 20
-801.865505306376
 30
0.0
 11
1404.788687819851
 21
-805.1178053063759
 31
0.0
  0
LINE
  5
449
330
8B
100
AcDbEntity
  8
0
  6
Continuous
 62
     4
100
AcDbLine
 10
1411.14959639128
 20
-813.6916767349474
 30
0.0
 11
1411.145817130615
 21
-813.6916767349474
 31
0.0
  0
LINE
  5
44A
330
8B
100
AcDbEntity
  8
0
  6
Continuous
 62
     4
100
AcDbLine
 10
1411.145817130615
 20
-793.1918853063761
 30
0.0
 11
1413.145679987758
 21
-793.1918853063761
 31
0.0
  0
LINE
  5
44B
330
8B
100
AcDbEntity
  8
0
  6
Continuous
 62
     1
100
AcDbLine
 10
966.6525278198514
 20
-813.6916767349474
 30
0.0
 11
1411.145817130615
 21
-813.6916767349474
 31
0.0
  0
LINE
  5
44C
330
8B
100
AcDbEntity
  8
0
  6
Continuous
 62
     4
100
AcDbLine
 10
966.6525278198514
 20
-793.1918853063761
 30
0.0
 11
966.6525278198514
 21
-813.6916767349474
 31
0.0
  0
LINE
  5
44D
330
8B
100
AcDbEntity
  8
0
  6
Continuous
 62
     1
100
AcDbLine
 10
1411.145817130615
 20
-793.1918853063761
 30
0.0
 11
966.6525278198514
 21
-793.1918853063761
 31
0.0
  0
LINE
  5
44E
330
8B
100
AcDbEntity
  8
0
  6
Continuous
 62
     4
100
AcDbLine
 10
1411.145817130615
 20
-813.6916767349474
 30
0.0
 11
1411.145817130615
 21
-793.1918853063761
 31
0.0
  0
LINE
  5
44F
330
8B
100
AcDbEntity
  8
0
  6
DASH_CENTER
 62
     3
100
AcDbLine
 10
1044.651967819852
 20
-813.9912710206615
 30
0.0
 11
1044.651967819852
 21
-905.7393195920903
 31
0.0
  0
LINE
  5
450
330
8B
100
AcDbEntity
  8
0
  6
Continuous
 62
     4
100
AcDbLine
 10
1033.652387819852
 20
-824.7554310206616
 30
0.0
 11
1055.652247819851
 21
-824.7554310206616
 31
0.0
  0
LINE
  5
451
330
8B
100
AcDbEntity
  8
0
  6
Continuous
 62
     4
100
AcDbLine
 10
1055.652247819851
 20
-824.7554310206616
 30
0.0
 11
1054.633833534137
 21
-822.9916910206616
 31
0.0
  0
LINE
  5
452
330
8B
100
AcDbEntity
  8
0
  6
Continuous
 62
     4
100
AcDbLine
 10
1034.670802105566
 20
-822.9916910206616
 30
0.0
 11
1033.652387819852
 21
-824.7554310206616
 31
0.0
  0
LINE
  5
453
330
8B
100
AcDbEntity
  8
1
  6
Continuous
 62
     4
100
AcDbLine
 10
1383.949992508627
 20
-813.8015900346708
 30
0.0
 11
1365.351154559647
 21
-813.8015900346708
 31
0.0
  0
LINE
  5
454
330
8B
100
AcDbEntity
  8
1
  6
Continuous
 62
     4
100
AcDbLine
 10
1365.351154559647
 20
-813.8015900346708
 30
0.0
 11
1365.351154559647
 21
-813.691240139413
 31
0.0
  0
LINE
  5
455
330
8B
100
AcDbEntity
  8
1
  6
Continuous
 62
     4
100
AcDbLine
 10
1374.150604772068
 20
-815.8014650829482
 30
0.0
 11
1374.150604772068
 21
-813.8015900346708
 31
0.0
  0
LINE
  5
456
330
8B
100
AcDbEntity
  8
1
  6
Continuous
 62
     4
100
AcDbLine
 10
1381.269902501308
 20
-815.4724957085406
 30
0.0
 11
1381.878062430864
 21
-813.8015900346708
 31
0.0
  0
LINE
  5
457
330
8B
100
AcDbEntity
  8
1
  6
Continuous
 62
     4
100
AcDbLine
 10
1367.423084637411
 20
-813.8015900346708
 30
0.0
 11
1368.031244566966
 21
-815.4724957085406
 31
0.0
  0
LINE
  5
458
330
8B
100
AcDbEntity
  8
1
  6
Continuous
 62
     4
100
AcDbLine
 10
1375.150542296207
 20
-813.8015900346708
 30
0.0
 11
1375.150542296207
 21
-815.8014650829482
 31
0.0
  0
LINE
  5
459
330
8B
100
AcDbEntity
  8
1
  6
Continuous
 62
     4
100
AcDbLine
 10
1369.714752837504
 20
-815.8014650829482
 30
0.0
 11
1369.198848865405
 21
-813.8015900346708
 31
0.0
  0
LINE
  5
45A
330
8B
100
AcDbEntity
  8
1
  6
Continuous
 62
     4
100
AcDbLine
 10
1370.421815441586
 20
-815.8014650829482
 30
0.0
 11
1369.905911469487
 21
-813.8015900346708
 31
0.0
  0
LINE
  5
45B
330
8B
100
AcDbEntity
  8
1
  6
Continuous
 62
     4
100
AcDbLine
 10
1374.150604772068
 20
-815.8014650829482
 30
0.0
 11
1368.501061523306
 21
-815.8014650829482
 31
0.0
  0
LINE
  5
45C
330
8B
100
AcDbEntity
  8
1
  6
Continuous
 62
     4
100
AcDbLine
 10
1380.800085544969
 20
-815.8014650829482
 30
0.0
 11
1375.150542296207
 21
-815.8014650829482
 31
0.0
  0
LINE
  5
45D
330
8B
100
AcDbEntity
  8
1
  6
Continuous
 62
     4
100
AcDbLine
 10
1380.102298202869
 20
-813.8015900346708
 30
0.0
 11
1379.58639423077
 21
-815.8014650829482
 31
0.0
  0
LINE
  5
45E
330
8B
100
AcDbEntity
  8
1
  6
Continuous
 62
     4
100
AcDbLine
 10
1379.395235598788
 20
-813.8015900346708
 30
0.0
 11
1378.879331626689
 21
-815.8014650829482
 31
0.0
  0
LINE
  5
45F
330
8B
100
AcDbEntity
  8
1
  6
Continuous
 62
     4
100
AcDbLine
 10
1383.949992508627
 20
-813.691240139413
 30
0.0
 11
1383.949992508627
 21
-813.8015900346708
 31
0.0
  0
LINE
  5
460
330
8B
100
AcDbEntity
  8
0
  6
Continuous
 62
     4
100
AcDbLine
 10
1370.400598224614
 20
-823.9906589710134
 30
0.0
 11
1378.900548843661
 21
-823.9906589710134
 31
0.0
  0
LINE
  5
461
330
8B
100
AcDbEntity
  8
0
  6
Continuous
 62
     4
100
AcDbLine
 10
1378.900548843661
 20
-823.9906589710134
 30
0.0
 11
1379.900053703647
 21
-822.9907461133979
 31
0.0
  0
LINE
  5
462
330
8B
100
AcDbEntity
  8
0
  6
Continuous
 62
     4
100
AcDbLine
 10
1370.400598224614
 20
-823.9906589710134
 30
0.0
 11
1369.401092031302
 21
-822.9907461133979
 31
0.0
  0
LINE
  5
463
330
8B
100
AcDbEntity
  8
0
  6
Continuous
 62
     4
100
AcDbLine
 10
1379.650217821749
 20
-816.9911876348452
 30
0.0
 11
1379.650217821749
 21
-815.8014650829482
 31
0.0
  0
LINE
  5
464
330
8B
100
AcDbEntity
  8
0
  6
Continuous
 62
     4
100
AcDbLine
 10
1369.650765247478
 20
-816.9911876348452
 30
0.0
 11
1369.650765247478
 21
-815.8014650829482
 31
0.0
  0
LINE
  5
465
330
8B
100
AcDbEntity
  8
1
  6
Continuous
 62
     3
100
AcDbLine
 10
1381.401160846318
 20
-815.111866369512
 30
0.0
 11
1427.151967819852
 21
-815.111866369512
 31
0.0
  0
LINE
  5
466
330
8B
100
AcDbEntity
  8
0
  6
Continuous
 62
     3
100
AcDbLine
 10
1367.89998655315
 20
-815.1118672794579
 30
0.0
 11
848.9635037322173
 21
-815.112137479047
 31
0.0
  0
LINE
  5
467
330
8B
100
AcDbEntity
  8
0
  6
Continuous
 62
     3
100
AcDbLine
 10
1427.151967819852
 20
-770.1928088562079
 30
0.0
 11
804.0460750983394
 21
-770.1928088562085
 31
0.0
  0
ARC
  5
468
330
8B
100
AcDbEntity
  8
0
  6
Continuous
 62
     4
100
AcDbCircle
 10
966.1523878198519
 20
-812.1916053063761
 30
0.0
 40
1.499720000000365
100
AcDbArc
 50
180.0
 51
269.999999999987
  0
ARC
  5
469
330
8B
100
AcDbEntity
  8
0
  6
Continuous
 62
     4
100
AcDbCircle
 10
1411.397776760947
 20
-811.9434249367088
 30
0.0
 40
1.765776842052831
100
AcDbArc
 50
261.9203121424998
 51
351.9203121424951
  0
CIRCLE
  5
46A
330
8B
100
AcDbEntity
  8
0
  6
Continuous
 62
     4
100
AcDbCircle
 10
1403.162710676994
 20
-803.4918281635187
 30
0.0
 40
5.199977142857051
  0
CIRCLE
  5
46B
330
8B
100
AcDbEntity
  8
0
  6
Continuous
 62
     4
100
AcDbCircle
 10
974.6526649627085
 20
-803.4918281635187
 30
0.0
 40
5.199977142857164
  0
ARC
  5
46C
330
8B
100
AcDbEntity
  8
1
  6
Continuous
 62
     4
100
AcDbCircle
 10
1380.800085544969
 20
-815.3014963208788
 30
0.0
 40
0.4999687620693294
100
AcDbArc
 50
270.0
 51
339.999999999915
  0
ARC
  5
46D
330
8B
100
AcDbEntity
  8
1
  6
Continuous
 62
     4
100
AcDbCircle
 10
1368.501061523306
 20
-815.3014963208788
 30
0.0
 40
0.4999687620693165
100
AcDbArc
 50
200.0000000000493
 51
270.0
  0
ENDBLK
  5
8D
330
8B
100
AcDbEntity
  8
0
100
AcDbBlockEnd
  0
BLOCK
  5
8F
330
8E
100
AcDbEntity
  8
0
100
AcDbBlockBegin
  2
a3kl
 70
     0
 10
109.397567444431
 20
-547.332241544306
 30
0.0
  3
a3kl
  1

  0
LINE
  5
46E
330
8E
100
AcDbEntity
  8
0
  6
Continuous
 62
     3
100
AcDbLine
 10
114.397567444431
 20
-266.332241544306
 30
0.0
 11
114.397567444431
 21
-525.832241544306
 31
0.0
  0
LINE
  5
46F
330
8E
100
AcDbEntity
  8
0
  6
Continuous
 62
     3
100
AcDbLine
 10
514.397567444431
 20
-266.332241544306
 30
0.0
 11
114.397567444431
 21
-266.332241544306
 31
0.0
  0
LINE
  5
470
330
8E
100
AcDbEntity
  8
0
  6
Continuous
 62
     3
100
AcDbLine
 10
514.397567444431
 20
-504.332241544306
 30
0.0
 11
514.397567444431
 21
-266.332241544306
 31
0.0
  0
LINE
  5
471
330
8E
100
AcDbEntity
  8
0
  6
Continuous
 62
     2
100
AcDbLine
 10
519.397567444431
 20
-261.332241544306
 30
0.0
 11
519.397567444431
 21
-547.332241544306
 31
0.0
  0
LINE
  5
472
330
8E
100
AcDbEntity
  8
0
  6
Continuous
 62
     2
100
AcDbLine
 10
109.397567444431
 20
-261.332241544306
 30
0.0
 11
519.397567444431
 21
-261.332241544306
 31
0.0
  0
LINE
  5
473
330
8E
100
AcDbEntity
  8
0
  6
Continuous
 62
     2
100
AcDbLine
 10
109.397567444431
 20
-547.332241544306
 30
0.0
 11
109.397567444431
 21
-261.332241544306
 31
0.0
  0
LINE
  5
474
330
8E
100
AcDbEntity
  8
0
  6
Continuous
 62
     2
100
AcDbLine
 10
519.397567444431
 20
-547.332241544306
 30
0.0
 11
314.397567444431
 21
-547.332241544306
 31
0.0
  0
LINE
  5
475
330
8E
100
AcDbEntity
  8
0
  6
Continuous
 62
     3
100
AcDbLine
 10
514.397567444431
 20
-451.732265544306
 30
0.0
 11
519.397567444431
 21
-451.732265544306
 31
0.0
  0
LINE
  5
476
330
8E
100
AcDbEntity
  8
0
  6
Continuous
 62
     3
100
AcDbLine
 10
514.397567444431
 20
-403.932217544306
 30
0.0
 11
519.397567444431
 21
-403.932217544306
 31
0.0
  0
LINE
  5
477
330
8E
100
AcDbEntity
  8
0
  6
Continuous
 62
     3
100
AcDbLine
 10
514.397567444431
 20
-356.1321685443061
 30
0.0
 11
519.397567444431
 21
-356.1321685443061
 31
0.0
  0
LINE
  5
478
330
8E
100
AcDbEntity
  8
0
  6
Continuous
 62
     3
100
AcDbLine
 10
514.397567444431
 20
-308.332241544306
 30
0.0
 11
519.397567444431
 21
-308.332241544306
 31
0.0
  0
LINE
  5
479
330
8E
100
AcDbEntity
  8
0
  6
Continuous
 62
     3
100
AcDbLine
 10
468.0975184444309
 20
-261.332241544306
 30
0.0
 11
468.0975184444309
 21
-266.332241544306
 31
0.0
  0
LINE
  5
47A
330
8E
100
AcDbEntity
  8
0
  6
Continuous
 62
     3
100
AcDbLine
 10
416.8975674444309
 20
-266.332241544306
 30
0.0
 11
416.8975674444309
 21
-261.332241544306
 31
0.0
  0
LINE
  5
47B
330
8E
100
AcDbEntity
  8
0
  6
Continuous
 62
     3
100
AcDbLine
 10
365.697616444431
 20
-261.332241544306
 30
0.0
 11
365.697616444431
 21
-266.332241544306
 31
0.0
  0
LINE
  5
47C
330
8E
100
AcDbEntity
  8
0
  6
Continuous
 62
     3
100
AcDbLine
 10
314.397567444431
 20
-266.332241544306
 30
0.0
 11
314.397567444431
 21
-261.332241544306
 31
0.0
  0
LINE
  5
47D
330
8E
100
AcDbEntity
  8
0
  6
Continuous
 62
     3
100
AcDbLine
 10
263.197616444431
 20
-261.332241544306
 30
0.0
 11
263.197616444431
 21
-266.332241544306
 31
0.0
  0
LINE
  5
47E
330
8E
100
AcDbEntity
  8
0
  6
Continuous
 62
     3
100
AcDbLine
 10
211.897567444431
 20
-266.332241544306
 30
0.0
 11
211.897567444431
 21
-261.332241544306
 31
0.0
  0
LINE
  5
47F
330
8E
100
AcDbEntity
  8
0
  6
Continuous
 62
     3
100
AcDbLine
 10
160.697616444431
 20
-261.332241544306
 30
0.0
 11
160.697616444431
 21
-266.332241544306
 31
0.0
  0
LINE
  5
480
330
8E
100
AcDbEntity
  8
0
  6
Continuous
 62
     3
100
AcDbLine
 10
109.397567444431
 20
-308.332241544306
 30
0.0
 11
114.397567444431
 21
-308.332241544306
 31
0.0
  0
LINE
  5
481
330
8E
100
AcDbEntity
  8
0
  6
Continuous
 62
     3
100
AcDbLine
 10
114.397567444431
 20
-356.1321685443061
 30
0.0
 11
109.397567444431
 21
-356.1321685443061
 31
0.0
  0
LINE
  5
482
330
8E
100
AcDbEntity
  8
0
  6
Continuous
 62
     3
100
AcDbLine
 10
109.397567444431
 20
-403.932217544306
 30
0.0
 11
114.397567444431
 21
-403.932217544306
 31
0.0
  0
LINE
  5
483
330
8E
100
AcDbEntity
  8
0
  6
Continuous
 62
     3
100
AcDbLine
 10
114.397567444431
 20
-451.732265544306
 30
0.0
 11
109.397567444431
 21
-451.732265544306
 31
0.0
  0
LINE
  5
484
330
8E
100
AcDbEntity
  8
0
  6
Continuous
 62
     3
100
AcDbLine
 10
109.397567444431
 20
-499.5321925443059
 30
0.0
 11
114.397567444431
 21
-499.5321925443059
 31
0.0
  0
LINE
  5
485
330
8E
100
AcDbEntity
  8
0
  6
Continuous
 62
     3
100
AcDbLine
 10
194.736302070732
 20
-542.332241544306
 30
0.0
 11
211.897567444431
 21
-542.332241544306
 31
0.0
  0
LINE
  5
486
330
8E
100
AcDbEntity
  8
1
  6
Continuous
 62
     3
100
AcDbLine
 10
211.897567444431
 20
-542.332241544306
 30
0.0
 11
211.897567444431
 21
-547.332241544306
 31
0.0
  0
LINE
  5
487
330
8E
100
AcDbEntity
  8
0
  6
Continuous
 62
     2
100
AcDbLine
 10
211.897567444431
 20
-547.332241544306
 30
0.0
 11
109.397567444431
 21
-547.332241544306
 31
0.0
  0
LINE
  5
488
330
8E
100
AcDbEntity
  8
0
  6
Continuous
 62
     3
100
AcDbLine
 10
211.897567444431
 20
-542.332241544306
 30
0.0
 11
263.197616444431
 21
-542.332241544306
 31
0.0
  0
LINE
  5
489
330
8E
100
AcDbEntity
  8
1
  6
Continuous
 62
     3
100
AcDbLine
 10
263.197616444431
 20
-542.332241544306
 30
0.0
 11
263.197616444431
 21
-547.332241544306
 31
0.0
  0
LINE
  5
48A
330
8E
100
AcDbEntity
  8
0
  6
Continuous
 62
     2
100
AcDbLine
 10
263.197616444431
 20
-547.332241544306
 30
0.0
 11
211.897567444431
 21
-547.332241544306
 31
0.0
  0
LINE
  5
48B
330
8E
100
AcDbEntity
  8
0
  6
Continuous
 62
     3
100
AcDbLine
 10
263.197616444431
 20
-542.332241544306
 30
0.0
 11
314.397567444431
 21
-542.332241544306
 31
0.0
  0
LINE
  5
48C
330
8E
100
AcDbEntity
  8
1
  6
Continuous
 62
     3
100
AcDbLine
 10
314.397567444431
 20
-542.332241544306
 30
0.0
 11
314.397567444431
 21
-547.332241544306
 31
0.0
  0
LINE
  5
48D
330
8E
100
AcDbEntity
  8
0
  6
Continuous
 62
     2
100
AcDbLine
 10
314.397567444431
 20
-547.332241544306
 30
0.0
 11
263.197616444431
 21
-547.332241544306
 31
0.0
  0
LINE
  5
48E
330
8E
100
AcDbEntity
  8
0
  6
Continuous
 62
     3
100
AcDbLine
 10
314.397567444431
 20
-542.332241544306
 30
0.0
 11
336.3975674444311
 21
-542.332241544306
 31
0.0
  0
LINE
  5
48F
330
8E
100
AcDbEntity
  8
1
  6
Continuous
 62
     3
100
AcDbLine
 10
430.1467348476171
 20
-525.9387982422011
 30
0.0
 11
430.1467348476171
 21
-526.1505312810649
 31
0.0
  0
LINE
  5
490
330
8E
100
AcDbEntity
  8
EBENE_1
  6
Continuous
 62
     3
100
AcDbLine
 10
438.2468010235796
 20
-524.588423322859
 30
0.0
 11
435.2453471144376
 21
-524.588423322859
 31
0.0
  0
LINE
  5
491
330
8E
100
AcDbEntity
  8
EBENE_1
  6
Continuous
 62
     3
100
AcDbLine
 10
436.4799515218986
 20
-526.2960463066751
 30
0.0
 11
438.3819321832547
 21
-525.0266304514247
 31
0.0
  0
LINE
  5
492
330
8E
100
AcDbEntity
  8
EBENE_1
  6
Continuous
 62
     3
100
AcDbLine
 10
438.3242398940795
 20
-526.2960463066751
 30
0.0
 11
436.4799515218986
 21
-526.2960463066751
 31
0.0
  0
LINE
  5
493
330
8E
100
AcDbEntity
  8
EBENE_1
  6
Continuous
 62
     3
100
AcDbLine
 10
438.3819321832547
 20
-526.7052753574246
 30
0.0
 11
438.3819321832547
 21
-526.353593108647
 31
0.0
  0
LINE
  5
494
330
8E
100
AcDbEntity
  8
EBENE_1
  6
Continuous
 62
     3
100
AcDbLine
 10
435.2453471144376
 20
-526.7628221593964
 30
0.0
 11
438.3242398940795
 21
-526.7628221593964
 31
0.0
  0
LINE
  5
495
330
8E
100
AcDbEntity
  8
EBENE_1
  6
Continuous
 62
     3
100
AcDbLine
 10
435.1876548252624
 20
-526.2960463066751
 30
0.0
 11
435.1876548252624
 21
-526.7052753574246
 31
0.0
  0
LINE
  5
496
330
8E
100
AcDbEntity
  8
EBENE_1
  6
Continuous
 62
     3
100
AcDbLine
 10
437.1261130963262
 20
-525.0269217536966
 30
0.0
 11
435.1876548252624
 21
-526.2960463066751
 31
0.0
  0
LINE
  5
497
330
8E
100
AcDbEntity
  8
EBENE_1
  6
Continuous
 62
     3
100
AcDbLine
 10
435.2453471144376
 20
-525.0269217536966
 30
0.0
 11
437.1261130963262
 21
-525.0269217536966
 31
0.0
  0
LINE
  5
498
330
8E
100
AcDbEntity
  8
EBENE_1
  6
Continuous
 62
     3
100
AcDbLine
 10
435.1876548252624
 20
-524.6461156120342
 30
0.0
 11
435.1876548252624
 21
-524.9692294645215
 31
0.0
  0
LINE
  5
499
330
8E
100
AcDbEntity
  8
EBENE_1
  6
Continuous
 62
     3
100
AcDbLine
 10
432.2937820899284
 20
-525.3813153548999
 30
0.0
 11
432.2937820899284
 21
-525.0832649797136
 31
0.0
  0
LINE
  5
49A
330
8E
100
AcDbEntity
  8
EBENE_1
  6
Continuous
 62
     3
100
AcDbLine
 10
434.6660964274326
 20
-525.4376585809169
 30
0.0
 11
432.3514876052128
 21
-525.4376585809169
 31
0.0
  0
LINE
  5
49B
330
8E
100
AcDbEntity
  8
EBENE_1
  6
Continuous
 62
     3
100
AcDbLine
 10
434.6660964274326
 20
-525.8806803411671
 30
0.0
 11
434.6660964274326
 21
-525.4376585809169
 31
0.0
  0
LINE
  5
49C
330
8E
100
AcDbEntity
  8
EBENE_1
  6
Continuous
 62
     3
100
AcDbLine
 10
432.3514876052128
 20
-525.8806803411671
 30
0.0
 11
434.6660964274326
 21
-525.8806803411671
 31
0.0
  0
LINE
  5
49D
330
8E
100
AcDbEntity
  8
EBENE_1
  6
Continuous
 62
     3
100
AcDbLine
 10
434.6660964274326
 20
-526.2960463066751
 30
0.0
 11
432.3514876052128
 21
-526.2960463066751
 31
0.0
  0
LINE
  5
49E
330
8E
100
AcDbEntity
  8
EBENE_1
  6
Continuous
 62
     3
100
AcDbLine
 10
434.6660964274326
 20
-526.7621873061456
 30
0.0
 11
434.6660964274326
 21
-526.2960463066751
 31
0.0
  0
LINE
  5
49F
330
8E
100
AcDbEntity
  8
EBENE_1
  6
Continuous
 62
     3
100
AcDbLine
 10
431.5868729950557
 20
-526.7621873061456
 30
0.0
 11
434.6660964274326
 21
-526.7621873061456
 31
0.0
  0
LINE
  5
4A0
330
8E
100
AcDbEntity
  8
EBENE_1
  6
Continuous
 62
     3
100
AcDbLine
 10
431.4491891962677
 20
-524.7261071216471
 30
0.0
 11
431.4491891962677
 21
-526.6245035073575
 31
0.0
  0
LINE
  5
4A1
330
8E
100
AcDbEntity
  8
EBENE_1
  6
Continuous
 62
     3
100
AcDbLine
 10
434.6660964274326
 20
-524.588423322859
 30
0.0
 11
431.5868729950557
 21
-524.588423322859
 31
0.0
  0
LINE
  5
4A2
330
8E
100
AcDbEntity
  8
EBENE_1
  6
Continuous
 62
     3
100
AcDbLine
 10
434.6660964274326
 20
-525.0269217536966
 30
0.0
 11
434.6660964274326
 21
-524.588423322859
 31
0.0
  0
LINE
  5
4A3
330
8E
100
AcDbEntity
  8
EBENE_1
  6
Continuous
 62
     3
100
AcDbLine
 10
432.3514876052128
 20
-525.0269217536966
 30
0.0
 11
434.6660964274326
 21
-525.0269217536966
 31
0.0
  0
LINE
  5
4A4
330
8E
100
AcDbEntity
  8
EBENE_1
  6
Continuous
 62
     3
100
AcDbLine
 10
429.3336333204226
 20
-525.4376585809169
 30
0.0
 11
429.3336333204226
 21
-525.8806803411671
 31
0.0
  0
LINE
  5
4A5
330
8E
100
AcDbEntity
  8
EBENE_1
  6
Continuous
 62
     3
100
AcDbLine
 10
430.9397723668612
 20
-525.4376585809169
 30
0.0
 11
429.3336333204226
 21
-525.4376585809169
 31
0.0
  0
LINE
  5
4A6
330
8E
100
AcDbEntity
  8
EBENE_1
  6
Continuous
 62
     3
100
AcDbLine
 10
430.9397723668612
 20
-526.2973556915052
 30
0.0
 11
430.9397723668612
 21
-525.4376585809169
 31
0.0
  0
LINE
  5
4A7
330
8E
100
AcDbEntity
  8
EBENE_1
  6
Continuous
 62
     3
100
AcDbLine
 10
430.3313713347526
 20
-524.588423322859
 30
0.0
 11
428.3543325025876
 21
-524.588423322859
 31
0.0
  0
LINE
  5
4A8
330
8E
100
AcDbEntity
  8
EBENE_1
  6
Continuous
 62
     3
100
AcDbLine
 10
430.9397723668612
 20
-525.2456154725209
 30
0.0
 11
430.9397723668612
 21
-525.0578973018966
 31
0.0
  0
LINE
  5
4A9
330
8E
100
AcDbEntity
  8
EBENE_1
  6
Continuous
 62
     3
100
AcDbLine
 10
430.1459016027252
 20
-525.2456154725209
 30
0.0
 11
430.9397723668612
 21
-525.2456154725209
 31
0.0
  0
LINE
  5
4AA
330
8E
100
AcDbEntity
  8
EBENE_1
  6
Continuous
 62
     3
100
AcDbLine
 10
430.1459016027252
 20
-525.1655710584705
 30
0.0
 11
430.1459016027252
 21
-525.2456154725209
 31
0.0
  0
LINE
  5
4AB
330
8E
100
AcDbEntity
  8
EBENE_1
  6
Continuous
 62
     3
100
AcDbLine
 10
429.3336333204226
 20
-525.8806803411671
 30
0.0
 11
430.0872702597832
 21
-525.8806803411671
 31
0.0
  0
LINE
  5
4AC
330
8E
100
AcDbEntity
  8
EBENE_1
  6
Continuous
 62
     3
100
AcDbLine
 10
426.9184134840455
 20
-524.3649285263249
 30
0.0
 11
426.9184134840455
 21
-526.9903244670769
 31
0.0
  0
LINE
  5
4AD
330
8E
100
AcDbEntity
  8
EBENE_1
  6
Continuous
 62
     3
100
AcDbLine
 10
442.7696146179469
 20
-524.2284086251635
 30
0.0
 11
427.0549333852068
 21
-524.2284086251635
 31
0.0
  0
LINE
  5
4AE
330
8E
100
AcDbEntity
  8
EBENE_1
  6
Continuous
 62
     3
100
AcDbLine
 10
442.9061345191083
 20
-526.9903244670769
 30
0.0
 11
442.9061345191083
 21
-524.3649285263249
 31
0.0
  0
LINE
  5
4AF
330
8E
100
AcDbEntity
  8
EBENE_1
  6
Continuous
 62
     3
100
AcDbLine
 10
426.0599728538496
 20
-527.0806587942356
 30
0.0
 11
426.0599728538496
 21
-524.2745941991662
 31
0.0
  0
LINE
  5
4B0
330
8E
100
AcDbEntity
  8
EBENE_1
  6
Continuous
 62
     3
100
AcDbLine
 10
443.1553408723037
 20
-527.5514421581032
 30
0.0
 11
426.6692071308501
 21
-527.5514421581032
 31
0.0
  0
LINE
  5
4B1
330
8E
100
AcDbEntity
  8
EBENE_1
  6
Continuous
 62
     3
100
AcDbLine
 10
443.764575149304
 20
-524.2745941991662
 30
0.0
 11
443.764575149304
 21
-527.0806587942356
 31
0.0
  0
LINE
  5
4B2
330
8E
100
AcDbEntity
  8
EBENE_1
  6
Continuous
 62
     3
100
AcDbLine
 10
426.6692071308501
 20
-523.8038108352987
 30
0.0
 11
443.1553408723037
 21
-523.8038108352987
 31
0.0
  0
LINE
  5
4B3
330
8E
100
AcDbEntity
  8
1
  6
Continuous
 62
     3
100
AcDbLine
 10
442.7696146179469
 20
-527.1268443682384
 30
0.0
 11
427.0549333852068
 21
-527.1268443682384
 31
0.0
  0
LINE
  5
4B4
330
8E
100
AcDbEntity
  8
1
  6
Continuous
 62
     3
100
AcDbLine
 10
428.7322685785114
 20
-525.0281650079796
 30
0.0
 11
430.0075961767958
 21
-525.0281650079796
 31
0.0
  0
LINE
  5
4B5
330
8E
100
AcDbEntity
  8
1
  6
Continuous
 62
     3
100
AcDbLine
 10
428.7322685785114
 20
-526.2874744177271
 30
0.0
 11
430.0106117297374
 21
-526.2874744177271
 31
0.0
  0
LINE
  5
4B6
330
8E
100
AcDbEntity
  8
1
  6
Continuous
 62
     3
100
AcDbLine
 10
428.5900614503108
 20
-525.1661530072838
 30
0.0
 11
428.5900614503108
 21
-526.1494864184229
 31
0.0
  0
LINE
  5
4B7
330
8E
100
AcDbEntity
  8
1
  6
Continuous
 62
     3
100
AcDbLine
 10
427.7459314704789
 20
-525.0578973018966
 30
0.0
 11
427.7459314704789
 21
-526.2973556915052
 31
0.0
  0
LINE
  5
4B8
330
8E
100
AcDbEntity
  8
1
  6
Continuous
 62
     3
100
AcDbLine
 10
428.3543325025876
 20
-526.7668296705427
 30
0.0
 11
430.3313713347526
 21
-526.7668296705427
 31
0.0
  0
LINE
  5
4B9
330
8E
100
AcDbEntity
  8
EBENE_1
  6
Continuous
 62
     3
100
AcDbLine
 10
432.2937820899284
 20
-526.2397030806583
 30
0.0
 11
432.2937820899284
 21
-525.9370235671841
 31
0.0
  0
LINE
  5
4BA
330
8E
100
AcDbEntity
  8
EBENE_1
  6
Continuous
 62
     3
100
AcDbLine
 10
439.7062889690611
 20
-525.3813153548999
 30
0.0
 11
439.7062889690611
 21
-525.0832649797136
 31
0.0
  0
LINE
  5
4BB
330
8E
100
AcDbEntity
  8
EBENE_1
  6
Continuous
 62
     3
100
AcDbLine
 10
442.0786033065653
 20
-525.4376585809169
 30
0.0
 11
439.7639944843458
 21
-525.4376585809169
 31
0.0
  0
LINE
  5
4BC
330
8E
100
AcDbEntity
  8
EBENE_1
  6
Continuous
 62
     3
100
AcDbLine
 10
442.0786033065653
 20
-525.8806803411671
 30
0.0
 11
442.0786033065653
 21
-525.4376585809169
 31
0.0
  0
LINE
  5
4BD
330
8E
100
AcDbEntity
  8
EBENE_1
  6
Continuous
 62
     3
100
AcDbLine
 10
439.7639944843458
 20
-525.8806803411671
 30
0.0
 11
442.0786033065653
 21
-525.8806803411671
 31
0.0
  0
LINE
  5
4BE
330
8E
100
AcDbEntity
  8
EBENE_1
  6
Continuous
 62
     3
100
AcDbLine
 10
442.0786033065653
 20
-526.2960463066751
 30
0.0
 11
439.7639944843458
 21
-526.2960463066751
 31
0.0
  0
LINE
  5
4BF
330
8E
100
AcDbEntity
  8
EBENE_1
  6
Continuous
 62
     3
100
AcDbLine
 10
442.0786033065653
 20
-526.7621873061456
 30
0.0
 11
442.0786033065653
 21
-526.2960463066751
 31
0.0
  0
LINE
  5
4C0
330
8E
100
AcDbEntity
  8
EBENE_1
  6
Continuous
 62
     3
100
AcDbLine
 10
438.9993798741886
 20
-526.7621873061456
 30
0.0
 11
442.0786033065653
 21
-526.7621873061456
 31
0.0
  0
LINE
  5
4C1
330
8E
100
AcDbEntity
  8
EBENE_1
  6
Continuous
 62
     3
100
AcDbLine
 10
438.8616960754005
 20
-524.7261071216471
 30
0.0
 11
438.8616960754005
 21
-526.6245035073575
 31
0.0
  0
LINE
  5
4C2
330
8E
100
AcDbEntity
  8
EBENE_1
  6
Continuous
 62
     3
100
AcDbLine
 10
442.0786033065653
 20
-524.588423322859
 30
0.0
 11
438.9993798741886
 21
-524.588423322859
 31
0.0
  0
LINE
  5
4C3
330
8E
100
AcDbEntity
  8
EBENE_1
  6
Continuous
 62
     3
100
AcDbLine
 10
442.0786033065653
 20
-525.0269217536966
 30
0.0
 11
442.0786033065653
 21
-524.588423322859
 31
0.0
  0
LINE
  5
4C4
330
8E
100
AcDbEntity
  8
EBENE_1
  6
Continuous
 62
     3
100
AcDbLine
 10
439.7639944843458
 20
-525.0269217536966
 30
0.0
 11
442.0786033065653
 21
-525.0269217536966
 31
0.0
  0
LINE
  5
4C5
330
8E
100
AcDbEntity
  8
EBENE_1
  6
Continuous
 62
     3
100
AcDbLine
 10
439.7062889690611
 20
-526.2397030806583
 30
0.0
 11
439.7062889690611
 21
-525.9370235671841
 31
0.0
  0
LINE
  5
4C6
330
8E
100
AcDbEntity
  8
1
  6
Continuous
 62
     3
100
AcDbLine
 10
438.3819321832547
 20
-525.0266304514247
 30
0.0
 11
438.3819321832547
 21
-524.727614898118
 31
0.0
  0
LINE
  5
4C7
330
8E
100
AcDbEntity
  8
0
  6
Continuous
 62
     1
100
AcDbLine
 10
451.3975674444309
 20
-538.332241544306
 30
0.0
 11
387.397567444431
 21
-538.332241544306
 31
0.0
  0
LINE
  5
4C8
330
8E
100
AcDbEntity
  8
1
  6
Continuous
 62
     1
100
AcDbLine
 10
451.3975674444309
 20
-538.332241544306
 30
0.0
 11
451.3975674444309
 21
-547.332241544306
 31
0.0
  0
LINE
  5
4C9
330
8E
100
AcDbEntity
  8
0
  6
Continuous
 62
     4
100
AcDbLine
 10
336.397567444431
 20
-543.032238544306
 30
0.0
 11
387.397567444431
 21
-543.032238544306
 31
0.0
  0
LINE
  5
4CA
330
8E
100
AcDbEntity
  8
0
  6
Continuous
 62
     3
100
AcDbLine
 10
387.397567444431
 20
-538.732250544306
 30
0.0
 11
336.397567444431
 21
-538.732250544306
 31
0.0
  0
LINE
  5
4CB
330
8E
100
AcDbEntity
  8
0
  6
Continuous
 62
     3
100
AcDbLine
 10
336.397567444431
 20
-534.432247544306
 30
0.0
 11
387.397567444431
 21
-534.432247544306
 31
0.0
  0
LINE
  5
4CC
330
8E
100
AcDbEntity
  8
0
  6
Continuous
 62
     3
100
AcDbLine
 10
387.397567444431
 20
-530.132244544306
 30
0.0
 11
336.397567444431
 21
-530.132244544306
 31
0.0
  0
LINE
  5
4CD
330
8E
100
AcDbEntity
  8
0
  6
Continuous
 62
     3
100
AcDbLine
 10
336.397567444431
 20
-525.832241544306
 30
0.0
 11
387.397567444431
 21
-525.832241544306
 31
0.0
  0
LINE
  5
4CE
330
8E
100
AcDbEntity
  8
0
  6
Continuous
 62
     3
100
AcDbLine
 10
387.397567444431
 20
-521.5322535443061
 30
0.0
 11
336.397567444431
 21
-521.5322535443061
 31
0.0
  0
LINE
  5
4CF
330
8E
100
AcDbEntity
  8
0
  6
Continuous
 62
     3
100
AcDbLine
 10
336.397567444431
 20
-517.232250544306
 30
0.0
 11
387.397567444431
 21
-517.232250544306
 31
0.0
  0
LINE
  5
4D0
330
8E
100
AcDbEntity
  8
0
  6
Continuous
 62
     3
100
AcDbLine
 10
387.397567444431
 20
-512.932247544306
 30
0.0
 11
336.397567444431
 21
-512.932247544306
 31
0.0
  0
LINE
  5
4D1
330
8E
100
AcDbEntity
  8
0
  6
Continuous
 62
     3
100
AcDbLine
 10
336.397567444431
 20
-508.6322445443061
 30
0.0
 11
387.397567444431
 21
-508.6322445443061
 31
0.0
  0
LINE
  5
4D2
330
8E
100
AcDbEntity
  8
0
  6
Continuous
 62
     3
100
AcDbLine
 10
346.3975674444311
 20
-547.332241544306
 30
0.0
 11
346.3975674444311
 21
-504.332241544306
 31
0.0
  0
LINE
  5
4D3
330
8E
100
AcDbEntity
  8
0
  6
Continuous
 62
     3
100
AcDbLine
 10
359.397567444431
 20
-547.332241544306
 30
0.0
 11
359.397567444431
 21
-504.332241544306
 31
0.0
  0
LINE
  5
4D4
330
8E
100
AcDbEntity
  8
0
  6
Continuous
 62
     3
100
AcDbLine
 10
370.397567444431
 20
-547.332241544306
 30
0.0
 11
370.397567444431
 21
-504.332241544306
 31
0.0
  0
LINE
  5
4D5
330
8E
100
AcDbEntity
  8
0
  6
Continuous
 62
     1
100
AcDbLine
 10
424.6702947171582
 20
-538.332241544306
 30
0.0
 11
424.6702947171582
 21
-521.3322392690858
 31
0.0
  0
LINE
  5
4D6
330
8E
100
AcDbEntity
  8
0
  6
Continuous
 62
     3
100
AcDbLine
 10
387.397567444431
 20
-534.0067954571707
 30
0.0
 11
424.6702947171582
 21
-534.0067954571707
 31
0.0
  0
LINE
  5
4D7
330
8E
100
AcDbEntity
  8
0
  6
Continuous
 62
     3
100
AcDbLine
 10
424.6702947171582
 20
-529.6813493700352
 30
0.0
 11
387.397567444431
 21
-529.6813493700352
 31
0.0
  0
LINE
  5
4D8
330
8E
100
AcDbEntity
  8
0
  6
Continuous
 62
     3
100
AcDbLine
 10
387.397567444431
 20
-525.3559032828999
 30
0.0
 11
424.6702947171582
 21
-525.3559032828999
 31
0.0
  0
LINE
  5
4D9
330
8E
100
AcDbEntity
  8
0
  6
Continuous
 62
     3
100
AcDbLine
 10
398.4861982171582
 20
-538.332241544306
 30
0.0
 11
398.4861982171582
 21
-521.332241544306
 31
0.0
  0
LINE
  5
4DA
330
8E
100
AcDbEntity
  8
0
  6
Continuous
 62
     3
100
AcDbLine
 10
412.5566583535219
 20
-538.332241544306
 30
0.0
 11
412.5566583535219
 21
-521.3322353113795
 31
0.0
  0
LINE
  5
4DB
330
8E
100
AcDbEntity
  8
0
  6
Continuous
 62
     1
100
AcDbLine
 10
469.397567444431
 20
-538.332241544306
 30
0.0
 11
451.3975674444309
 21
-538.332241544306
 31
0.0
  0
LINE
  5
4DC
330
8E
100
AcDbEntity
  8
0
  6
Continuous
 62
     2
100
AcDbLine
 10
519.397567444431
 20
-504.332241544306
 30
0.0
 11
519.397567444431
 21
-547.332241544306
 31
0.0
  0
LINE
  5
4DD
330
8E
100
AcDbEntity
  8
1
  6
Continuous
 62
     1
100
AcDbLine
 10
475.3975674444309
 20
-504.332241544306
 30
0.0
 11
519.397567444431
 21
-504.332241544306
 31
0.0
  0
LINE
  5
4DE
330
8E
100
AcDbEntity
  8
1
  6
Continuous
 62
     1
100
AcDbLine
 10
431.397567444431
 20
-521.332241544306
 30
0.0
 11
387.397567444431
 21
-521.332241544306
 31
0.0
  0
LINE
  5
4DF
330
8E
100
AcDbEntity
  8
0
  6
Continuous
 62
     1
100
AcDbLine
 10
387.397567444431
 20
-517.332241544306
 30
0.0
 11
387.397567444431
 21
-517.2316526653445
 31
0.0
  0
LINE
  5
4E0
330
8E
100
AcDbEntity
  8
0
  6
Continuous
 62
     3
100
AcDbLine
 10
387.397567444431
 20
-512.832241544306
 30
0.0
 11
431.397567444431
 21
-512.832241544306
 31
0.0
  0
LINE
  5
4E1
330
8E
100
AcDbEntity
  8
0
  6
Continuous
 62
     1
100
AcDbLine
 10
431.397567444431
 20
-504.332241544306
 30
0.0
 11
336.397567444431
 21
-504.332241544306
 31
0.0
  0
LINE
  5
4E2
330
8E
100
AcDbEntity
  8
0
  6
Continuous
 62
     1
100
AcDbLine
 10
431.397567444431
 20
-521.332241544306
 30
0.0
 11
519.397567444431
 21
-521.332241544306
 31
0.0
  0
LINE
  5
4E3
330
8E
100
AcDbEntity
  8
1
  6
Continuous
 62
     1
100
AcDbLine
 10
431.397567444431
 20
-504.332241544306
 30
0.0
 11
431.397567444431
 21
-521.332241544306
 31
0.0
  0
LINE
  5
4E4
330
8E
100
AcDbEntity
  8
0
  6
Continuous
 62
     1
100
AcDbLine
 10
519.397567444431
 20
-534.332241544306
 30
0.0
 11
469.397567444431
 21
-534.332241544306
 31
0.0
  0
LINE
  5
4E5
330
8E
100
AcDbEntity
  8
0
  6
Continuous
 62
     1
100
AcDbLine
 10
387.397567444431
 20
-504.332241544306
 30
0.0
 11
387.397567444431
 21
-547.332241544306
 31
0.0
  0
LINE
  5
4E6
330
8E
100
AcDbEntity
  8
0
  6
Continuous
 62
     1
100
AcDbLine
 10
469.397567444431
 20
-547.332241544306
 30
0.0
 11
469.397567444431
 21
-521.332241544306
 31
0.0
  0
LINE
  5
4E7
330
8E
100
AcDbEntity
  8
0
  6
Continuous
 62
     1
100
AcDbLine
 10
420.3975674444309
 20
-547.332241544306
 30
0.0
 11
420.3975674444309
 21
-538.332241544306
 31
0.0
  0
LINE
  5
4E8
330
8E
100
AcDbEntity
  8
0
  6
Continuous
 62
     1
100
AcDbLine
 10
475.3975674444309
 20
-504.332241544306
 30
0.0
 11
431.397567444431
 21
-504.332241544306
 31
0.0
  0
LINE
  5
4E9
330
8E
100
AcDbEntity
  8
0
  6
Continuous
 62
     2
100
AcDbLine
 10
519.397567444431
 20
-547.332241544306
 30
0.0
 11
336.397567444431
 21
-547.332241544306
 31
0.0
  0
LINE
  5
4EA
330
8E
100
AcDbEntity
  8
1
  6
Continuous
 62
     1
100
AcDbLine
 10
336.397567444431
 20
-547.332241544306
 30
0.0
 11
336.397567444431
 21
-504.332241544306
 31
0.0
  0
ARC
  5
4EB
330
8E
100
AcDbEntity
  8
1
  6
Continuous
 62
     3
100
AcDbCircle
 10
427.0549333852068
 20
-524.3649285263249
 30
0.0
 40
0.136519901161364
100
AcDbArc
 50
90.0
 51
180.0
  0
ARC
  5
4EC
330
8E
100
AcDbEntity
  8
1
  6
Continuous
 62
     3
100
AcDbCircle
 10
427.0549333852068
 20
-526.9903244670769
 30
0.0
 40
0.136519901161364
100
AcDbArc
 50
180.0
 51
270.0
  0
ARC
  5
4ED
330
8E
100
AcDbEntity
  8
1
  6
Continuous
 62
     3
100
AcDbCircle
 10
442.7696146179469
 20
-524.3649285263249
 30
0.0
 40
0.1365199011614209
100
AcDbArc
 50
0.0
 51
90.0
  0
ARC
  5
4EE
330
8E
100
AcDbEntity
  8
1
  6
Continuous
 62
     3
100
AcDbCircle
 10
442.7696146179469
 20
-526.9903244670769
 30
0.0
 40
0.1365199011614777
100
AcDbArc
 50
270.0
 51
0.0
  0
ARC
  5
4EF
330
8E
100
AcDbEntity
  8
1
  6
Continuous
 62
     3
100
AcDbCircle
 10
430.0872702597832
 20
-525.9401605314686
 30
0.0
 40
0.0594801903014831
100
AcDbArc
 50
1.312373929047248
 51
90.0
  0
ARC
  5
4F0
330
8E
100
AcDbEntity
  8
1
  6
Continuous
 62
     3
100
AcDbCircle
 10
432.3506810927394
 20
-525.3807626093
 30
0.0
 40
0.0569016875724413
100
AcDbArc
 50
180.5565825806992
 51
270.8121254428921
  0
ARC
  5
4F1
330
8E
100
AcDbEntity
  8
1
  6
Continuous
 62
     3
100
AcDbCircle
 10
432.3506810927394
 20
-525.0838177253135
 30
0.0
 40
0.0569016875725041
100
AcDbArc
 50
89.18787455710795
 51
179.4434174193008
  0
ARC
  5
4F2
330
8E
100
AcDbEntity
  8
1
  6
Continuous
 62
     3
100
AcDbCircle
 10
432.3506810927394
 20
-525.9375763127841
 30
0.0
 40
0.0569016875726177
100
AcDbArc
 50
89.18787455710956
 51
179.4434174191863
  0
ARC
  5
4F3
330
8E
100
AcDbEntity
  8
1
  6
Continuous
 62
     3
100
AcDbCircle
 10
432.3506810927394
 20
-526.2391503350583
 30
0.0
 40
0.0569016875724424
100
AcDbArc
 50
180.5565825808137
 51
270.8121254428921
  0
ARC
  5
4F4
330
8E
100
AcDbEntity
  8
1
  6
Continuous
 62
     3
100
AcDbCircle
 10
439.7631879718724
 20
-525.3807626093
 30
0.0
 40
0.0569016875726118
100
AcDbArc
 50
180.5565825806975
 51
270.8121254428348
  0
ARC
  5
4F5
330
8E
100
AcDbEntity
  8
1
  6
Continuous
 62
     3
100
AcDbCircle
 10
439.7631879718724
 20
-525.0838177253135
 30
0.0
 40
0.0569016875725033
100
AcDbArc
 50
89.18787455716516
 51
179.4434174193024
  0
ARC
  5
4F6
330
8E
100
AcDbEntity
  8
1
  6
Continuous
 62
     3
100
AcDbCircle
 10
439.7631879718724
 20
-525.9375763127841
 30
0.0
 40
0.0569016875726169
100
AcDbArc
 50
89.1878745571668
 51
179.443417419188
  0
ARC
  5
4F7
330
8E
100
AcDbEntity
  8
1
  6
Continuous
 62
     3
100
AcDbCircle
 10
439.7631879718724
 20
-526.2391503350583
 30
0.0
 40
0.0569016875726129
100
AcDbArc
 50
180.556582580812
 51
270.8121254428348
  0
ARC
  5
4F8
330
8E
100
AcDbEntity
  8
1
  6
Continuous
 62
     3
100
AcDbCircle
 10
435.2453471144376
 20
-524.6461156120342
 30
0.0
 40
0.0576922891751792
100
AcDbArc
 50
90.0
 51
180.0
  0
ARC
  5
4F9
330
8E
100
AcDbEntity
  8
1
  6
Continuous
 62
     3
100
AcDbCircle
 10
435.2453471144376
 20
-524.9692294645215
 30
0.0
 40
0.0576922891751792
100
AcDbArc
 50
180.0
 51
270.0
  0
ARC
  5
4FA
330
8E
100
AcDbEntity
  8
1
  6
Continuous
 62
     3
100
AcDbCircle
 10
435.2452743708359
 20
-526.7052026138229
 30
0.0
 40
0.0576195914921611
100
AcDbArc
 50
180.0723348146198
 51
270.0723348146763
  0
ARC
  5
4FB
330
8E
100
AcDbEntity
  8
1
  6
Continuous
 62
     3
100
AcDbCircle
 10
438.3243126376812
 20
-526.7052026138229
 30
0.0
 40
0.057619591492218
100
AcDbArc
 50
269.9276651853237
 51
359.9276651853803
  0
ARC
  5
4FC
330
8E
100
AcDbEntity
  8
1
  6
Continuous
 62
     3
100
AcDbCircle
 10
438.3243126376812
 20
-526.3536658522487
 30
0.0
 40
0.0576195914922179
100
AcDbArc
 50
0.0723348146197649
 51
90.07233481467629
  0
SPLINE
  5
4FD
330
8E
100
AcDbEntity
  8
1
  6
Continuous
 62
     3
100
AcDbSpline
210
0.0
220
0.0
230
1.0
 70
     8
 71
     3
 72
    13
 73
     9
 74
     7
 42
0.0000000001
 43
0.0000000001
 44
0.00000001
 40
0.0
 40
0.0
 40
0.0
 40
0.0
 40
0.1601947125886292
 40
0.3210951636653553
 40
0.4607710770949673
 40
0.6002079291530905
 40
0.724415658046337
 40
0.846816592437397
 40
0.846816592437397
 40
0.846816592437397
 40
0.846816592437397
 10
426.6692071308501
 20
-523.8038108352987
 30
0.0
 10
426.6157028906464
 20
-523.8070518014946
 30
0.0
 10
426.5084586986397
 20
-523.8135480263074
 30
0.0
 10
426.3615608003536
 20
-523.8643434390543
 30
0.0
 10
426.2346008399179
 20
-523.9401034024053
 30
0.0
 10
426.1397317250137
 20
-524.0370841311634
 30
0.0
 10
426.0742964960646
 20
-524.1512909312022
 30
0.0
 10
426.0647240189125
 20
-524.2336943536554
 30
0.0
 10
426.0599728538496
 20
-524.2745941991662
 30
0.0
 11
426.6692071308501
 21
-523.8038108352987
 31
0.0
 11
426.5099081123721
 21
-523.8207273399666
 31
0.0
 11
426.3574016018943
 21
-523.8720178814417
 31
0.0
 11
426.2382585665113
 21
-523.9449171159495
 31
0.0
 11
426.1409959999951
 21
-524.0448302267794
 31
0.0
 11
426.0821657313162
 21
-524.1542220020026
 31
0.0
 11
426.0599728538496
 21
-524.2745941991662
 31
0.0
  0
SPLINE
  5
4FE
330
8E
100
AcDbEntity
  8
1
  6
Continuous
 62
     3
100
AcDbSpline
210
0.0
220
0.0
230
1.0
 70
     8
 71
     3
 72
    13
 73
     9
 74
     7
 42
0.0000000001
 43
0.0000000001
 44
0.00000001
 40
0.0
 40
0.0
 40
0.0
 40
0.0
 40
0.1601947125886172
 40
0.3210951636654157
 40
0.4607710770949685
 40
0.6002079291530916
 40
0.7244156580465382
 40
0.8468165924373746
 40
0.8468165924373746
 40
0.8468165924373746
 40
0.8468165924373746
 10
426.6692071308501
 20
-527.5514421581032
 30
0.0
 10
426.6157028906464
 20
-527.5482011919073
 30
0.0
 10
426.5084586986397
 20
-527.5417049670947
 30
0.0
 10
426.3615608003536
 20
-527.4909095543473
 30
0.0
 10
426.2346008399179
 20
-527.4151495909966
 30
0.0
 10
426.1397317250137
 20
-527.3181688622387
 30
0.0
 10
426.0742964960646
 20
-527.2039620621994
 30
0.0
 10
426.0647240189125
 20
-527.1215586397463
 30
0.0
 10
426.0599728538496
 20
-527.0806587942356
 30
0.0
 11
426.6692071308501
 21
-527.5514421581032
 31
0.0
 11
426.5099081123721
 21
-527.5345256534353
 31
0.0
 11
426.3574016018943
 21
-527.48323511196
 31
0.0
 11
426.2382585665113
 21
-527.4103358774523
 31
0.0
 11
426.1409959999951
 21
-527.3104227666224
 31
0.0
 11
426.0821657313162
 21
-527.2010309913991
 31
0.0
 11
426.0599728538496
 21
-527.0806587942356
 31
0.0
  0
SPLINE
  5
4FF
330
8E
100
AcDbEntity
  8
1
  6
Continuous
 62
     3
100
AcDbSpline
210
0.0
220
0.0
230
1.0
 70
     8
 71
     3
 72
    13
 73
     9
 74
     7
 42
0.0000000001
 43
0.0000000001
 44
0.00000001
 40
0.0
 40
0.0
 40
0.0
 40
0.0
 40
0.1601947125885607
 40
0.3210951636653053
 40
0.4607710770948581
 40
0.6002079291529812
 40
0.7244156580462933
 40
0.8468165924371811
 40
0.8468165924371811
 40
0.8468165924371811
 40
0.8468165924371811
 10
443.1553408723037
 20
-527.5514421581032
 30
0.0
 10
443.2088451125074
 20
-527.5482011919073
 30
0.0
 10
443.316089304514
 20
-527.5417049670945
 30
0.0
 10
443.4629872028001
 20
-527.4909095543473
 30
0.0
 10
443.5899471632358
 20
-527.4151495909966
 30
0.0
 10
443.68481627814
 20
-527.3181688622385
 30
0.0
 10
443.7502515070886
 20
-527.2039620621995
 30
0.0
 10
443.7598239842409
 20
-527.1215586397463
 30
0.0
 10
443.764575149304
 20
-527.0806587942356
 30
0.0
 11
443.1553408723037
 21
-527.5514421581032
 31
0.0
 11
443.3146398907816
 21
-527.5345256534353
 31
0.0
 11
443.4671464012593
 21
-527.48323511196
 31
0.0
 11
443.5862894366423
 21
-527.4103358774523
 31
0.0
 11
443.6835520031585
 21
-527.3104227666224
 31
0.0
 11
443.7423822718372
 21
-527.2010309913991
 31
0.0
 11
443.764575149304
 21
-527.0806587942356
 31
0.0
  0
SPLINE
  5
500
330
8E
100
AcDbEntity
  8
1
  6
Continuous
 62
     3
100
AcDbSpline
210
0.0
220
0.0
230
1.0
 70
     8
 71
     3
 72
    13
 73
     9
 74
     7
 42
0.0000000001
 43
0.0000000001
 44
0.00000001
 40
0.0
 40
0.0
 40
0.0
 40
0.0
 40
0.1601947125885727
 40
0.3210951636652448
 40
0.4607710770948569
 40
0.6002079291529798
 40
0.7244156580460917
 40
0.8468165924372032
 40
0.8468165924372032
 40
0.8468165924372032
 40
0.8468165924372032
 10
443.1553408723037
 20
-523.8038108352987
 30
0.0
 10
443.2088451125074
 20
-523.8070518014946
 30
0.0
 10
443.3160893045141
 20
-523.8135480263074
 30
0.0
 10
443.4629872028001
 20
-523.8643434390541
 30
0.0
 10
443.5899471632358
 20
-523.9401034024054
 30
0.0
 10
443.6848162781399
 20
-524.0370841311633
 30
0.0
 10
443.7502515070886
 20
-524.1512909312022
 30
0.0
 10
443.759823984241
 20
-524.2336943536554
 30
0.0
 10
443.764575149304
 20
-524.2745941991662
 30
0.0
 11
443.1553408723037
 21
-523.8038108352987
 31
0.0
 11
443.3146398907816
 21
-523.8207273399666
 31
0.0
 11
443.4671464012593
 21
-523.8720178814417
 31
0.0
 11
443.5862894366423
 21
-523.9449171159495
 31
0.0
 11
443.6835520031585
 21
-524.0448302267794
 31
0.0
 11
443.7423822718372
 21
-524.1542220020026
 31
0.0
 11
443.764575149304
 21
-524.2745941991662
 31
0.0
  0
SPLINE
  5
501
330
8E
100
AcDbEntity
  8
1
  6
Continuous
 62
     3
100
AcDbSpline
210
0.0
220
0.0
230
1.0
 70
     8
 71
     3
 72
    13
 73
     9
 74
     7
 42
0.0000000001
 43
0.0000000001
 44
0.00000001
 40
0.0
 40
0.0
 40
0.0
 40
0.0
 40
0.1486424004252284
 40
0.2982382241042628
 40
0.4390496439046853
 40
0.5790300713339013
 40
0.7141201425463292
 40
0.8476890257820006
 40
0.8476890257820006
 40
0.8476890257820006
 40
0.8476890257820006
 10
428.3543325025876
 20
-524.588423322859
 30
0.0
 10
428.3046997163112
 20
-524.5912719702593
 30
0.0
 10
428.2051157902001
 20
-524.5969875512477
 30
0.0
 10
428.0643111615805
 20
-524.64148978399
 30
0.0
 10
427.9362524837413
 20
-524.7084144254629
 30
0.0
 10
427.8329785172498
 20
-524.8031469759641
 30
0.0
 10
427.7615759578863
 20
-524.9234636656124
 30
0.0
 10
427.7511265730823
 20
-525.0132555607191
 30
0.0
 10
427.7459314704789
 20
-525.0578973018966
 30
0.0
 11
428.3543325025876
 21
-524.588423322859
 31
0.0
 11
428.2064123540394
 21
-524.6030586369609
 31
0.0
 11
428.0632787392704
 21
-524.6465520736442
 31
0.0
 11
427.9394806673915
 21
-524.713648228091
 31
0.0
 11
427.8370064597637
 21
-524.8090083753266
 31
0.0
 11
427.7705372714923
 21
-524.9266143931302
 31
0.0
 11
427.7459314704789
 21
-525.0578973018966
 31
0.0
  0
SPLINE
  5
502
330
8E
100
AcDbEntity
  8
1
  6
Continuous
 62
     3
100
AcDbSpline
210
0.0
220
0.0
230
1.0
 70
     8
 71
     3
 72
    13
 73
     9
 74
     7
 42
0.0000000001
 43
0.0000000001
 44
0.00000001
 40
0.0
 40
0.0
 40
0.0
 40
0.0
 40
0.1486424004251152
 40
0.2982382241040409
 40
0.4390496439044134
 40
0.5790300713337958
 40
0.7141201425461957
 40
0.847689025781867
 40
0.847689025781867
 40
0.847689025781867
 40
0.847689025781867
 10
430.3313713347526
 20
-524.588423322859
 30
0.0
 10
430.381004121029
 20
-524.5912719702593
 30
0.0
 10
430.4805880471401
 20
-524.5969875512478
 30
0.0
 10
430.6213926757597
 20
-524.64148978399
 30
0.0
 10
430.7494513535987
 20
-524.7084144254629
 30
0.0
 10
430.8527253200905
 20
-524.8031469759639
 30
0.0
 10
430.9241278794537
 20
-524.9234636656124
 30
0.0
 10
430.9345772642577
 20
-525.0132555607191
 30
0.0
 10
430.9397723668612
 20
-525.0578973018966
 30
0.0
 11
430.3313713347526
 21
-524.588423322859
 31
0.0
 11
430.4792914833007
 21
-524.6030586369609
 31
0.0
 11
430.6224250980696
 21
-524.6465520736442
 31
0.0
 11
430.7462231699485
 21
-524.713648228091
 31
0.0
 11
430.8486973775765
 21
-524.8090083753266
 31
0.0
 11
430.9151665658478
 21
-524.9266143931302
 31
0.0
 11
430.9397723668612
 21
-525.0578973018966
 31
0.0
  0
SPLINE
  5
503
330
8E
100
AcDbEntity
  8
1
  6
Continuous
 62
     3
100
AcDbSpline
210
0.0
220
0.0
230
1.0
 70
     8
 71
     3
 72
    13
 73
     9
 74
     7
 42
0.0000000001
 43
0.0000000001
 44
0.00000001
 40
0.0
 40
0.0
 40
0.0
 40
0.0
 40
0.1486424004250928
 40
0.2982382241040515
 40
0.4390496439045323
 40
0.5790300713338374
 40
0.7141201425462373
 40
0.8476890257817968
 40
0.8476890257817968
 40
0.8476890257817968
 40
0.8476890257817968
 10
430.3313713347526
 20
-526.7668296705427
 30
0.0
 10
430.381004121029
 20
-526.7639810231425
 30
0.0
 10
430.4805880471399
 20
-526.7582654421541
 30
0.0
 10
430.6213926757599
 20
-526.713763209412
 30
0.0
 10
430.7494513535986
 20
-526.6468385679384
 30
0.0
 10
430.8527253200904
 20
-526.5521060174377
 30
0.0
 10
430.9241278794537
 20
-526.4317893277893
 30
0.0
 10
430.9345772642578
 20
-526.3419974326827
 30
0.0
 10
430.9397723668612
 20
-526.2973556915052
 30
0.0
 11
430.3313713347526
 21
-526.7668296705427
 31
0.0
 11
430.4792914833007
 21
-526.752194356441
 31
0.0
 11
430.6224250980696
 21
-526.7087009197576
 31
0.0
 11
430.7462231699485
 21
-526.6416047653105
 31
0.0
 11
430.8486973775765
 21
-526.5462446180752
 31
0.0
 11
430.9151665658478
 21
-526.4286386002715
 31
0.0
 11
430.9397723668612
 21
-526.2973556915052
 31
0.0
  0
SPLINE
  5
504
330
8E
100
AcDbEntity
  8
1
  6
Continuous
 62
     3
100
AcDbSpline
210
0.0
220
0.0
230
1.0
 70
     8
 71
     3
 72
    13
 73
     9
 74
     7
 42
0.0000000001
 43
0.0000000001
 44
0.00000001
 40
0.0
 40
0.0
 40
0.0
 40
0.0
 40
0.0328394639220644
 40
0.06559759615686
 40
0.1022664387470216
 40
0.1389211524018045
 40
0.1782532702861479
 40
0.2177267563668022
 40
0.2177267563668022
 40
0.2177267563668022
 40
0.2177267563668022
 10
428.7322685785114
 20
-525.0281650079796
 30
0.0
 10
428.7212856872381
 20
-525.0290251627636
 30
0.0
 10
428.6993471073431
 20
-525.0307433563728
 30
0.0
 10
428.6676340393104
 20
-525.0445016175968
 30
0.0
 10
428.6381145399355
 20
-525.0642741573178
 30
0.0
 10
428.6120050679135
 20
-525.0916705405268
 30
0.0
 10
428.5935341768085
 20
-525.1265461380107
 30
0.0
 10
428.5912204046103
 20
-525.1529349372873
 30
0.0
 10
428.5900614503108
 20
-525.1661530072838
 30
0.0
 11
428.7322685785114
 21
-525.0281650079796
 31
0.0
 11
428.6997200466088
 21
-525.0325266055052
 31
0.0
 11
428.6693387500165
 21
-525.0447770013781
 31
0.0
 11
428.6389634613768
 21
-525.0653183267363
 31
0.0
 11
428.6138948994382
 21
-525.0920603424604
 31
0.0
 11
428.5961208689179
 21
-525.1271473706927
 31
0.0
 11
428.5900614503108
 21
-525.1661530072838
 31
0.0
  0
SPLINE
  5
505
330
8E
100
AcDbEntity
  8
1
  6
Continuous
 62
     3
100
AcDbSpline
210
0.0
220
0.0
230
1.0
 70
     8
 71
     3
 72
    13
 73
     9
 74
     7
 42
0.0000000001
 43
0.0000000001
 44
0.00000001
 40
0.0
 40
0.0
 40
0.0
 40
0.0
 40
0.148642400425206
 40
0.2982382241042735
 40
0.4390496439048042
 40
0.5790300713339428
 40
0.7141201425463707
 40
0.8476890257819304
 40
0.8476890257819304
 40
0.8476890257819304
 40
0.8476890257819304
 10
428.3543325025876
 20
-526.7668296705427
 30
0.0
 10
428.3046997163112
 20
-526.7639810231427
 30
0.0
 10
428.2051157901999
 20
-526.758265442154
 30
0.0
 10
428.0643111615803
 20
-526.713763209412
 30
0.0
 10
427.9362524837415
 20
-526.6468385679385
 30
0.0
 10
427.8329785172497
 20
-526.5521060174377
 30
0.0
 10
427.7615759578863
 20
-526.4317893277895
 30
0.0
 10
427.7511265730824
 20
-526.3419974326827
 30
0.0
 10
427.7459314704789
 20
-526.2973556915052
 30
0.0
 11
428.3543325025876
 21
-526.7668296705427
 31
0.0
 11
428.2064123540394
 21
-526.752194356441
 31
0.0
 11
428.0632787392704
 21
-526.7087009197576
 31
0.0
 11
427.9394806673915
 21
-526.6416047653105
 31
0.0
 11
427.8370064597637
 21
-526.5462446180752
 31
0.0
 11
427.7705372714923
 21
-526.4286386002715
 31
0.0
 11
427.7459314704789
 21
-526.2973556915052
 31
0.0
  0
SPLINE
  5
506
330
8E
100
AcDbEntity
  8
1
  6
Continuous
 62
     3
100
AcDbSpline
210
0.0
220
0.0
230
1.0
 70
     8
 71
     3
 72
    13
 73
     9
 74
     7
 42
0.0000000001
 43
0.0000000001
 44
0.00000001
 40
0.0
 40
0.0
 40
0.0
 40
0.0
 40
0.0328394639220795
 40
0.0655975961567901
 40
0.1022664387470154
 40
0.1389211524018812
 40
0.1782532702861231
 40
0.2177267563667775
 40
0.2177267563667775
 40
0.2177267563667775
 40
0.2177267563667775
 10
428.7322685785114
 20
-526.2874744177271
 30
0.0
 10
428.7212856872381
 20
-526.286614262943
 30
0.0
 10
428.6993471073432
 20
-526.2848960693335
 30
0.0
 10
428.6676340393106
 20
-526.2711378081104
 30
0.0
 10
428.6381145399355
 20
-526.251365268389
 30
0.0
 10
428.6120050679136
 20
-526.2239688851796
 30
0.0
 10
428.5935341768083
 20
-526.189093287696
 30
0.0
 10
428.5912204046102
 20
-526.1627044884193
 30
0.0
 10
428.5900614503108
 20
-526.1494864184229
 30
0.0
 11
428.7322685785114
 21
-526.2874744177271
 31
0.0
 11
428.6997200466088
 21
-526.2831128202013
 31
0.0
 11
428.6693387500165
 21
-526.2708624243287
 31
0.0
 11
428.6389634613768
 21
-526.2503210989704
 31
0.0
 11
428.6138948994382
 21
-526.2235790832462
 31
0.0
 11
428.5961208689179
 21
-526.1884920550141
 31
0.0
 11
428.5900614503108
 21
-526.1494864184229
 31
0.0
  0
SPLINE
  5
507
330
8E
100
AcDbEntity
  8
1
  6
Continuous
 62
     3
100
AcDbSpline
210
0.0
220
0.0
230
1.0
 70
     8
 71
     3
 72
    13
 73
     9
 74
     7
 42
0.0000000001
 43
0.0000000001
 44
0.00000001
 40
0.0
 40
0.0
 40
0.0
 40
0.0
 40
0.0375510723225105
 40
0.0754042283818767
 40
0.1094159280672403
 40
0.1434580669815365
 40
0.179433031634642
 40
0.2157095195906252
 40
0.2157095195906252
 40
0.2157095195906252
 40
0.2157095195906252
 10
430.0106117297374
 20
-526.2874744177271
 30
0.0
 10
430.0231653674262
 20
-526.286733584962
 30
0.0
 10
430.0483736302553
 20
-526.285245945492
 30
0.0
 10
430.082901260422
 20
-526.2712541365372
 30
0.0
 10
430.1105381247304
 20
-526.2486851349462
 30
0.0
 10
430.1313267160418
 20
-526.2204607026164
 30
0.0
 10
430.1438345014619
 20
-526.1867059475697
 30
0.0
 10
430.1457653843234
 20
-526.1626230052229
 30
0.0
 10
430.1467348476171
 20
-526.1505312810649
 30
0.0
 11
430.0106117297374
 21
-526.2874744177271
 31
0.0
 11
430.0479221028274
 21
-526.283229505161
 31
0.0
 11
430.0830246786676
 21
-526.269063673451
 31
0.0
 11
430.1094912708491
 21
-526.2477021343153
 31
0.0
 11
430.1295805837334
 21
-526.2202196514603
 31
0.0
 11
430.142169939353
 21
-526.1865194087214
 31
0.0
 11
430.1467348476171
 21
-526.1505312810649
 31
0.0
  0
SPLINE
  5
508
330
8E
100
AcDbEntity
  8
1
  6
Continuous
 62
     3
100
AcDbSpline
210
0.0
220
0.0
230
1.0
 70
     8
 71
     3
 72
    13
 73
     9
 74
     7
 42
0.0000000001
 43
0.0000000001
 44
0.00000001
 40
0.0
 40
0.0
 40
0.0
 40
0.0
 40
0.0303249364043524
 40
0.0604417804406702
 40
0.0959479228028861
 40
0.1315593618836729
 40
0.1736623514494215
 40
0.2160932422796064
 40
0.2160932422796064
 40
0.2160932422796064
 40
0.2160932422796064
 10
430.1459016027252
 20
-525.1655710584705
 30
0.0
 10
430.1452284236375
 20
-525.1554318703957
 30
0.0
 10
430.143886670618
 20
-525.1352230719448
 30
0.0
 10
430.1321853168153
 20
-525.1050323595348
 30
0.0
 10
430.1141593641637
 20
-525.0762778289157
 30
0.0
 10
430.0870544742716
 20
-525.049444387631
 30
0.0
 10
430.0500939778541
 20
-525.0312709503446
 30
0.0
 10
430.0217986963236
 20
-525.0292029911561
 30
0.0
 10
430.0075961767958
 20
-525.0281650079796
 30
0.0
 11
430.1459016027252
 21
-525.1655710584705
 31
0.0
 11
430.1423643035542
 21
-525.1354531335525
 31
0.0
 11
430.1320670922995
 21
-525.1071513332787
 31
0.0
 11
430.1130908035831
 21
-525.0771415552451
 31
0.0
 11
430.0874951036429
 21
-525.0523820142794
 31
0.0
 11
430.0496267891978
 21
-525.0339794953672
 31
0.0
 11
430.0075961767958
 21
-525.0281650079796
 31
0.0
  0
SPLINE
  5
509
330
8E
100
AcDbEntity
  8
1
  6
Continuous
 62
     3
100
AcDbSpline
210
0.0
220
0.0
230
1.0
 70
     8
 71
     3
 72
    13
 73
     9
 74
     7
 42
0.0000000001
 43
0.0000000001
 44
0.00000001
 40
0.0
 40
0.0
 40
0.0
 40
0.0
 40
0.0381152507060976
 40
0.0763355471219554
 40
0.1127548705348393
 40
0.1486421485068833
 40
0.1827728946268439
 40
0.2174479353556235
 40
0.2174479353556235
 40
0.2174479353556235
 40
0.2174479353556235
 10
431.5868729950557
 20
-524.588423322859
 30
0.0
 10
431.5741210771306
 20
-524.5893914959923
 30
0.0
 10
431.5485820989253
 20
-524.5913305248851
 30
0.0
 10
431.5137067663081
 20
-524.6070915556968
 30
0.0
 10
431.4841568701218
 20
-524.6294501863278
 30
0.0
 10
431.4618531485876
 20
-524.6578085991728
 30
0.0
 10
431.4505545301655
 20
-524.6915389031169
 30
0.0
 10
431.4496466966539
 20
-524.7145237737168
 30
0.0
 10
431.4491891962677
 20
-524.7261071216471
 30
0.0
 11
431.5868729950557
 21
-524.588423322859
 31
0.0
 11
431.5490979704458
 21
-524.5935046582675
 31
0.0
 11
431.5139706800777
 21
-524.6085666874655
 31
0.0
 11
431.485075008022
 21
-524.6307343986481
 31
0.0
 11
431.4633543594283
 21
-524.6593020430998
 31
0.0
 11
431.4522170292075
 21
-524.691564526865
 31
0.0
 11
431.4491891962677
 21
-524.7261071216471
 31
0.0
  0
SPLINE
  5
50A
330
8E
100
AcDbEntity
  8
1
  6
Continuous
 62
     3
100
AcDbSpline
210
0.0
220
0.0
230
1.0
 70
     8
 71
     3
 72
    13
 73
     9
 74
     7
 42
0.0000000001
 43
0.0000000001
 44
0.00000001
 40
0.0
 40
0.0
 40
0.0
 40
0.0
 40
0.0381152507061127
 40
0.0763355471219706
 40
0.1127548705348545
 40
0.1486421485067175
 40
0.182772894626678
 40
0.2174479353555709
 40
0.2174479353555709
 40
0.2174479353555709
 40
0.2174479353555709
 10
431.5868729950557
 20
-526.7621873061456
 30
0.0
 10
431.5741210771306
 20
-526.7612191330122
 30
0.0
 10
431.5485820989252
 20
-526.7592801041195
 30
0.0
 10
431.5137067663081
 20
-526.7435190733076
 30
0.0
 10
431.4841568701218
 20
-526.7211604426768
 30
0.0
 10
431.4618531485876
 20
-526.6928020298316
 30
0.0
 10
431.4505545301656
 20
-526.6590717258878
 30
0.0
 10
431.4496466966539
 20
-526.6360868552879
 30
0.0
 10
431.4491891962677
 20
-526.6245035073575
 30
0.0
 11
431.5868729950557
 21
-526.7621873061456
 31
0.0
 11
431.5490979704458
 21
-526.757105970737
 31
0.0
 11
431.5139706800777
 21
-526.7420439415389
 31
0.0
 11
431.485075008022
 21
-526.7198762303563
 31
0.0
 11
431.4633543594283
 21
-526.6913085859049
 31
0.0
 11
431.4522170292075
 21
-526.6590461021397
 31
0.0
 11
431.4491891962677
 21
-526.6245035073575
 31
0.0
  0
SPLINE
  5
50B
330
8E
100
AcDbEntity
  8
1
  6
Continuous
 62
     3
100
AcDbSpline
210
0.0
220
0.0
230
1.0
 70
     8
 71
     3
 72
    13
 73
     9
 74
     7
 42
0.0000000001
 43
0.0000000001
 44
0.00000001
 40
0.0
 40
0.0
 40
0.0
 40
0.0
 40
0.0381152507059849
 40
0.0763355471218428
 40
0.1127548705348169
 40
0.1486421485068952
 40
0.1827728946268558
 40
0.2174479353556304
 40
0.2174479353556304
 40
0.2174479353556304
 40
0.2174479353556304
 10
438.9993798741886
 20
-524.588423322859
 30
0.0
 10
438.9866279562634
 20
-524.5893914959923
 30
0.0
 10
438.9610889780581
 20
-524.5913305248851
 30
0.0
 10
438.926213645441
 20
-524.6070915556969
 30
0.0
 10
438.8966637492544
 20
-524.6294501863278
 30
0.0
 10
438.8743600277205
 20
-524.6578085991729
 30
0.0
 10
438.8630614092983
 20
-524.6915389031167
 30
0.0
 10
438.8621535757867
 20
-524.7145237737168
 30
0.0
 10
438.8616960754005
 20
-524.7261071216471
 30
0.0
 11
438.9993798741886
 21
-524.588423322859
 31
0.0
 11
438.9616048495788
 21
-524.5935046582675
 31
0.0
 11
438.9264775592106
 21
-524.6085666874655
 31
0.0
 11
438.8975818871547
 21
-524.6307343986481
 31
0.0
 11
438.875861238561
 21
-524.6593020430998
 31
0.0
 11
438.8647239083403
 21
-524.691564526865
 31
0.0
 11
438.8616960754005
 21
-524.7261071216471
 31
0.0
  0
SPLINE
  5
50C
330
8E
100
AcDbEntity
  8
1
  6
Continuous
 62
     3
100
AcDbSpline
210
0.0
220
0.0
230
1.0
 70
     8
 71
     3
 72
    13
 73
     9
 74
     7
 42
0.0000000001
 43
0.0000000001
 44
0.00000001
 40
0.0
 40
0.0
 40
0.0
 40
0.0
 40
0.0381152507060001
 40
0.0763355471218579
 40
0.112754870534832
 40
0.1486421485067294
 40
0.18277289462669
 40
0.2174479353555779
 40
0.2174479353555779
 40
0.2174479353555779
 40
0.2174479353555779
 10
438.9993798741886
 20
-526.7621873061456
 30
0.0
 10
438.9866279562635
 20
-526.7612191330122
 30
0.0
 10
438.9610889780581
 20
-526.7592801041196
 30
0.0
 10
438.926213645441
 20
-526.7435190733075
 30
0.0
 10
438.8966637492547
 20
-526.7211604426768
 30
0.0
 10
438.8743600277202
 20
-526.6928020298317
 30
0.0
 10
438.8630614092983
 20
-526.6590717258879
 30
0.0
 10
438.8621535757867
 20
-526.6360868552879
 30
0.0
 10
438.8616960754005
 20
-526.6245035073575
 30
0.0
 11
438.9993798741886
 21
-526.7621873061456
 31
0.0
 11
438.9616048495788
 21
-526.757105970737
 31
0.0
 11
438.9264775592106
 21
-526.7420439415389
 31
0.0
 11
438.8975818871547
 21
-526.7198762303563
 31
0.0
 11
438.875861238561
 21
-526.6913085859049
 31
0.0
 11
438.8647239083403
 21
-526.6590461021397
 31
0.0
 11
438.8616960754005
 21
-526.6245035073575
 31
0.0
  0
SPLINE
  5
50D
330
8E
100
AcDbEntity
  8
1
  6
Continuous
 62
     3
100
AcDbSpline
210
0.0
220
0.0
230
1.0
 70
     8
 71
     3
 72
    13
 73
     9
 74
     7
 42
0.0000000001
 43
0.0000000001
 44
0.00000001
 40
0.0
 40
0.0
 40
0.0
 40
0.0
 40
0.0353323687869553
 40
0.0704203788310257
 40
0.1027083994740354
 40
0.1352293285019021
 40
0.1740111101515901
 40
0.212528731322184
 40
0.212528731322184
 40
0.212528731322184
 40
0.212528731322184
 10
438.3819321832547
 20
-524.727614898118
 30
0.0
 10
438.3810459891451
 20
-524.7157929932113
 30
0.0
 10
438.3792797155424
 20
-524.6922309456624
 30
0.0
 10
438.3648235894249
 20
-524.6604644633083
 30
0.0
 10
438.3441358630229
 20
-524.6340930568325
 30
0.0
 10
438.3178783079172
 20
-524.6115841216533
 30
0.0
 10
438.2855848794413
 20
-524.5926159483097
 30
0.0
 10
438.2596994897546
 20
-524.5898176723556
 30
0.0
 10
438.2468010235796
 20
-524.588423322859
 30
0.0
 11
438.3819321832547
 21
-524.727614898118
 31
0.0
 11
438.3772231047147
 21
-524.6925977456323
 31
0.0
 11
438.3632172384626
 21
-524.6604262623982
 31
0.0
 11
438.3434379815441
 21
-524.6349057330689
 31
0.0
 11
438.3188633225008
 21
-524.6136055659773
 31
0.0
 11
438.284713062687
 21
-524.5952265954805
 31
0.0
 11
438.2468010235796
 21
-524.588423322859
 31
0.0
  0
TEXT
  5
50E
330
8E
100
AcDbEntity
  8
0
 62
     3
100
AcDbText
 10
491.3975674444309
 20
-265.332241544306
 30
0.0
 40
1.798828
  1
1
 41
0.9899999999999998
  7
CONVERTER_11
100
AcDbText
  0
TEXT
  5
50F
330
8E
100
AcDbEntity
  8
0
 62
     3
100
AcDbText
 10
439.397567444431
 20
-265.332241544306
 30
0.0
 40
1.798828
  1
2
 41
0.9899999999999998
  7
CONVERTER_11
100
AcDbText
  0
TEXT
  5
510
330
8E
100
AcDbEntity
  8
0
 62
     3
100
AcDbText
 10
287.397567444431
 20
-265.332241544306
 30
0.0
 40
1.798828
  1
5                         4                             3
 41
0.9899999999999998
  7
CONVERTER_11
100
AcDbText
  0
TEXT
  5
511
330
8E
100
AcDbEntity
  8
0
 62
     3
100
AcDbText
 10
129.397567444431
 20
-265.332241544306
 30
0.0
 40
1.798828
  1
8                            7                           6
 41
0.9899999999999998
  7
CONVERTER_11
100
AcDbText
  0
TEXT
  5
512
330
8E
100
AcDbEntity
  8
0
 62
     3
100
AcDbText
 10
110.397567444431
 20
-290.332241544306
 30
0.0
 40
1.798828
  1
F
 41
0.9899999999999998
  7
CONVERTER_11
100
AcDbText
  0
TEXT
  5
513
330
8E
100
AcDbEntity
  8
0
 62
     3
100
AcDbText
 10
110.397567444431
 20
-340.332241544306
 30
0.0
 40
1.798828
  1
E
 41
0.9899999999999998
  7
CONVERTER_11
100
AcDbText
  0
TEXT
  5
514
330
8E
100
AcDbEntity
  8
0
 62
     3
100
AcDbText
 10
110.397567444431
 20
-385.332241544306
 30
0.0
 40
1.798828
  1
D
 41
0.9899999999999998
  7
CONVERTER_11
100
AcDbText
  0
TEXT
  5
515
330
8E
100
AcDbEntity
  8
0
 62
     3
100
AcDbText
 10
110.397567444431
 20
-430.332241544306
 30
0.0
 40
1.798828
  1
C
 41
0.9899999999999998
  7
CONVERTER_11
100
AcDbText
  0
TEXT
  5
516
330
8E
100
AcDbEntity
  8
0
 62
     3
100
AcDbText
 10
110.397567444431
 20
-475.332241544306
 30
0.0
 40
1.798828
  1
B
 41
0.9899999999999998
  7
CONVERTER_11
100
AcDbText
  0
TEXT
  5
517
330
8E
100
AcDbEntity
  8
0
 62
     3
100
AcDbText
 10
110.397567444431
 20
-517.332241544306
 30
0.0
 40
1.798828
  1
A
 41
0.9899999999999998
  7
CONVERTER_11
100
AcDbText
  0
MTEXT
  5
518
330
8E
100
AcDbEntity
  8
0
 62
     7
100
AcDbMText
 10
110.9658469994346
 20
-544.9665594499845
 30
0.0
 40
1.199999999999999
 41
0.0
 71
     7
 72
     1
  3
Diese Zeichnung entspricht dem Entwicklungsstand des Zeichnungs-\Pdatums bzw. der letzten \U+00c4nderungseintragung.Aus der Ben\U+00fctzung der\PZeichnung k\U+00f6nnen keine Anspr\U+00fcche, gleich welcher Art, einschlie\U+00df-\Plich Schadenersatzan
  3
spr\U+00fcche, abgeleitet und gegen GEZE geltend ge-\Pmacht werden. Die Zeichnung bleibt unser Eigentum und ist Dritten\Pnur f\U+00fcr die Vertragsdauer zur Ben\U+00fctzung \U+00fcberlassen.S\U+00e4mtliche sich\Paus der Zeichnung ergebenden Anspr\U+0
  1
0fcche stehen ausschlie\U+00dflich GEZE\Pzu.Ohne vorherige Zustimmung von GEZE darf diese Zeichnung weder\Pvervielf\U+00e4ltigt noch Dritten zug\U+00e4nglich gemacht werden.
  7
CONVERTER_12
 73
     1
 44
0.8403361344537815
  0
TEXT
  5
519
330
8E
100
AcDbEntity
  8
1
 62
     3
100
AcDbText
 10
452.2109062624779
 20
-540.9779294534144
 30
0.0
 40
1.798828
  1
Blatt / von
 41
0.9899999999999998
  7
CONVERTER_11
100
AcDbText
  0
TEXT
  5
51A
330
8E
100
AcDbEntity
  8
0
 62
     3
100
AcDbText
 10
337.397567444431
 20
-546.332241544306
 30
0.0
 40
1.7
  1
Vers.  Datum   Name   Mitt.Nr.
 41
0.99
  7
CONVERTER_11
100
AcDbText
  0
MTEXT
  5
51B
330
8E
100
AcDbEntity
  8
0
 62
     3
100
AcDbMText
 10
445.6463519042276
 20
-535.4427556885645
 30
0.0
 40
1.741551419257157
 41
0.0
 71
     7
 72
     1
  1
P.O. Box 13 63\P71226 Leonberg\PGermany
  7
CONVERTER_11
 73
     1
 44
1.020408163265306
  0
TEXT
  5
51D
330
8E
100
AcDbEntity
  8
0
 62
     4
100
AcDbText
 10
445.6463519042277
 20
-526.0612799597902
 30
0.0
 40
2.223740077487275
  1
GEZE GmbH
 41
0.8099999999999997
  7
CONVERTER_13
100
AcDbText
  0
TEXT
  5
51E
330
8E
100
AcDbEntity
  8
0
 62
     3
100
AcDbText
 10
388.3293856262492
 20
-529.0777931388053
 30
0.0
 40
1.741551419257157
  1
Bearb.
 41
0.9899999999999996
  7
CONVERTER_11
100
AcDbText
  0
TEXT
  5
51F
330
8E
100
AcDbEntity
  8
0
 62
     3
100
AcDbText
 10
388.3293856262492
 20
-533.4032392259406
 30
0.0
 40
1.741551419257157
  1
Freig.:
 41
0.9899999999999996
  7
CONVERTER_11
100
AcDbText
  0
TEXT
  5
520
330
8E
100
AcDbEntity
  8
0
 62
     3
100
AcDbText
 10
388.3293856262492
 20
-537.7286853130759
 30
0.0
 40
1.741551419257157
  1
Norm
 41
0.9899999999999996
  7
CONVERTER_11
100
AcDbText
  0
TEXT
  5
521
330
8E
100
AcDbEntity
  8
0
 62
     3
100
AcDbText
 10
399.4180163989765
 20
-524.6517644056349
 30
0.0
 40
1.741551419257157
  1
Datum    Name
 41
0.9899999999999996
  7
CONVERTER_11
100
AcDbText
  0
TEXT
  5
522
330
8E
100
AcDbEntity
  8
0
 62
     3
100
AcDbText
 10
388.397567444431
 20
-506.3322415443059
 30
0.0
 40
1.6
  1
Ersatz für:
 41
0.9899999999999998
  7
CONVERTER_11
100
AcDbText
  0
TEXT
  5
523
330
8E
100
AcDbEntity
  8
0
 62
     3
100
AcDbText
 10
388.397567444431
 20
-514.9322415443061
 30
0.0
 40
1.6
  1
Ersetzt durch:
 41
0.9899999999999998
  7
CONVERTER_11
100
AcDbText
  0
TEXT
  5
524
330
8E
100
AcDbEntity
  8
0
 62
     3
100
AcDbText
 10
432.197524444431
 20
-507.2322355443059
 30
0.0
 40
1.798828
  1
Benennung
 41
0.9899999999999998
  7
CONVERTER_11
100
AcDbText
  0
TEXT
  5
525
330
8E
100
AcDbEntity
  8
0
 62
     3
100
AcDbText
 10
388.397567444431
 20
-541.332241544306
 30
0.0
 40
1.798828
  1
Maßstab
 41
0.9899999999999998
  7
CONVERTER_11
100
AcDbText
  0
TEXT
  5
526
330
8E
100
AcDbEntity
  8
0
 62
     3
100
AcDbText
 10
421.3975674444309
 20
-541.332241544306
 30
0.0
 40
1.798828
  1
alte techn.Nr.
 41
0.9899999999999998
  7
CONVERTER_11
100
AcDbText
  0
TEXT
  5
527
330
8E
100
AcDbEntity
  8
0
 62
     3
100
AcDbText
 10
470.3975674444309
 20
-537.332241544306
 30
0.0
 40
1.798828
  1
Zeichnungs Nr.
 41
0.9899999999999998
  7
CONVERTER_11
100
AcDbText
  0
TEXT
  5
528
330
8E
100
AcDbEntity
  8
0
 62
     3
100
AcDbText
 10
470.3975674444309
 20
-524.332241544306
 30
0.0
 40
1.798828
  1
Material Nr.
 41
0.9899999999999998
  7
CONVERTER_11
100
AcDbText
  0
MTEXT
  5
52A
330
8E
100
AcDbEntity
  8
1
 62
     1
100
AcDbMText
 10
494.397567444431
 20
-541.9467224585782
 30
0.0
 40
5.0
 41
0.0
 71
     5
 72
     1
  1
20520-0-51
  7
CONVERTER_14
 73
     1
 44
1.020408163265306
  0
MTEXT
  5
52B
330
8E
100
AcDbEntity
  8
1
 62
     1
100
AcDbMText
 10
494.397567444431
 20
-528.8220903622478
 30
0.0
 40
5.0
 41
0.0
 71
     5
 72
     1
  1
 
  7
CONVERTER_12
 73
     1
 44
1.020408163265306
  0
MTEXT
  5
52C
330
8E
100
AcDbEntity
  8
1
 62
     1
100
AcDbMText
 10
475.3975674444309
 20
-510.8930040004639
 30
0.0
 40
4.5
 41
0.0
 71
     5
 72
     1
  1
GEZE TS 5000
  7
CONVERTER_14
 73
     1
 44
1.020408163265306
  0
MTEXT
  5
52D
330
8E
100
AcDbEntity
  8
1
 62
     4
100
AcDbMText
 10
475.3975674444309
 20
-517.7812706053575
 30
0.0
 40
3.5
 41
0.0
 71
     5
 72
     1
  1
NEUTRAL
  7
CONVERTER_14
 73
     1
 44
1.020408163265306
  0
MTEXT
  5
52F
330
8E
100
AcDbEntity
  8
1
 62
     3
100
AcDbMText
 10
405.5214282853401
 20
-527.5186263264676
 30
0.0
 40
2.5
 41
0.0
 71
     5
 72
     1
  1
21.10.2002
  7
CONVERTER_15
 73
     1
 44
1.020408163265306
  0
MTEXT
  5
530
330
8E
100
AcDbEntity
  8
1
 62
     3
100
AcDbMText
 10
418.6134765353401
 20
-527.5186263264676
 30
0.0
 40
2.5
 41
0.0
 71
     5
 72
     1
  1
tbm6
  7
CONVERTER_14
 73
     1
 44
1.020408163265306
  0
MTEXT
  5
531
330
8E
100
AcDbEntity
  8
1
 62
     4
100
AcDbMText
 10
455.1959315138559
 20
-544.332241544306
 30
0.0
 40
3.5
 41
0.0
 71
     5
 72
     1
  1
1
  7
CONVERTER_12
 73
     1
 44
1.020408163265306
  0
MTEXT
  5
532
330
8E
100
AcDbEntity
  8
1
 62
     4
100
AcDbMText
 10
465.489019544501
 20
-544.332241544306
 30
0.0
 40
3.5
 41
0.0
 71
     5
 72
     1
  1
1
  7
CONVERTER_12
 73
     1
 44
1.020408163265306
  0
MTEXT
  5
533
330
8E
100
AcDbEntity
  8
1
 62
     3
100
AcDbMText
 10
409.3162242865919
 20
-509.4221058758295
 30
0.0
 40
2.5
 41
0.0
 71
     5
 72
     1
  1
GL.NR.
  7
CONVERTER_12
 73
     1
 44
1.020408163265306
  0
MTEXT
  5
534
330
8E
100
AcDbEntity
  8
1
 62
     3
100
AcDbMText
 10
409.3162242865919
 20
-517.9221058758295
 30
0.0
 40
2.5
 41
0.0
 71
     5
 72
     1
  1
 
  7
CONVERTER_12
 73
     1
 44
1.020408163265306
  0
MTEXT
  5
535
330
8E
100
AcDbEntity
  8
1
 62
     3
100
AcDbMText
 10
341.3975674444311
 20
-540.882244544306
 30
0.0
 40
2.5
 41
0.0
 71
     5
 72
     1
  1
01
  7
CONVERTER_12
 73
     1
 44
1.020408163265306
  0
MTEXT
  5
536
330
8E
100
AcDbEntity
  8
1
 62
     3
100
AcDbMText
 10
352.8975674444311
 20
-540.882244544306
 30
0.0
 40
2.5
 41
0.0
 71
     5
 72
     1
  1
16.02.2000
  7
CONVERTER_15
 73
     1
 44
1.020408163265306
  0
MTEXT
  5
538
330
8E
100
AcDbEntity
  8
1
 62
     3
100
AcDbMText
 10
364.897567444431
 20
-540.882244544306
 30
0.0
 40
2.5
 41
0.0
 71
     5
 72
     1
  1
tbm6
  7
CONVERTER_16
 73
     1
 44
1.020408163265306
  0
MTEXT
  5
539
330
8E
100
AcDbEntity
  8
1
 62
     3
100
AcDbMText
 10
378.897567444431
 20
-540.882244544306
 30
0.0
 40
2.5
 41
0.0
 71
     5
 72
     1
  1
X
  7
CONVERTER_16
 73
     1
 44
1.020408163265306
  0
MTEXT
  5
53A
330
8E
100
AcDbEntity
  8
1
 62
     3
100
AcDbMText
 10
341.3975674444311
 20
-536.582256544306
 30
0.0
 40
2.5
 41
0.0
 71
     5
 72
     1
  1
02
  7
CONVERTER_12
 73
     1
 44
1.020408163265306
  0
MTEXT
  5
53B
330
8E
100
AcDbEntity
  8
1
 62
     3
100
AcDbMText
 10
341.3975674444311
 20
-532.282268544306
 30
0.0
 40
2.5
 41
0.0
 71
     5
 72
     1
  1
 
  7
CONVERTER_12
 73
     1
 44
1.020408163265306
  0
MTEXT
  5
53C
330
8E
100
AcDbEntity
  8
1
 62
     3
100
AcDbMText
 10
341.3975674444311
 20
-527.982280544306
 30
0.0
 40
2.5
 41
0.0
 71
     5
 72
     1
  1
 
  7
CONVERTER_12
 73
     1
 44
1.020408163265306
  0
MTEXT
  5
53D
330
8E
100
AcDbEntity
  8
1
 62
     3
100
AcDbMText
 10
341.3975674444311
 20
-523.682292544306
 30
0.0
 40
2.5
 41
0.0
 71
     5
 72
     1
  1
 
  7
CONVERTER_12
 73
     1
 44
1.020408163265306
  0
MTEXT
  5
53E
330
8E
100
AcDbEntity
  8
1
 62
     3
100
AcDbMText
 10
341.3975674444311
 20
-519.382304544306
 30
0.0
 40
2.5
 41
0.0
 71
     5
 72
     1
  1
 
  7
CONVERTER_12
 73
     1
 44
1.020408163265306
  0
MTEXT
  5
53F
330
8E
100
AcDbEntity
  8
1
 62
     3
100
AcDbMText
 10
341.3975674444311
 20
-515.082316544306
 30
0.0
 40
2.5
 41
0.0
 71
     5
 72
     1
  1
 
  7
CONVERTER_12
 73
     1
 44
1.020408163265306
  0
MTEXT
  5
540
330
8E
100
AcDbEntity
  8
1
 62
     3
100
AcDbMText
 10
341.3975674444311
 20
-510.782328544306
 30
0.0
 40
2.5
 41
0.0
 71
     5
 72
     1
  1
 
  7
CONVERTER_12
 73
     1
 44
1.020408163265306
  0
MTEXT
  5
541
330
8E
100
AcDbEntity
  8
1
 62
     3
100
AcDbMText
 10
341.3975674444311
 20
-506.482340544306
 30
0.0
 40
2.5
 41
0.0
 71
     5
 72
     1
  1
 
  7
CONVERTER_12
 73
     1
 44
1.020408163265306
  0
MTEXT
  5
542
330
8E
100
AcDbEntity
  8
1
 62
     3
100
AcDbMText
 10
352.8975674444311
 20
-536.582256544306
 30
0.0
 40
2.5
 41
0.0
 71
     5
 72
     1
  1
21.10.2002
  7
CONVERTER_15
 73
     1
 44
1.020408163265306
  0
MTEXT
  5
543
330
8E
100
AcDbEntity
  8
1
 62
     3
100
AcDbMText
 10
352.8975674444311
 20
-532.282268544306
 30
0.0
 40
2.5
 41
0.0
 71
     5
 72
     1
  1
 
  7
CONVERTER_15
 73
     1
 44
1.020408163265306
  0
MTEXT
  5
544
330
8E
100
AcDbEntity
  8
1
 62
     3
100
AcDbMText
 10
352.8975674444311
 20
-527.982280544306
 30
0.0
 40
2.5
 41
0.0
 71
     5
 72
     1
  1
 
  7
CONVERTER_15
 73
     1
 44
1.020408163265306
  0
MTEXT
  5
545
330
8E
100
AcDbEntity
  8
1
 62
     3
100
AcDbMText
 10
352.8975674444311
 20
-523.682292544306
 30
0.0
 40
2.5
 41
0.0
 71
     5
 72
     1
  1
 
  7
CONVERTER_15
 73
     1
 44
1.020408163265306
  0
MTEXT
  5
546
330
8E
100
AcDbEntity
  8
1
 62
     3
100
AcDbMText
 10
352.8975674444311
 20
-519.382304544306
 30
0.0
 40
2.5
 41
0.0
 71
     5
 72
     1
  1
 
  7
CONVERTER_15
 73
     1
 44
1.020408163265306
  0
MTEXT
  5
547
330
8E
100
AcDbEntity
  8
1
 62
     3
100
AcDbMText
 10
352.8975674444311
 20
-515.082316544306
 30
0.0
 40
2.5
 41
0.0
 71
     5
 72
     1
  1
 
  7
CONVERTER_15
 73
     1
 44
1.020408163265306
  0
MTEXT
  5
548
330
8E
100
AcDbEntity
  8
1
 62
     3
100
AcDbMText
 10
352.8975674444311
 20
-510.782328544306
 30
0.0
 40
2.5
 41
0.0
 71
     5
 72
     1
  1
 
  7
CONVERTER_15
 73
     1
 44
1.020408163265306
  0
MTEXT
  5
549
330
8E
100
AcDbEntity
  8
1
 62
     3
100
AcDbMText
 10
352.8975674444311
 20
-506.482340544306
 30
0.0
 40
2.5
 41
0.0
 71
     5
 72
     1
  1
 
  7
CONVERTER_15
 73
     1
 44
1.020408163265306
  0
MTEXT
  5
54A
330
8E
100
AcDbEntity
  8
1
 62
     3
100
AcDbMText
 10
364.897567444431
 20
-536.582256544306
 30
0.0
 40
2.5
 41
0.0
 71
     5
 72
     1
  1
tbm6
  7
CONVERTER_16
 73
     1
 44
1.020408163265306
  0
MTEXT
  5
54B
330
8E
100
AcDbEntity
  8
1
 62
     3
100
AcDbMText
 10
364.897567444431
 20
-532.282268544306
 30
0.0
 40
2.5
 41
0.0
 71
     5
 72
     1
  1
 
  7
CONVERTER_16
 73
     1
 44
1.020408163265306
  0
MTEXT
  5
54C
330
8E
100
AcDbEntity
  8
1
 62
     3
100
AcDbMText
 10
364.897567444431
 20
-527.982280544306
 30
0.0
 40
2.5
 41
0.0
 71
     5
 72
     1
  1
 
  7
CONVERTER_16
 73
     1
 44
1.020408163265306
  0
MTEXT
  5
54D
330
8E
100
AcDbEntity
  8
1
 62
     3
100
AcDbMText
 10
364.897567444431
 20
-523.682292544306
 30
0.0
 40
2.5
 41
0.0
 71
     5
 72
     1
  1
 
  7
CONVERTER_16
 73
     1
 44
1.020408163265306
  0
MTEXT
  5
54E
330
8E
100
AcDbEntity
  8
1
 62
     3
100
AcDbMText
 10
364.897567444431
 20
-519.382304544306
 30
0.0
 40
2.5
 41
0.0
 71
     5
 72
     1
  1
 
  7
CONVERTER_16
 73
     1
 44
1.020408163265306
  0
MTEXT
  5
54F
330
8E
100
AcDbEntity
  8
1
 62
     3
100
AcDbMText
 10
364.897567444431
 20
-515.082316544306
 30
0.0
 40
2.5
 41
0.0
 71
     5
 72
     1
  1
 
  7
CONVERTER_16
 73
     1
 44
1.020408163265306
  0
MTEXT
  5
550
330
8E
100
AcDbEntity
  8
1
 62
     3
100
AcDbMText
 10
364.897567444431
 20
-510.782328544306
 30
0.0
 40
2.5
 41
0.0
 71
     5
 72
     1
  1
 
  7
CONVERTER_16
 73
     1
 44
1.020408163265306
  0
MTEXT
  5
551
330
8E
100
AcDbEntity
  8
1
 62
     3
100
AcDbMText
 10
364.897567444431
 20
-506.482340544306
 30
0.0
 40
2.5
 41
0.0
 71
     5
 72
     1
  1
 
  7
CONVERTER_16
 73
     1
 44
1.020408163265306
  0
MTEXT
  5
552
330
8E
100
AcDbEntity
  8
1
 62
     3
100
AcDbMText
 10
378.897567444431
 20
-536.582256544306
 30
0.0
 40
2.5
 41
0.0
 71
     5
 72
     1
  1
X
  7
CONVERTER_16
 73
     1
 44
1.020408163265306
  0
MTEXT
  5
553
330
8E
100
AcDbEntity
  8
1
 62
     3
100
AcDbMText
 10
378.897567444431
 20
-532.282268544306
 30
0.0
 40
2.5
 41
0.0
 71
     5
 72
     1
  1
 
  7
CONVERTER_16
 73
     1
 44
1.020408163265306
  0
MTEXT
  5
554
330
8E
100
AcDbEntity
  8
1
 62
     3
100
AcDbMText
 10
378.897567444431
 20
-527.982280544306
 30
0.0
 40
2.5
 41
0.0
 71
     5
 72
     1
  1
 
  7
CONVERTER_16
 73
     1
 44
1.020408163265306
  0
MTEXT
  5
555
330
8E
100
AcDbEntity
  8
1
 62
     3
100
AcDbMText
 10
378.897567444431
 20
-523.682292544306
 30
0.0
 40
2.5
 41
0.0
 71
     5
 72
     1
  1
 
  7
CONVERTER_16
 73
     1
 44
1.020408163265306
  0
MTEXT
  5
556
330
8E
100
AcDbEntity
  8
1
 62
     3
100
AcDbMText
 10
378.897567444431
 20
-519.382304544306
 30
0.0
 40
2.5
 41
0.0
 71
     5
 72
     1
  1
 
  7
CONVERTER_16
 73
     1
 44
1.020408163265306
  0
MTEXT
  5
557
330
8E
100
AcDbEntity
  8
1
 62
     3
100
AcDbMText
 10
378.897567444431
 20
-515.082316544306
 30
0.0
 40
2.5
 41
0.0
 71
     5
 72
     1
  1
 
  7
CONVERTER_16
 73
     1
 44
1.020408163265306
  0
MTEXT
  5
558
330
8E
100
AcDbEntity
  8
1
 62
     3
100
AcDbMText
 10
378.897567444431
 20
-510.782328544306
 30
0.0
 40
2.5
 41
0.0
 71
     5
 72
     1
  1
 
  7
CONVERTER_16
 73
     1
 44
1.020408163265306
  0
MTEXT
  5
559
330
8E
100
AcDbEntity
  8
1
 62
     3
100
AcDbMText
 10
378.897567444431
 20
-506.482340544306
 30
0.0
 40
2.5
 41
0.0
 71
     5
 72
     1
  1
 
  7
CONVERTER_16
 73
     1
 44
1.020408163265306
  0
MTEXT
  5
55A
330
8E
100
AcDbEntity
  8
1
 62
     3
100
AcDbMText
 10
418.6134765353401
 20
-531.844072413603
 30
0.0
 40
2.5
 41
0.0
 71
     5
 72
     1
  1
tbm4
  7
CONVERTER_14
 73
     1
 44
1.020408163265306
  0
MTEXT
  5
55B
330
8E
100
AcDbEntity
  8
1
 62
     3
100
AcDbMText
 10
405.5214282853401
 20
-531.844072413603
 30
0.0
 40
2.5
 41
0.0
 71
     5
 72
     1
  1
22.10.2002
  7
CONVERTER_15
 73
     1
 44
1.020408163265306
  0
ENDBLK
  5
90
330
8E
100
AcDbEntity
  8
0
100
AcDbBlockEnd
  0
BLOCK
  5
93
330
91
100
AcDbEntity
  8
0
100
AcDbBlockBegin
  2
rahmen
 70
     0
 10
109.397567444431
 20
-547.332241544306
 30
0.0
  3
rahmen
  1

  0
INSERT
  5
92
330
91
100
AcDbEntity
  8
1
100
AcDbBlockReference
  2
a3kl
 10
109.397567444431
 20
-547.332241544306
 30
0.0
  0
ENDBLK
  5
94
330
91
100
AcDbEntity
  8
0
100
AcDbBlockEnd
  0
BLOCK
  5
147
330
146
100
AcDbEntity
  8
0
100
AcDbBlockBegin
  2
*D6
 70
     1
 10
0.0
 20
0.0
 30
0.0
  3
*D6
  1

  0
LINE
  5
152
330
146
100
AcDbEntity
  8
1
  6
Continuous
 62
     3
100
AcDbLine
 10
1707.262924919001
 20
-2227.09410422698
 30
0.0
 11
1867.262747144544
 21
-2227.09410422698
 31
0.0
  0
LINE
  5
153
330
146
100
AcDbEntity
  8
1
  6
Continuous
 62
     3
100
AcDbLine
 10
1867.262747144544
 20
-2196.765221021368
 30
0.0
 11
1867.262747144544
 21
-2238.20500778024
 31
0.0
  0
LINE
  5
154
330
146
100
AcDbEntity
  8
1
  6
Continuous
 62
     3
100
AcDbLine
 10
1707.262924919001
 20
-2152.765120745463
 30
0.0
 11
1707.262924919001
 21
-2238.20500778024
 31
0.0
  0
SOLID
  5
155
330
146
100
AcDbEntity
  8
1
 62
     3
100
AcDbTrace
 10
1721.151554360575
 20
-2225.265631472931
 30
0.0
 11
1721.151554360575
 21
-2228.922576981029
 31
0.0
 12
1707.262924919001
 22
-2227.09410422698
 32
0.0
 13
1707.262924919001
 23
-2227.09410422698
 33
0.0
  0
SOLID
  5
156
330
146
100
AcDbEntity
  8
1
 62
     3
100
AcDbTrace
 10
1853.374117702969
 20
-2228.922576981029
 30
0.0
 11
1853.374117702969
 21
-2225.265631472931
 31
0.0
 12
1867.262747144544
 22
-2227.09410422698
 32
0.0
 13
1867.262747144544
 23
-2227.09410422698
 33
0.0
  0
TEXT
  5
157
330
146
100
AcDbEntity
  8
1
 62
     3
100
AcDbText
 10
1755.63957552584
 20
-2219.157443386753
 30
0.0
 40
13.88862944157506
  1
\C3;160\C7;\H9.99981;±0.2
 50
0.0001388888888889
 41
0.9
  7
CONVERTER_12
100
AcDbText
  0
ENDBLK
  5
148
330
146
100
AcDbEntity
  8
0
100
AcDbBlockEnd
  0
BLOCK
  5
164
330
163
100
AcDbEntity
  8
0
100
AcDbBlockBegin
  2
*D8
 70
     1
 10
0.0
 20
0.0
 30
0.0
  3
*D8
  1

  0
LINE
  5
16F
330
163
100
AcDbEntity
  8
1
  6
Continuous
 62
     3
100
AcDbLine
 10
2442.591083024939
 20
-2226.641891843069
 30
0.0
 11
2602.591083024939
 21
-2226.641891843069
 31
0.0
  0
LINE
  5
170
330
163
100
AcDbEntity
  8
1
  6
Continuous
 62
     3
100
AcDbLine
 10
2602.591083024939
 20
-2196.764126597367
 30
0.0
 11
2602.591083024939
 21
-2237.75279539633
 31
0.0
  0
LINE
  5
171
330
163
100
AcDbEntity
  8
1
  6
Continuous
 62
     3
100
AcDbLine
 10
2442.591083024939
 20
-2152.766476275696
 30
0.0
 11
2442.591083024939
 21
-2237.75279539633
 31
0.0
  0
SOLID
  5
172
330
163
100
AcDbEntity
  8
1
 62
     3
100
AcDbTrace
 10
2588.702453583364
 20
-2228.470364597118
 30
0.0
 11
2588.702453583364
 21
-2224.81341908902
 31
0.0
 12
2602.591083024939
 22
-2226.641891843069
 32
0.0
 13
2602.591083024939
 23
-2226.641891843069
 33
0.0
  0
SOLID
  5
173
330
163
100
AcDbEntity
  8
1
 62
     3
100
AcDbTrace
 10
2456.479712466514
 20
-2224.81341908902
 30
0.0
 11
2456.479712466514
 21
-2228.470364597118
 31
0.0
 12
2442.591083024939
 22
-2226.641891843069
 32
0.0
 13
2442.591083024939
 23
-2226.641891843069
 33
0.0
  0
TEXT
  5
174
330
163
100
AcDbEntity
  8
1
 62
     3
100
AcDbText
 10
2492.417535109899
 20
-2215.53098828981
 30
0.0
 40
13.88862944157506
  1
\C3;160\C7;\H9.99981;±0.2
 50
0.0001388888888889
 41
0.9
  7
CONVERTER_12
100
AcDbText
  0
ENDBLK
  5
165
330
163
100
AcDbEntity
  8
0
100
AcDbBlockEnd
  0
BLOCK
  5
181
330
180
100
AcDbEntity
  8
0
100
AcDbBlockBegin
  2
*D10
 70
     1
 10
0.0
 20
0.0
 30
0.0
  3
*D10
  1

  0
LINE
  5
18C
330
180
100
AcDbEntity
  8
1
  6
Continuous
 62
     3
100
AcDbLine
 10
1577.263858929329
 20
-2028.857992043096
 30
0.0
 11
1697.264195034162
 21
-2028.857992043096
 31
0.0
  0
LINE
  5
18D
330
180
100
AcDbEntity
  8
1
  6
Continuous
 62
     3
100
AcDbLine
 10
1697.264195034162
 20
-2087.0435651273
 30
0.0
 11
1697.264195034162
 21
-2017.747088489837
 31
0.0
  0
LINE
  5
18E
330
180
100
AcDbEntity
  8
1
  6
Continuous
 62
     3
100
AcDbLine
 10
1577.263858929329
 20
-2123.904093218824
 30
0.0
 11
1577.263858929329
 21
-2017.747088489837
 31
0.0
  0
SOLID
  5
18F
330
180
100
AcDbEntity
  8
1
 62
     3
100
AcDbTrace
 10
1591.152488370904
 20
-2027.029519289047
 30
0.0
 11
1591.152488370904
 21
-2030.686464797146
 31
0.0
 12
1577.263858929329
 22
-2028.857992043096
 32
0.0
 13
1577.263858929329
 23
-2028.857992043096
 33
0.0
  0
SOLID
  5
190
330
180
100
AcDbEntity
  8
1
 62
     3
100
AcDbTrace
 10
1683.375565592587
 20
-2030.686464797146
 30
0.0
 11
1683.375565592587
 21
-2027.029519289047
 31
0.0
 12
1697.264195034162
 22
-2028.857992043096
 32
0.0
 13
1697.264195034162
 23
-2028.857992043096
 33
0.0
  0
TEXT
  5
191
330
180
100
AcDbEntity
  8
1
 62
     3
100
AcDbText
 10
1621.696020108713
 20
-2017.747088489837
 30
0.0
 40
13.88862944157506
  1
120
 50
0.0001388888888889
 41
0.9
  7
CONVERTER_12
100
AcDbText
  0
ENDBLK
  5
182
330
180
100
AcDbEntity
  8
0
100
AcDbBlockEnd
  0
BLOCK
  5
19E
330
19D
100
AcDbEntity
  8
0
100
AcDbBlockBegin
  2
*D12
 70
     1
 10
0.0
 20
0.0
 30
0.0
  3
*D12
  1

  0
LINE
  5
1A9
330
19D
100
AcDbEntity
  8
1
  6
Continuous
 62
     3
100
AcDbLine
 10
1697.264195034163
 20
-2029.031599911117
 30
0.0
 11
2125.771645832479
 21
-2029.031599911117
 31
0.0
  0
LINE
  5
1AA
330
19D
100
AcDbEntity
  8
1
  6
Continuous
 62
     3
100
AcDbLine
 10
2125.771645832479
 20
-2087.0435651273
 30
0.0
 11
2125.771645832479
 21
-2017.920696357857
 31
0.0
  0
LINE
  5
1AB
330
19D
100
AcDbEntity
  8
1
  6
Continuous
 62
     3
100
AcDbLine
 10
1697.264195034163
 20
-2087.0435651273
 30
0.0
 11
1697.264195034163
 21
-2017.920696357857
 31
0.0
  0
SOLID
  5
1AC
330
19D
100
AcDbEntity
  8
1
 62
     3
100
AcDbTrace
 10
1711.152824475738
 20
-2027.203127157068
 30
0.0
 11
1711.152824475738
 21
-2030.860072665166
 31
0.0
 12
1697.264195034163
 22
-2029.031599911117
 32
0.0
 13
1697.264195034163
 23
-2029.031599911117
 33
0.0
  0
SOLID
  5
1AD
330
19D
100
AcDbEntity
  8
1
 62
     3
100
AcDbTrace
 10
2111.883016390904
 20
-2030.860072665166
 30
0.0
 11
2111.883016390904
 21
-2027.203127157068
 31
0.0
 12
2125.771645832479
 22
-2029.031599911117
 32
0.0
 13
2125.771645832479
 23
-2029.031599911117
 33
0.0
  0
TEXT
  5
1AE
330
19D
100
AcDbEntity
  8
1
 62
     3
100
AcDbText
 10
1870.247858047681
 20
-2017.573480621818
 30
0.0
 40
13.88862944157506
  1
\C3;428.5\C7;\H9.99981;±0.2
 50
0.0001388888888889
 41
0.9
  7
CONVERTER_12
100
AcDbText
  0
ENDBLK
  5
19F
330
19D
100
AcDbEntity
  8
0
100
AcDbBlockEnd
  0
BLOCK
  5
1BB
330
1BA
100
AcDbEntity
  8
0
100
AcDbBlockBegin
  2
*D14
 70
     1
 10
0.0
 20
0.0
 30
0.0
  3
*D14
  1

  0
LINE
  5
1C6
330
1BA
100
AcDbEntity
  8
1
  6
Continuous
 62
     3
100
AcDbLine
 10
1577.263858929329
 20
-2197.312380093215
 30
0.0
 11
1707.262924919
 21
-2197.312380093215
 31
0.0
  0
LINE
  5
1C7
330
1BA
100
AcDbEntity
  8
1
  6
Continuous
 62
     3
100
AcDbLine
 10
1707.262924919
 20
-2152.765120745463
 30
0.0
 11
1707.262924919
 21
-2208.423283646475
 31
0.0
  0
LINE
  5
1C8
330
1BA
100
AcDbEntity
  8
1
  6
Continuous
 62
     3
100
AcDbLine
 10
1577.263858929329
 20
-2123.904093218824
 30
0.0
 11
1577.263858929329
 21
-2208.423283646475
 31
0.0
  0
SOLID
  5
1C9
330
1BA
100
AcDbEntity
  8
1
 62
     3
100
AcDbTrace
 10
1591.152488370904
 20
-2195.483907339166
 30
0.0
 11
1591.152488370904
 21
-2199.140852847264
 31
0.0
 12
1577.263858929329
 22
-2197.312380093215
 32
0.0
 13
1577.263858929329
 23
-2197.312380093215
 33
0.0
  0
SOLID
  5
1CA
330
1BA
100
AcDbEntity
  8
1
 62
     3
100
AcDbTrace
 10
1693.374295477425
 20
-2199.140852847264
 30
0.0
 11
1693.374295477425
 21
-2195.483907339166
 31
0.0
 12
1707.262924919
 22
-2197.312380093215
 32
0.0
 13
1707.262924919
 23
-2197.312380093215
 33
0.0
  0
TEXT
  5
1CB
330
1BA
100
AcDbEntity
  8
1
 62
     3
100
AcDbText
 10
1624.052827754111
 20
-2186.201476539956
 30
0.0
 40
13.88862944157506
  1
130
 50
0.0001388888888889
 41
0.9
  7
CONVERTER_12
100
AcDbText
  0
ENDBLK
  5
1BC
330
1BA
100
AcDbEntity
  8
0
100
AcDbBlockEnd
  0
BLOCK
  5
1D8
330
1D7
100
AcDbEntity
  8
0
100
AcDbBlockBegin
  2
*D16
 70
     1
 10
0.0
 20
0.0
 30
0.0
  3
*D16
  1

  0
LINE
  5
1E3
330
1D7
100
AcDbEntity
  8
1
  6
Continuous
 62
     3
100
AcDbLine
 10
1707.262924919
 20
-2197.256222724499
 30
0.0
 11
1842.263386368713
 21
-2197.256222724499
 31
0.0
  0
LINE
  5
1E4
330
1D7
100
AcDbEntity
  8
1
  6
Continuous
 62
     3
100
AcDbLine
 10
1842.263386368713
 20
-2196.765221021368
 30
0.0
 11
1842.263386368713
 21
-2208.367126277759
 31
0.0
  0
LINE
  5
1E5
330
1D7
100
AcDbEntity
  8
1
  6
Continuous
 62
     3
100
AcDbLine
 10
1707.262924919
 20
-2152.765120745463
 30
0.0
 11
1707.262924919
 21
-2208.367126277759
 31
0.0
  0
SOLID
  5
1E6
330
1D7
100
AcDbEntity
  8
1
 62
     3
100
AcDbTrace
 10
1721.151554360575
 20
-2195.42774997045
 30
0.0
 11
1721.151554360575
 21
-2199.084695478549
 31
0.0
 12
1707.262924919
 22
-2197.256222724499
 32
0.0
 13
1707.262924919
 23
-2197.256222724499
 33
0.0
  0
SOLID
  5
1E7
330
1D7
100
AcDbEntity
  8
1
 62
     3
100
AcDbTrace
 10
1828.374756927139
 20
-2199.084695478549
 30
0.0
 11
1828.374756927139
 21
-2195.42774997045
 31
0.0
 12
1842.263386368713
 22
-2197.256222724499
 32
0.0
 13
1842.263386368713
 23
-2197.256222724499
 33
0.0
  0
TEXT
  5
1E8
330
1D7
100
AcDbEntity
  8
1
 62
     3
100
AcDbText
 10
1747.386544471963
 20
-2186.14531917124
 30
0.0
 40
13.88862944157506
  1
\C3;135\C7;\H9.99981;±0.2
 50
0.0001388888888889
 41
0.9
  7
CONVERTER_12
100
AcDbText
  0
ENDBLK
  5
1D9
330
1D7
100
AcDbEntity
  8
0
100
AcDbBlockEnd
  0
BLOCK
  5
1F5
330
1F4
100
AcDbEntity
  8
0
100
AcDbBlockBegin
  2
*D18
 70
     1
 10
0.0
 20
0.0
 30
0.0
  3
*D18
  1

  0
LINE
  5
200
330
1F4
100
AcDbEntity
  8
1
  6
Continuous
 62
     3
100
AcDbLine
 10
2612.591162884557
 20
-2027.389339523919
 30
0.0
 11
2732.58946569404
 21
-2027.389339523919
 31
0.0
  0
LINE
  5
201
330
1F4
100
AcDbEntity
  8
1
  6
Continuous
 62
     3
100
AcDbLine
 10
2732.58946569404
 20
-2123.904093218824
 30
0.0
 11
2732.58946569404
 21
-2016.27843597066
 31
0.0
  0
LINE
  5
202
330
1F4
100
AcDbEntity
  8
1
  6
Continuous
 62
     3
100
AcDbLine
 10
2612.591162884557
 20
-2087.0435651273
 30
0.0
 11
2612.591162884557
 21
-2016.27843597066
 31
0.0
  0
SOLID
  5
203
330
1F4
100
AcDbEntity
  8
1
 62
     3
100
AcDbTrace
 10
2718.700836252465
 20
-2029.217812277969
 30
0.0
 11
2718.700836252465
 21
-2025.56086676987
 31
0.0
 12
2732.58946569404
 22
-2027.389339523919
 32
0.0
 13
2732.58946569404
 23
-2027.389339523919
 33
0.0
  0
SOLID
  5
204
330
1F4
100
AcDbEntity
  8
1
 62
     3
100
AcDbTrace
 10
2626.479792326133
 20
-2025.56086676987
 30
0.0
 11
2626.479792326133
 21
-2029.217812277969
 31
0.0
 12
2612.591162884557
 22
-2027.389339523919
 32
0.0
 13
2612.591162884557
 23
-2027.389339523919
 33
0.0
  0
TEXT
  5
205
330
1F4
100
AcDbEntity
  8
1
 62
     3
100
AcDbText
 10
2652.720583992071
 20
-2016.27843597066
 30
0.0
 40
13.88862944157506
  1
120
 50
0.0001388888888889
 41
0.9
  7
CONVERTER_12
100
AcDbText
  0
ENDBLK
  5
1F6
330
1F4
100
AcDbEntity
  8
0
100
AcDbBlockEnd
  0
BLOCK
  5
212
330
211
100
AcDbEntity
  8
0
100
AcDbBlockBegin
  2
*D20
 70
     1
 10
0.0
 20
0.0
 30
0.0
  3
*D20
  1

  0
LINE
  5
21D
330
211
100
AcDbEntity
  8
1
  6
Continuous
 62
     3
100
AcDbLine
 10
2184.080834362222
 20
-2027.562947391939
 30
0.0
 11
2612.591162884559
 21
-2027.562947391939
 31
0.0
  0
LINE
  5
21E
330
211
100
AcDbEntity
  8
1
  6
Continuous
 62
     3
100
AcDbLine
 10
2612.591162884559
 20
-2087.0435651273
 30
0.0
 11
2612.591162884559
 21
-2016.452043838679
 31
0.0
  0
LINE
  5
21F
330
211
100
AcDbEntity
  8
1
  6
Continuous
 62
     3
100
AcDbLine
 10
2184.080834362222
 20
-2087.0435651273
 30
0.0
 11
2184.080834362222
 21
-2016.452043838679
 31
0.0
  0
SOLID
  5
220
330
211
100
AcDbEntity
  8
1
 62
     3
100
AcDbTrace
 10
2598.702533442983
 20
-2029.391420145989
 30
0.0
 11
2598.702533442983
 21
-2025.73447463789
 31
0.0
 12
2612.591162884559
 22
-2027.562947391939
 32
0.0
 13
2612.591162884559
 23
-2027.562947391939
 33
0.0
  0
SOLID
  5
221
330
211
100
AcDbEntity
  8
1
 62
     3
100
AcDbTrace
 10
2197.969463803797
 20
-2025.73447463789
 30
0.0
 11
2197.969463803797
 21
-2029.391420145989
 31
0.0
 12
2184.080834362222
 22
-2027.562947391939
 32
0.0
 13
2184.080834362222
 23
-2027.562947391939
 33
0.0
  0
TEXT
  5
222
330
211
100
AcDbEntity
  8
1
 62
     3
100
AcDbText
 10
2357.06593623775
 20
-2016.10482810264
 30
0.0
 40
13.88862944157506
  1
\C3;428.5\C7;\H9.99981;±0.2
 50
0.0001388888888889
 41
0.9
  7
CONVERTER_12
100
AcDbText
  0
ENDBLK
  5
213
330
211
100
AcDbEntity
  8
0
100
AcDbBlockEnd
  0
BLOCK
  5
22F
330
22E
100
AcDbEntity
  8
0
100
AcDbBlockBegin
  2
*D22
 70
     1
 10
0.0
 20
0.0
 30
0.0
  3
*D22
  1

  0
LINE
  5
23A
330
22E
100
AcDbEntity
  8
1
  6
Continuous
 62
     3
100
AcDbLine
 10
2602.591083024939
 20
-2196.4051232032
 30
0.0
 11
2732.589465694041
 21
-2196.4051232032
 31
0.0
  0
LINE
  5
23B
330
22E
100
AcDbEntity
  8
1
  6
Continuous
 62
     3
100
AcDbLine
 10
2732.589465694041
 20
-2123.904093218825
 30
0.0
 11
2732.589465694041
 21
-2207.516026756461
 31
0.0
  0
LINE
  5
23C
330
22E
100
AcDbEntity
  8
1
  6
Continuous
 62
     3
100
AcDbLine
 10
2602.591083024939
 20
-2196.764126597368
 30
0.0
 11
2602.591083024939
 21
-2185.294219649941
 31
0.0
  0
SOLID
  5
23D
330
22E
100
AcDbEntity
  8
1
 62
     3
100
AcDbTrace
 10
2718.700836252466
 20
-2198.23359595725
 30
0.0
 11
2718.700836252466
 21
-2194.576650449151
 31
0.0
 12
2732.589465694041
 22
-2196.4051232032
 32
0.0
 13
2732.589465694041
 23
-2196.4051232032
 33
0.0
  0
SOLID
  5
23E
330
22E
100
AcDbEntity
  8
1
 62
     3
100
AcDbTrace
 10
2616.479712466514
 20
-2194.576650449151
 30
0.0
 11
2616.479712466514
 21
-2198.23359595725
 31
0.0
 12
2602.591083024939
 22
-2196.4051232032
 32
0.0
 13
2602.591083024939
 23
-2196.4051232032
 33
0.0
  0
TEXT
  5
23F
330
22E
100
AcDbEntity
  8
1
 62
     3
100
AcDbText
 10
2648.844075192088
 20
-2185.294219649941
 30
0.0
 40
13.88862944157506
  1
130
 50
0.0001388888888889
 41
0.9
  7
CONVERTER_12
100
AcDbText
  0
ENDBLK
  5
230
330
22E
100
AcDbEntity
  8
0
100
AcDbBlockEnd
  0
BLOCK
  5
24C
330
24B
100
AcDbEntity
  8
0
100
AcDbBlockBegin
  2
*D24
 70
     1
 10
0.0
 20
0.0
 30
0.0
  3
*D24
  1

  0
LINE
  5
257
330
24B
100
AcDbEntity
  8
1
  6
Continuous
 62
     3
100
AcDbLine
 10
2467.590616019774
 20
-2196.4051232032
 30
0.0
 11
2602.591083024939
 21
-2196.4051232032
 31
0.0
  0
LINE
  5
258
330
24B
100
AcDbEntity
  8
1
  6
Continuous
 62
     3
100
AcDbLine
 10
2602.591083024939
 20
-2196.764126597368
 30
0.0
 11
2602.591083024939
 21
-2185.294219649941
 31
0.0
  0
LINE
  5
259
330
24B
100
AcDbEntity
  8
1
  6
Continuous
 62
     3
100
AcDbLine
 10
2467.590616019774
 20
-2196.765221021368
 30
0.0
 11
2467.590616019774
 21
-2185.294219649941
 31
0.0
  0
SOLID
  5
25A
330
24B
100
AcDbEntity
  8
1
 62
     3
100
AcDbTrace
 10
2588.702453583364
 20
-2198.23359595725
 30
0.0
 11
2588.702453583364
 21
-2194.576650449151
 31
0.0
 12
2602.591083024939
 22
-2196.4051232032
 32
0.0
 13
2602.591083024939
 23
-2196.4051232032
 33
0.0
  0
SOLID
  5
25B
330
24B
100
AcDbEntity
  8
1
 62
     3
100
AcDbTrace
 10
2481.47924546135
 20
-2194.576650449151
 30
0.0
 11
2481.47924546135
 21
-2198.23359595725
 31
0.0
 12
2467.590616019774
 22
-2196.4051232032
 32
0.0
 13
2467.590616019774
 23
-2196.4051232032
 33
0.0
  0
TEXT
  5
25C
330
24B
100
AcDbEntity
  8
1
 62
     3
100
AcDbText
 10
2504.410867085917
 20
-2185.294219649941
 30
0.0
 40
13.88862944157506
  1
\C3;135\C7;\H9.99981;±0.2
 50
0.0001388888888889
 41
0.9
  7
CONVERTER_12
100
AcDbText
  0
ENDBLK
  5
24D
330
24B
100
AcDbEntity
  8
0
100
AcDbBlockEnd
  0
BLOCK
  5
269
330
268
100
AcDbEntity
  8
0
100
AcDbBlockBegin
  2
*D26
 70
     1
 10
0.0
 20
0.0
 30
0.0
  3
*D26
  1

  0
LINE
  5
274
330
268
100
AcDbEntity
  8
1
  6
Continuous
 62
     3
100
AcDbLine
 10
1568.763856602984
 20
-2443.230929192259
 30
0.0
 11
1688.764192707817
 21
-2443.230929192259
 31
0.0
  0
LINE
  5
275
330
268
100
AcDbEntity
  8
1
  6
Continuous
 62
     3
100
AcDbLine
 10
1688.764192707817
 20
-2502.717755658048
 30
0.0
 11
1688.764192707817
 21
-2432.120025638999
 31
0.0
  0
LINE
  5
276
330
268
100
AcDbEntity
  8
1
  6
Continuous
 62
     3
100
AcDbLine
 10
1568.763856602984
 20
-2539.578972625592
 30
0.0
 11
1568.763856602984
 21
-2432.120025638999
 31
0.0
  0
SOLID
  5
277
330
268
100
AcDbEntity
  8
1
 62
     3
100
AcDbTrace
 10
1582.652486044559
 20
-2441.402456438209
 30
0.0
 11
1582.652486044559
 21
-2445.059401946308
 31
0.0
 12
1568.763856602984
 22
-2443.230929192259
 32
0.0
 13
1568.763856602984
 23
-2443.230929192259
 33
0.0
  0
SOLID
  5
278
330
268
100
AcDbEntity
  8
1
 62
     3
100
AcDbTrace
 10
1674.875563266242
 20
-2445.059401946308
 30
0.0
 11
1674.875563266242
 21
-2441.402456438209
 31
0.0
 12
1688.764192707817
 22
-2443.230929192259
 32
0.0
 13
1688.764192707817
 23
-2443.230929192259
 33
0.0
  0
TEXT
  5
279
330
268
100
AcDbEntity
  8
1
 62
     3
100
AcDbText
 10
1616.576523311595
 20
-2432.120025638999
 30
0.0
 40
13.88862944157506
  1
120
 50
0.0001388888888889
 41
0.9
  7
CONVERTER_12
100
AcDbText
  0
ENDBLK
  5
26A
330
268
100
AcDbEntity
  8
0
100
AcDbBlockEnd
  0
BLOCK
  5
286
330
285
100
AcDbEntity
  8
0
100
AcDbBlockBegin
  2
*D28
 70
     1
 10
0.0
 20
0.0
 30
0.0
  3
*D28
  1

  0
LINE
  5
291
330
285
100
AcDbEntity
  8
1
  6
Continuous
 62
     3
100
AcDbLine
 10
1688.764192707817
 20
-2443.404537060278
 30
0.0
 11
2117.274354566601
 21
-2443.404537060278
 31
0.0
  0
LINE
  5
292
330
285
100
AcDbEntity
  8
1
  6
Continuous
 62
     3
100
AcDbLine
 10
2117.274354566601
 20
-2502.717755658048
 30
0.0
 11
2117.274354566601
 21
-2432.293633507018
 31
0.0
  0
LINE
  5
293
330
285
100
AcDbEntity
  8
1
  6
Continuous
 62
     3
100
AcDbLine
 10
1688.764192707817
 20
-2502.717755658048
 30
0.0
 11
1688.764192707817
 21
-2432.293633507018
 31
0.0
  0
SOLID
  5
294
330
285
100
AcDbEntity
  8
1
 62
     3
100
AcDbTrace
 10
1702.652822149392
 20
-2441.576064306229
 30
0.0
 11
1702.652822149392
 21
-2445.233009814327
 31
0.0
 12
1688.764192707817
 22
-2443.404537060278
 32
0.0
 13
1688.764192707817
 23
-2443.404537060278
 33
0.0
  0
SOLID
  5
295
330
285
100
AcDbEntity
  8
1
 62
     3
100
AcDbTrace
 10
2103.385725125025
 20
-2445.233009814327
 30
0.0
 11
2103.385725125025
 21
-2441.576064306229
 31
0.0
 12
2117.274354566601
 22
-2443.404537060278
 32
0.0
 13
2117.274354566601
 23
-2443.404537060278
 33
0.0
  0
TEXT
  5
296
330
285
100
AcDbEntity
  8
1
 62
     3
100
AcDbText
 10
1861.749211251568
 20
-2431.946417770979
 30
0.0
 40
13.88862944157506
  1
\C3;428.5\C7;\H9.99981;±0.2
 50
0.0001388888888889
 41
0.9
  7
CONVERTER_12
100
AcDbText
  0
ENDBLK
  5
287
330
285
100
AcDbEntity
  8
0
100
AcDbBlockEnd
  0
BLOCK
  5
2A3
330
2A2
100
AcDbEntity
  8
0
100
AcDbBlockBegin
  2
*D30
 70
     1
 10
0.0
 20
0.0
 30
0.0
  3
*D30
  1

  0
LINE
  5
2AE
330
2A2
100
AcDbEntity
  8
1
  6
Continuous
 62
     3
100
AcDbLine
 10
1568.763856602984
 20
-2634.243903138449
 30
0.0
 11
1710.763565080653
 21
-2634.243903138449
 31
0.0
  0
LINE
  5
2AF
330
2A2
100
AcDbEntity
  8
1
  6
Continuous
 62
     3
100
AcDbLine
 10
1710.763565080653
 20
-2611.437780263143
 30
0.0
 11
1710.763565080653
 21
-2645.354806691708
 31
0.0
  0
LINE
  5
2B0
330
2A2
100
AcDbEntity
  8
1
  6
Continuous
 62
     3
100
AcDbLine
 10
1568.763856602984
 20
-2539.578972625592
 30
0.0
 11
1568.763856602984
 21
-2645.354806691708
 31
0.0
  0
SOLID
  5
2B1
330
2A2
100
AcDbEntity
  8
1
 62
     3
100
AcDbTrace
 10
1582.652486044559
 20
-2632.4154303844
 30
0.0
 11
1582.652486044559
 21
-2636.072375892497
 31
0.0
 12
1568.763856602984
 22
-2634.243903138449
 32
0.0
 13
1568.763856602984
 23
-2634.243903138449
 33
0.0
  0
SOLID
  5
2B2
330
2A2
100
AcDbEntity
  8
1
 62
     3
100
AcDbTrace
 10
1696.874935639078
 20
-2636.072375892497
 30
0.0
 11
1696.874935639078
 21
-2632.4154303844
 31
0.0
 12
1710.763565080653
 22
-2634.243903138449
 32
0.0
 13
1710.763565080653
 23
-2634.243903138449
 33
0.0
  0
TEXT
  5
2B3
330
2A2
100
AcDbEntity
  8
1
 62
     3
100
AcDbText
 10
1614.830268294001
 20
-2623.132999585188
 30
0.0
 40
13.88862944157506
  1
\C3;142\C7;\H9.99981;±1
 50
0.0001388888888889
 41
0.9
  7
CONVERTER_12
100
AcDbText
  0
ENDBLK
  5
2A4
330
2A2
100
AcDbEntity
  8
0
100
AcDbBlockEnd
  0
BLOCK
  5
2C0
330
2BF
100
AcDbEntity
  8
0
100
AcDbBlockBegin
  2
*D32
 70
     1
 10
0.0
 20
0.0
 30
0.0
  3
*D32
  1

  0
LINE
  5
2CB
330
2BF
100
AcDbEntity
  8
1
  6
Continuous
 62
     3
100
AcDbLine
 10
1710.763565080652
 20
-2634.243903138449
 30
0.0
 11
1870.763387306196
 21
-2634.243903138449
 31
0.0
  0
LINE
  5
2CC
330
2BF
100
AcDbEntity
  8
1
  6
Continuous
 62
     3
100
AcDbLine
 10
1870.763387306196
 20
-2611.437780263143
 30
0.0
 11
1870.763387306196
 21
-2645.354806691708
 31
0.0
  0
LINE
  5
2CD
330
2BF
100
AcDbEntity
  8
1
  6
Continuous
 62
     3
100
AcDbLine
 10
1710.763565080652
 20
-2611.437780263143
 30
0.0
 11
1710.763565080652
 21
-2645.354806691708
 31
0.0
  0
SOLID
  5
2CE
330
2BF
100
AcDbEntity
  8
1
 62
     3
100
AcDbTrace
 10
1724.652194522227
 20
-2632.4154303844
 30
0.0
 11
1724.652194522227
 21
-2636.072375892497
 31
0.0
 12
1710.763565080652
 22
-2634.243903138449
 32
0.0
 13
1710.763565080652
 23
-2634.243903138449
 33
0.0
  0
SOLID
  5
2CF
330
2BF
100
AcDbEntity
  8
1
 62
     3
100
AcDbTrace
 10
1856.874757864621
 20
-2636.072375892497
 30
0.0
 11
1856.874757864621
 21
-2632.4154303844
 31
0.0
 12
1870.763387306196
 22
-2634.243903138449
 32
0.0
 13
1870.763387306196
 23
-2634.243903138449
 33
0.0
  0
TEXT
  5
2D0
330
2BF
100
AcDbEntity
  8
1
 62
     3
100
AcDbText
 10
1760.083493756986
 20
-2623.132999585188
 30
0.0
 40
13.88862944157506
  1
\C3;160\C7;\H9.99981;±0.2
 50
0.0001388888888889
 41
0.9
  7
CONVERTER_12
100
AcDbText
  0
ENDBLK
  5
2C1
330
2BF
100
AcDbEntity
  8
0
100
AcDbBlockEnd
  0
BLOCK
  5
2DD
330
2DC
100
AcDbEntity
  8
0
100
AcDbBlockBegin
  2
*D34
 70
     1
 10
0.0
 20
0.0
 30
0.0
  3
*D34
  1

  0
LINE
  5
2E8
330
2DC
100
AcDbEntity
  8
1
  6
Continuous
 62
     3
100
AcDbLine
 10
2611.761100612805
 20
-2442.670445113778
 30
0.0
 11
2731.760758952522
 21
-2442.670445113778
 31
0.0
  0
LINE
  5
2E9
330
2DC
100
AcDbEntity
  8
1
  6
Continuous
 62
     3
100
AcDbLine
 10
2731.760758952522
 20
-2539.578972625592
 30
0.0
 11
2731.760758952522
 21
-2431.559541560519
 31
0.0
  0
LINE
  5
2EA
330
2DC
100
AcDbEntity
  8
1
  6
Continuous
 62
     3
100
AcDbLine
 10
2611.761100612805
 20
-2502.717755658047
 30
0.0
 11
2611.761100612805
 21
-2431.559541560519
 31
0.0
  0
SOLID
  5
2EB
330
2DC
100
AcDbEntity
  8
1
 62
     3
100
AcDbTrace
 10
2717.872129510946
 20
-2444.498917867827
 30
0.0
 11
2717.872129510946
 21
-2440.841972359729
 31
0.0
 12
2731.760758952522
 22
-2442.670445113778
 32
0.0
 13
2731.760758952522
 23
-2442.670445113778
 33
0.0
  0
SOLID
  5
2EC
330
2DC
100
AcDbEntity
  8
1
 62
     3
100
AcDbTrace
 10
2625.649730054381
 20
-2440.841972359729
 30
0.0
 11
2625.649730054381
 21
-2444.498917867827
 31
0.0
 12
2611.761100612805
 22
-2442.670445113778
 32
0.0
 13
2611.761100612805
 23
-2442.670445113778
 33
0.0
  0
TEXT
  5
2ED
330
2DC
100
AcDbEntity
  8
1
 62
     3
100
AcDbText
 10
2652.803027505977
 20
-2431.559541560519
 30
0.0
 40
13.88862944157506
  1
120
 50
0.0001388888888889
 41
0.9
  7
CONVERTER_12
100
AcDbText
  0
ENDBLK
  5
2DE
330
2DC
100
AcDbEntity
  8
0
100
AcDbBlockEnd
  0
BLOCK
  5
2FA
330
2F9
100
AcDbEntity
  8
0
100
AcDbBlockBegin
  2
*D36
 70
     1
 10
0.0
 20
0.0
 30
0.0
  3
*D36
  1

  0
LINE
  5
305
330
2F9
100
AcDbEntity
  8
1
  6
Continuous
 62
     3
100
AcDbLine
 10
2183.250772090468
 20
-2442.844052981798
 30
0.0
 11
2611.761100612805
 21
-2442.844052981798
 31
0.0
  0
LINE
  5
306
330
2F9
100
AcDbEntity
  8
1
  6
Continuous
 62
     3
100
AcDbLine
 10
2611.761100612805
 20
-2502.717755658047
 30
0.0
 11
2611.761100612805
 21
-2431.733149428538
 31
0.0
  0
LINE
  5
307
330
2F9
100
AcDbEntity
  8
1
  6
Continuous
 62
     3
100
AcDbLine
 10
2183.250772090468
 20
-2502.717755658047
 30
0.0
 11
2183.250772090468
 21
-2431.733149428538
 31
0.0
  0
SOLID
  5
308
330
2F9
100
AcDbEntity
  8
1
 62
     3
100
AcDbTrace
 10
2597.872471171229
 20
-2444.672525735847
 30
0.0
 11
2597.872471171229
 21
-2441.015580227749
 31
0.0
 12
2611.761100612805
 22
-2442.844052981798
 32
0.0
 13
2611.761100612805
 23
-2442.844052981798
 33
0.0
  0
SOLID
  5
309
330
2F9
100
AcDbEntity
  8
1
 62
     3
100
AcDbTrace
 10
2197.139401532043
 20
-2441.015580227749
 30
0.0
 11
2197.139401532043
 21
-2444.672525735847
 31
0.0
 12
2183.250772090468
 22
-2442.844052981798
 32
0.0
 13
2183.250772090468
 23
-2442.844052981798
 33
0.0
  0
TEXT
  5
30A
330
2F9
100
AcDbEntity
  8
1
 62
     3
100
AcDbText
 10
2356.235873965996
 20
-2431.385933692499
 30
0.0
 40
13.88862944157506
  1
\C3;428.5\C7;\H9.99981;±0.2
 50
0.0001388888888889
 41
0.9
  7
CONVERTER_12
100
AcDbText
  0
ENDBLK
  5
2FB
330
2F9
100
AcDbEntity
  8
0
100
AcDbBlockEnd
  0
BLOCK
  5
317
330
316
100
AcDbEntity
  8
0
100
AcDbBlockBegin
  2
*D38
 70
     1
 10
0.0
 20
0.0
 30
0.0
  3
*D38
  1

  0
LINE
  5
322
330
316
100
AcDbEntity
  8
1
  6
Continuous
 62
     3
100
AcDbLine
 10
2589.761728239969
 20
-2634.120006657943
 30
0.0
 11
2731.760758952521
 21
-2634.120006657943
 31
0.0
  0
LINE
  5
323
330
316
100
AcDbEntity
  8
1
  6
Continuous
 62
     3
100
AcDbLine
 10
2731.760758952521
 20
-2539.578972625592
 30
0.0
 11
2731.760758952521
 21
-2645.230910211203
 31
0.0
  0
LINE
  5
324
330
316
100
AcDbEntity
  8
1
  6
Continuous
 62
     3
100
AcDbLine
 10
2589.761728239969
 20
-2611.437780263143
 30
0.0
 11
2589.761728239969
 21
-2645.230910211203
 31
0.0
  0
SOLID
  5
325
330
316
100
AcDbEntity
  8
1
 62
     3
100
AcDbTrace
 10
2717.872129510946
 20
-2635.948479411992
 30
0.0
 11
2717.872129510946
 21
-2632.291533903894
 31
0.0
 12
2731.760758952521
 22
-2634.120006657943
 32
0.0
 13
2731.760758952521
 23
-2634.120006657943
 33
0.0
  0
SOLID
  5
326
330
316
100
AcDbEntity
  8
1
 62
     3
100
AcDbTrace
 10
2603.650357681544
 20
-2632.291533903894
 30
0.0
 11
2603.650357681544
 21
-2635.948479411992
 31
0.0
 12
2589.761728239969
 22
-2634.120006657943
 32
0.0
 13
2589.761728239969
 23
-2634.120006657943
 33
0.0
  0
TEXT
  5
327
330
316
100
AcDbEntity
  8
1
 62
     3
100
AcDbText
 10
2637.841147901049
 20
-2623.009103104683
 30
0.0
 40
13.88862944157506
  1
\C3;142\C7;\H9.99981;±1
 50
0.0001388888888889
 41
0.9
  7
CONVERTER_12
100
AcDbText
  0
ENDBLK
  5
318
330
316
100
AcDbEntity
  8
0
100
AcDbBlockEnd
  0
BLOCK
  5
334
330
333
100
AcDbEntity
  8
0
100
AcDbBlockBegin
  2
*D40
 70
     1
 10
0.0
 20
0.0
 30
0.0
  3
*D40
  1

  0
LINE
  5
33F
330
333
100
AcDbEntity
  8
1
  6
Continuous
 62
     3
100
AcDbLine
 10
2429.76173379542
 20
-2634.120006657943
 30
0.0
 11
2589.761728239968
 21
-2634.120006657943
 31
0.0
  0
LINE
  5
340
330
333
100
AcDbEntity
  8
1
  6
Continuous
 62
     3
100
AcDbLine
 10
2589.761728239968
 20
-2611.437780263143
 30
0.0
 11
2589.761728239968
 21
-2645.230910211203
 31
0.0
  0
LINE
  5
341
330
333
100
AcDbEntity
  8
1
  6
Continuous
 62
     3
100
AcDbLine
 10
2429.76173379542
 20
-2611.437780263143
 30
0.0
 11
2429.76173379542
 21
-2645.230910211203
 31
0.0
  0
SOLID
  5
342
330
333
100
AcDbEntity
  8
1
 62
     3
100
AcDbTrace
 10
2575.873098798393
 20
-2635.948479411992
 30
0.0
 11
2575.873098798393
 21
-2632.291533903894
 31
0.0
 12
2589.761728239968
 22
-2634.120006657943
 32
0.0
 13
2589.761728239968
 23
-2634.120006657943
 33
0.0
  0
SOLID
  5
343
330
333
100
AcDbEntity
  8
1
 62
     3
100
AcDbTrace
 10
2443.650363236995
 20
-2632.291533903894
 30
0.0
 11
2443.650363236995
 21
-2635.948479411992
 31
0.0
 12
2429.76173379542
 22
-2634.120006657943
 32
0.0
 13
2429.76173379542
 23
-2634.120006657943
 33
0.0
  0
TEXT
  5
344
330
333
100
AcDbEntity
  8
1
 62
     3
100
AcDbText
 10
2479.081748581255
 20
-2623.009103104683
 30
0.0
 40
13.88862944157506
  1
\C3;160\C7;\H9.99981;±0.2
 50
0.0001388888888889
 41
0.9
  7
CONVERTER_12
100
AcDbText
  0
ENDBLK
  5
335
330
333
100
AcDbEntity
  8
0
100
AcDbBlockEnd
  0
BLOCK
  5
698
330
697
100
AcDbEntity
  8
0
100
AcDbBlockBegin
  2
*D42
 70
     1
 10
0.0
 20
0.0
 30
0.0
  3
*D42
  1

  0
LINE
  5
6A3
330
697
100
AcDbEntity
  8
1
  6
Continuous
 62
     3
100
AcDbLine
 10
245.6518247061202
 20
-341.9405238572316
 30
0.0
 11
245.6518247061202
 21
-326.9405238572316
 31
0.0
  0
LINE
  5
6A4
330
697
100
AcDbEntity
  8
1
  6
Continuous
 62
     3
100
AcDbLine
 10
196.178420736948
 20
-341.9405238572316
 30
0.0
 11
247.6518247061202
 21
-341.9405238572316
 31
0.0
  0
LINE
  5
6A5
330
697
100
AcDbEntity
  8
1
  6
Continuous
 62
     3
100
AcDbLine
 10
181.400832736948
 20
-326.9405238572316
 30
0.0
 11
247.6518247061202
 21
-326.9405238572316
 31
0.0
  0
SOLID
  5
6A6
330
697
100
AcDbEntity
  8
1
 62
     3
100
AcDbTrace
 10
246.1126084476761
 20
-330.4405238572316
 30
0.0
 11
245.1910409645643
 21
-330.4405238572316
 31
0.0
 12
245.6518247061202
 22
-326.9405238572316
 32
0.0
 13
245.6518247061202
 23
-326.9405238572316
 33
0.0
  0
SOLID
  5
6A7
330
697
100
AcDbEntity
  8
1
 62
     3
100
AcDbTrace
 10
245.1910409645643
 20
-338.4405238572316
 30
0.0
 11
246.1126084476761
 21
-338.4405238572316
 31
0.0
 12
245.6518247061202
 22
-341.9405238572316
 32
0.0
 13
245.6518247061202
 23
-341.9405238572316
 33
0.0
  0
TEXT
  5
6A8
330
697
100
AcDbEntity
  8
1
 62
     4
100
AcDbText
 10
243.6518247061202
 20
-336.7368294201317
 30
0.0
 40
3.5
  1
15
 50
90.0
 41
0.9
  7
CONVERTER_12
100
AcDbText
  0
ENDBLK
  5
699
330
697
100
AcDbEntity
  8
0
100
AcDbBlockEnd
  0
BLOCK
  5
6B5
330
6B4
100
AcDbEntity
  8
0
100
AcDbBlockBegin
  2
*D44
 70
     1
 10
0.0
 20
0.0
 30
0.0
  3
*D44
  1

  0
LINE
  5
6C0
330
6B4
100
AcDbEntity
  8
1
  6
Continuous
 62
     3
100
AcDbLine
 10
245.6449648799433
 20
-499.9405238572316
 30
0.0
 11
245.6449648799433
 21
-457.9405238572316
 31
0.0
  0
LINE
  5
6C1
330
6B4
100
AcDbEntity
  8
1
  6
Continuous
 62
     3
100
AcDbLine
 10
197.2091805453583
 20
-499.9405238572316
 30
0.0
 11
247.6449648799433
 21
-499.9405238572316
 31
0.0
  0
LINE
  5
6C2
330
6B4
100
AcDbEntity
  8
1
  6
Continuous
 62
     3
100
AcDbLine
 10
181.400832736948
 20
-457.9405238572316
 30
0.0
 11
247.6449648799433
 21
-457.9405238572316
 31
0.0
  0
SOLID
  5
6C3
330
6B4
100
AcDbEntity
  8
1
 62
     3
100
AcDbTrace
 10
246.1057486214992
 20
-461.4405238572316
 30
0.0
 11
245.1841811383874
 21
-461.4405238572316
 31
0.0
 12
245.6449648799433
 22
-457.9405238572316
 32
0.0
 13
245.6449648799433
 23
-457.9405238572316
 33
0.0
  0
SOLID
  5
6C4
330
6B4
100
AcDbEntity
  8
1
 62
     3
100
AcDbTrace
 10
245.1841811383874
 20
-496.4405238572316
 30
0.0
 11
246.1057486214992
 21
-496.4405238572316
 31
0.0
 12
245.6449648799433
 22
-499.9405238572316
 32
0.0
 13
245.6449648799433
 23
-499.9405238572316
 33
0.0
  0
TEXT
  5
6C5
330
6B4
100
AcDbEntity
  8
1
 62
     4
100
AcDbText
 10
243.6449648799433
 20
-485.7465235617847
 30
0.0
 40
3.5
  1
\C4;42\C3;\H2.1;±0.5
 50
90.0
 41
0.9
  7
CONVERTER_12
100
AcDbText
  0
ENDBLK
  5
6B6
330
6B4
100
AcDbEntity
  8
0
100
AcDbBlockEnd
  0
BLOCK
  5
6D2
330
6D1
100
AcDbEntity
  8
0
100
AcDbBlockBegin
  2
*D46
 70
     1
 10
0.0
 20
0.0
 30
0.0
  3
*D46
  1

  0
LINE
  5
6DD
330
6D1
100
AcDbEntity
  8
1
  6
Continuous
 62
     3
100
AcDbLine
 10
141.056408954545
 20
-326.9405238572316
 30
0.0
 11
141.056408954545
 21
-293.4404628572316
 31
0.0
  0
LINE
  5
6DE
330
6D1
100
AcDbEntity
  8
1
  6
Continuous
 62
     3
100
AcDbLine
 10
150.150832736948
 20
-293.4404628572316
 30
0.0
 11
139.056408954545
 21
-293.4404628572316
 31
0.0
  0
LINE
  5
6DF
330
6D1
100
AcDbEntity
  8
1
  6
Continuous
 62
     3
100
AcDbLine
 10
175.7214199920726
 20
-326.9405238572316
 30
0.0
 11
139.056408954545
 21
-326.9405238572316
 31
0.0
  0
SOLID
  5
6E0
330
6D1
100
AcDbEntity
  8
1
 62
     3
100
AcDbTrace
 10
140.7272777105765
 20
-324.4405238572316
 30
0.0
 11
141.3855401985134
 21
-324.4405238572316
 31
0.0
 12
141.056408954545
 22
-326.9405238572316
 32
0.0
 13
141.056408954545
 23
-326.9405238572316
 33
0.0
  0
SOLID
  5
6E1
330
6D1
100
AcDbEntity
  8
1
 62
     3
100
AcDbTrace
 10
141.3855401985134
 20
-295.9404628572317
 30
0.0
 11
140.7272777105765
 21
-295.9404628572317
 31
0.0
 12
141.056408954545
 22
-293.4404628572316
 32
0.0
 13
141.056408954545
 23
-293.4404628572316
 33
0.0
  0
TEXT
  5
6E2
330
6D1
100
AcDbEntity
  8
1
 62
     3
100
AcDbText
 10
139.056408954545
 20
-311.6031184646106
 30
0.0
 40
2.5
  1
33
 50
90.0
 41
0.9
  7
CONVERTER_12
100
AcDbText
  0
ENDBLK
  5
6D3
330
6D1
100
AcDbEntity
  8
0
100
AcDbBlockEnd
  0
BLOCK
  5
6EF
330
6EE
100
AcDbEntity
  8
0
100
AcDbBlockBegin
  2
*D48
 70
     1
 10
0.0
 20
0.0
 30
0.0
  3
*D48
  1

  0
LINE
  5
6FA
330
6EE
100
AcDbEntity
  8
1
  6
Continuous
 62
     3
100
AcDbLine
 10
136.29128162878
 20
-457.9405238572315
 30
0.0
 11
136.29128162878
 21
-424.4404628572316
 31
0.0
  0
LINE
  5
6FB
330
6EE
100
AcDbEntity
  8
1
  6
Continuous
 62
     3
100
AcDbLine
 10
150.150832736948
 20
-424.4404628572316
 30
0.0
 11
134.29128162878
 21
-424.4404628572316
 31
0.0
  0
LINE
  5
6FC
330
6EE
100
AcDbEntity
  8
1
  6
Continuous
 62
     3
100
AcDbLine
 10
168.0242081503819
 20
-457.9405238572315
 30
0.0
 11
134.29128162878
 21
-457.9405238572315
 31
0.0
  0
SOLID
  5
6FD
330
6EE
100
AcDbEntity
  8
1
 62
     3
100
AcDbTrace
 10
135.9621503848115
 20
-455.4405238572315
 30
0.0
 11
136.6204128727485
 21
-455.4405238572315
 31
0.0
 12
136.29128162878
 22
-457.9405238572315
 32
0.0
 13
136.29128162878
 23
-457.9405238572315
 33
0.0
  0
SOLID
  5
6FE
330
6EE
100
AcDbEntity
  8
1
 62
     3
100
AcDbTrace
 10
136.6204128727485
 20
-426.9404628572315
 30
0.0
 11
135.9621503848115
 21
-426.9404628572315
 31
0.0
 12
136.29128162878
 22
-424.4404628572316
 32
0.0
 13
136.29128162878
 23
-424.4404628572316
 33
0.0
  0
TEXT
  5
6FF
330
6EE
100
AcDbEntity
  8
1
 62
     3
100
AcDbText
 10
134.29128162878
 20
-443.3166276099905
 30
0.0
 40
2.5
  1
33
 50
90.0
 41
0.9
  7
CONVERTER_12
100
AcDbText
  0
ENDBLK
  5
6F0
330
6EE
100
AcDbEntity
  8
0
100
AcDbBlockEnd
  0
BLOCK
  5
70C
330
70B
100
AcDbEntity
  8
0
100
AcDbBlockBegin
  2
*D50
 70
     1
 10
0.0
 20
0.0
 30
0.0
  3
*D50
  1

  0
LINE
  5
717
330
70B
100
AcDbEntity
  8
1
  6
Continuous
 62
     3
100
AcDbLine
 10
255.3810181752672
 20
-385.9405238572316
 30
0.0
 11
255.3810181752672
 21
-341.9405238572316
 31
0.0
  0
LINE
  5
718
330
70B
100
AcDbEntity
  8
1
  6
Continuous
 62
     3
100
AcDbLine
 10
196.178420736948
 20
-385.9405238572316
 30
0.0
 11
257.3810181752672
 21
-385.9405238572316
 31
0.0
  0
LINE
  5
719
330
70B
100
AcDbEntity
  8
1
  6
Continuous
 62
     3
100
AcDbLine
 10
196.178420736948
 20
-341.9405238572316
 30
0.0
 11
257.3810181752672
 21
-341.9405238572316
 31
0.0
  0
SOLID
  5
71A
330
70B
100
AcDbEntity
  8
1
 62
     3
100
AcDbTrace
 10
254.9202344337113
 20
-382.4405238572316
 30
0.0
 11
255.8418019168231
 21
-382.4405238572316
 31
0.0
 12
255.3810181752672
 22
-385.9405238572316
 32
0.0
 13
255.3810181752672
 23
-385.9405238572316
 33
0.0
  0
SOLID
  5
71B
330
70B
100
AcDbEntity
  8
1
 62
     3
100
AcDbTrace
 10
255.8418019168231
 20
-345.4405238572316
 30
0.0
 11
254.9202344337113
 21
-345.4405238572316
 31
0.0
 12
255.3810181752672
 22
-341.9405238572316
 32
0.0
 13
255.3810181752672
 23
-341.9405238572316
 33
0.0
  0
TEXT
  5
71C
330
70B
100
AcDbEntity
  8
1
 62
     4
100
AcDbText
 10
253.3810181752672
 20
-368.7277234675176
 30
0.0
 40
3.5
  1
\C4;44\C3;\H2.1;±0.1
 50
90.0
 41
0.9
  7
CONVERTER_12
100
AcDbText
  0
ENDBLK
  5
70D
330
70B
100
AcDbEntity
  8
0
100
AcDbBlockEnd
  0
BLOCK
  5
729
330
728
100
AcDbEntity
  8
0
100
AcDbBlockBegin
  2
*D52
 70
     1
 10
0.0
 20
0.0
 30
0.0
  3
*D52
  1

  0
LINE
  5
734
330
728
100
AcDbEntity
  8
1
  6
Continuous
 62
     3
100
AcDbLine
 10
255.3810181752672
 20
-341.9405238572316
 30
0.0
 11
255.3810181752672
 21
-303.9405238572316
 31
0.0
  0
LINE
  5
735
330
728
100
AcDbEntity
  8
1
  6
Continuous
 62
     3
100
AcDbLine
 10
196.178420736948
 20
-341.9405238572316
 30
0.0
 11
257.3810181752672
 21
-341.9405238572316
 31
0.0
  0
LINE
  5
736
330
728
100
AcDbEntity
  8
1
  6
Continuous
 62
     3
100
AcDbLine
 10
195.450881736948
 20
-303.9405238572316
 30
0.0
 11
257.3810181752672
 21
-303.9405238572316
 31
0.0
  0
SOLID
  5
737
330
728
100
AcDbEntity
  8
1
 62
     3
100
AcDbTrace
 10
254.9202344337113
 20
-338.4405238572316
 30
0.0
 11
255.8418019168231
 21
-338.4405238572316
 31
0.0
 12
255.3810181752672
 22
-341.9405238572316
 32
0.0
 13
255.3810181752672
 23
-341.9405238572316
 33
0.0
  0
SOLID
  5
738
330
728
100
AcDbEntity
  8
1
 62
     3
100
AcDbTrace
 10
255.8418019168231
 20
-307.4405238572316
 30
0.0
 11
254.9202344337113
 21
-307.4405238572316
 31
0.0
 12
255.3810181752672
 22
-303.9405238572316
 32
0.0
 13
255.3810181752672
 23
-303.9405238572316
 33
0.0
  0
TEXT
  5
739
330
728
100
AcDbEntity
  8
1
 62
     4
100
AcDbText
 10
253.3810181752672
 20
-327.4905238572316
 30
0.0
 40
3.5
  1
\C4;38\C3;\H2.1;±1
 50
90.0
 41
0.9
  7
CONVERTER_12
100
AcDbText
  0
ENDBLK
  5
72A
330
728
100
AcDbEntity
  8
0
100
AcDbBlockEnd
  0
BLOCK
  5
746
330
745
100
AcDbEntity
  8
0
100
AcDbBlockBegin
  2
*D54
 70
     1
 10
0.0
 20
0.0
 30
0.0
  3
*D54
  1

  0
LINE
  5
751
330
745
100
AcDbEntity
  8
1
  6
Continuous
 62
     3
100
AcDbLine
 10
255.5642735317066
 20
-515.9405238572316
 30
0.0
 11
255.5642735317066
 21
-499.9405238572316
 31
0.0
  0
LINE
  5
752
330
745
100
AcDbEntity
  8
1
  6
Continuous
 62
     3
100
AcDbLine
 10
195.8327288611666
 20
-515.9405238572316
 30
0.0
 11
257.5642735317066
 21
-515.9405238572316
 31
0.0
  0
LINE
  5
753
330
745
100
AcDbEntity
  8
1
  6
Continuous
 62
     3
100
AcDbLine
 10
197.2091805453583
 20
-499.9405238572316
 30
0.0
 11
257.5642735317066
 21
-499.9405238572316
 31
0.0
  0
SOLID
  5
754
330
745
100
AcDbEntity
  8
1
 62
     3
100
AcDbTrace
 10
255.1034897901507
 20
-512.4405238572316
 30
0.0
 11
256.0250572732625
 21
-512.4405238572316
 31
0.0
 12
255.5642735317066
 22
-515.9405238572316
 32
0.0
 13
255.5642735317066
 23
-515.9405238572316
 33
0.0
  0
SOLID
  5
755
330
745
100
AcDbEntity
  8
1
 62
     3
100
AcDbTrace
 10
256.0250572732625
 20
-503.4405238572316
 30
0.0
 11
255.1034897901507
 21
-503.4405238572316
 31
0.0
 12
255.5642735317066
 22
-499.9405238572316
 32
0.0
 13
255.5642735317066
 23
-499.9405238572316
 33
0.0
  0
TEXT
  5
756
330
745
100
AcDbEntity
  8
1
 62
     4
100
AcDbText
 10
253.5642735317066
 20
-513.5624054239656
 30
0.0
 40
3.5
  1
\C4;16\C3;\H2.1;±0.2
 50
90.0
 41
0.9
  7
CONVERTER_12
100
AcDbText
  0
ENDBLK
  5
747
330
745
100
AcDbEntity
  8
0
100
AcDbBlockEnd
  0
BLOCK
  5
763
330
762
100
AcDbEntity
  8
0
100
AcDbBlockBegin
  2
*D56
 70
     1
 10
0.0
 20
0.0
 30
0.0
  3
*D56
  1

  0
LINE
  5
76E
330
762
100
AcDbEntity
  8
1
  6
Continuous
 62
     3
100
AcDbLine
 10
255.5642735317066
 20
-499.9405238572316
 30
0.0
 11
255.5642735317066
 21
-434.9405238572315
 31
0.0
  0
LINE
  5
76F
330
762
100
AcDbEntity
  8
1
  6
Continuous
 62
     3
100
AcDbLine
 10
197.2091805453583
 20
-499.9405238572316
 30
0.0
 11
257.5642735317066
 21
-499.9405238572316
 31
0.0
  0
LINE
  5
770
330
762
100
AcDbEntity
  8
1
  6
Continuous
 62
     3
100
AcDbLine
 10
195.450759736948
 20
-434.9405238572315
 30
0.0
 11
257.5642735317066
 21
-434.9405238572315
 31
0.0
  0
SOLID
  5
771
330
762
100
AcDbEntity
  8
1
 62
     3
100
AcDbTrace
 10
255.1034897901507
 20
-496.4405238572315
 30
0.0
 11
256.0250572732625
 21
-496.4405238572315
 31
0.0
 12
255.5642735317066
 22
-499.9405238572316
 32
0.0
 13
255.5642735317066
 23
-499.9405238572316
 33
0.0
  0
SOLID
  5
772
330
762
100
AcDbEntity
  8
1
 62
     3
100
AcDbTrace
 10
256.0250572732625
 20
-438.4405238572315
 30
0.0
 11
255.1034897901507
 21
-438.4405238572315
 31
0.0
 12
255.5642735317066
 22
-434.9405238572315
 32
0.0
 13
255.5642735317066
 23
-434.9405238572315
 33
0.0
  0
TEXT
  5
773
330
762
100
AcDbEntity
  8
1
 62
     4
100
AcDbText
 10
253.5642735317066
 20
-471.9905238572316
 30
0.0
 40
3.5
  1
\C4;65\C3;\H2.1;±1
 50
90.0
 41
0.9
  7
CONVERTER_12
100
AcDbText
  0
ENDBLK
  5
764
330
762
100
AcDbEntity
  8
0
100
AcDbBlockEnd
  0
ENDSEC
  0
SECTION
  2
ENTITIES
  0
INSERT
  5
95
330
77
100
AcDbEntity
  8
1
100
AcDbBlockReference
  2
ANSCHLAGMASSE
 10
384.9667879969386
 20
-247.2871344053084
 30
0.0
 41
0.1800033624999994
 42
0.1800033624999994
 43
0.1800033624999994
  0
INSERT
  5
96
330
77
100
AcDbEntity
  8
1
100
AcDbBlockReference
  2
UEBERSICHT
 10
365.1076265616948
 20
-246.2915942882458
 30
0.0
 41
0.35
 42
0.35
 43
0.35
  0
INSERT
  5
97
330
77
100
AcDbEntity
  8
0
100
AcDbBlockReference
  2
rahmen
 10
109.397567444431
 20
-547.332241544306
 30
0.0
  0
POINT
  5
55C
330
77
100
AcDbEntity
  8
1
 62
     3
 60
     1
100
AcDbPoint
 10
402.7337930911519
 20
-543.950437666292
 30
0.0
  0
POINT
  5
55D
330
77
100
AcDbEntity
  8
1
 62
     3
 60
     1
100
AcDbPoint
 10
410.7337930911519
 20
-543.950437666292
 30
0.0
  0
LINE
  5
55E
330
77
100
AcDbEntity
  8
1
  6
DASH_CENTER
 62
     3
100
AcDbLine
 10
133.798692872069
 20
-363.9405238572316
 30
0.0
 11
180.120463813199
 21
-363.9405238572316
 31
0.0
  0
LINE
  5
55F
330
77
100
AcDbEntity
  8
0
  6
DASH_CENTER
 62
     3
100
AcDbLine
 10
131.588592627313
 20
-516.9405238572315
 30
0.0
 11
180.150832736948
 21
-516.9405238572315
 31
0.0
  0
LINE
  5
560
330
77
100
AcDbEntity
  8
0
  6
DASH_CENTER
 62
     3
100
AcDbLine
 10
131.381607719269
 20
-472.9405238572316
 30
0.0
 11
180.150832736948
 21
-472.9405238572316
 31
0.0
  0
LINE
  5
561
330
77
100
AcDbEntity
  8
1
  6
DASH_CENTER
 62
     3
100
AcDbLine
 10
128.1510063481428
 20
-494.9405238572316
 30
0.0
 11
176.127863871419
 21
-494.9405238572316
 31
0.0
  0
LINE
  5
562
330
77
100
AcDbEntity
  8
1
  6
Continuous
 62
     1
100
AcDbLine
 10
174.150832736948
 20
-524.6905238572314
 30
0.0
 11
132.5770140905893
 21
-524.6905238572314
 31
0.0
  0
LINE
  5
563
330
77
100
AcDbEntity
  8
1
  6
Continuous
 62
     1
100
AcDbLine
 10
130.9493291983144
 20
-524.2186745725155
 30
0.0
 11
132.2349616909629
 21
-523.7507426129866
 31
0.0
  0
LINE
  5
564
330
77
100
AcDbEntity
  8
1
  6
Continuous
 62
     1
100
AcDbLine
 10
130.9493291983144
 20
-465.1623731419473
 30
0.0
 11
132.2349616909629
 21
-465.6303051014766
 31
0.0
  0
LINE
  5
565
330
77
100
AcDbEntity
  8
1
  6
Continuous
 62
     1
100
AcDbLine
 10
132.5770140905893
 20
-464.6905238572315
 30
0.0
 11
174.150832736948
 21
-464.6905238572315
 31
0.0
  0
LINE
  5
566
330
77
100
AcDbEntity
  8
1
  6
Continuous
 62
     4
100
AcDbLine
 10
132.0370897860738
 20
-523.8160466846006
 30
0.0
 11
132.2080998577368
 21
-524.2858929949936
 31
0.0
  0
LINE
  5
567
330
77
100
AcDbEntity
  8
1
  6
Continuous
 62
     4
100
AcDbLine
 10
132.2080998577368
 20
-524.2858929949936
 30
0.0
 11
130.7809251656241
 21
-524.8053421020207
 31
0.0
  0
LINE
  5
568
330
77
100
AcDbEntity
  8
1
  6
Continuous
 62
     4
100
AcDbLine
 10
130.7809251656241
 20
-464.5689902004796
 30
0.0
 11
132.2080998577368
 21
-465.0884393075067
 31
0.0
  0
LINE
  5
569
330
77
100
AcDbEntity
  8
1
  6
Continuous
 62
     4
100
AcDbLine
 10
132.2080998577368
 20
-465.0884393075067
 30
0.0
 11
132.037089786074
 21
-465.5582856178996
 31
0.0
  0
LINE
  5
56A
330
77
100
AcDbEntity
  8
1
  6
Continuous
 62
     4
100
AcDbLine
 10
132.037089786074
 20
-465.5582856178996
 30
0.0
 11
130.6099150939614
 21
-465.0388365108725
 31
0.0
  0
LINE
  5
56B
330
77
100
AcDbEntity
  8
1
  6
Continuous
 62
     4
100
AcDbLine
 10
130.6099150939614
 20
-524.3354957916276
 30
0.0
 11
132.0370897860738
 21
-523.8160466846006
 31
0.0
  0
LINE
  5
56C
330
77
100
AcDbEntity
  8
1
  6
DASH_CENTER
 62
     3
100
AcDbLine
 10
128.400832736948
 20
-496.4405238572315
 30
0.0
 11
140.150832736948
 21
-496.4405238572315
 31
0.0
  0
LINE
  5
56D
330
77
100
AcDbEntity
  8
1
  6
DASH_CENTER
 62
     3
100
AcDbLine
 10
173.250832736948
 20
-496.4405238572315
 30
0.0
 11
174.900832736948
 21
-496.4405238572315
 31
0.0
  0
LINE
  5
56E
330
77
100
AcDbEntity
  8
1
  6
DASH_CENTER
 62
     3
100
AcDbLine
 10
140.150832736948
 20
-496.4405238572315
 30
0.0
 11
168.150832736948
 21
-496.4405238572315
 31
0.0
  0
LINE
  5
56F
330
77
100
AcDbEntity
  8
1
  6
DASH_CENTER
 62
     3
100
AcDbLine
 10
168.150832736948
 20
-496.4405238572315
 30
0.0
 11
173.250832736948
 21
-496.4405238572315
 31
0.0
  0
LINE
  5
570
330
77
100
AcDbEntity
  8
1
  6
DASH_CENTER
 62
     3
100
AcDbLine
 10
165.650832736948
 20
-492.6779612866868
 30
0.0
 11
165.650832736948
 21
-500.0749985745858
 31
0.0
  0
LINE
  5
571
330
77
100
AcDbEntity
  8
1
  6
DASH_CENTER
 62
     3
100
AcDbLine
 10
137.650832736948
 20
-492.6779612866868
 30
0.0
 11
137.650832736948
 21
-500.0749985745858
 31
0.0
  0
LINE
  5
572
330
77
100
AcDbEntity
  8
0
  6
Continuous
 62
     3
100
AcDbLine
 10
181.400832736948
 20
-457.9405238572316
 30
0.0
 11
168.0242081503819
 21
-457.9405238572316
 31
0.0
  0
LINE
  5
573
330
77
100
AcDbEntity
  8
0
  6
Continuous
 62
     1
100
AcDbLine
 10
148.150832736948
 20
-426.4404628572315
 30
0.0
 11
148.150832736948
 21
-443.1404748572315
 31
0.0
  0
LINE
  5
574
330
77
100
AcDbEntity
  8
0
  6
Continuous
 62
     1
100
AcDbLine
 10
177.150832736948
 20
-424.4404628572316
 30
0.0
 11
150.150832736948
 21
-424.4404628572316
 31
0.0
  0
LINE
  5
575
330
77
100
AcDbEntity
  8
0
  6
Continuous
 62
     1
100
AcDbLine
 10
179.150832736948
 20
-443.1404748572315
 30
0.0
 11
179.150832736948
 21
-426.4404628572315
 31
0.0
  0
LINE
  5
576
330
77
100
AcDbEntity
  8
0
  6
Continuous
 62
     1
100
AcDbLine
 10
150.150832736948
 20
-445.1404748572316
 30
0.0
 11
177.150832736948
 21
-445.1404748572316
 31
0.0
  0
LINE
  5
577
330
77
100
AcDbEntity
  8
0
  6
Continuous
 62
     3
100
AcDbLine
 10
171.650832736948
 20
-433.4404018572316
 30
0.0
 11
171.650832736948
 21
-435.3404268572315
 31
0.0
  0
LINE
  5
578
330
77
100
AcDbEntity
  8
0
  6
Continuous
 62
     3
100
AcDbLine
 10
175.850845736948
 20
-433.1404138572316
 30
0.0
 11
171.950835736948
 21
-433.1404138572316
 31
0.0
  0
LINE
  5
579
330
77
100
AcDbEntity
  8
0
  6
DASHED
 62
     3
100
AcDbLine
 10
176.150832736948
 20
-427.7404508572316
 30
0.0
 11
176.150832736948
 21
-432.8403658572315
 31
0.0
  0
LINE
  5
57A
330
77
100
AcDbEntity
  8
0
  6
DASHED
 62
     3
100
AcDbLine
 10
151.450835736948
 20
-427.4404628572315
 30
0.0
 11
175.850845736948
 21
-427.4404628572315
 31
0.0
  0
LINE
  5
57B
330
77
100
AcDbEntity
  8
0
  6
Continuous
 62
     3
100
AcDbLine
 10
155.650832736948
 20
-433.4404018572316
 30
0.0
 11
155.650832736948
 21
-435.3404268572315
 31
0.0
  0
LINE
  5
57C
330
77
100
AcDbEntity
  8
0
  6
Continuous
 62
     3
100
AcDbLine
 10
151.450835736948
 20
-433.1404138572316
 30
0.0
 11
155.350845736948
 21
-433.1404138572316
 31
0.0
  0
LINE
  5
57D
330
77
100
AcDbEntity
  8
0
  6
DASHED
 62
     3
100
AcDbLine
 10
151.150832736948
 20
-427.7404508572316
 30
0.0
 11
151.150832736948
 21
-432.8403658572315
 31
0.0
  0
LINE
  5
57E
330
77
100
AcDbEntity
  8
0
  6
Continuous
 62
     3
100
AcDbLine
 10
151.450835736948
 20
-435.6404748572315
 30
0.0
 11
155.350845736948
 21
-435.6404748572315
 31
0.0
  0
LINE
  5
57F
330
77
100
AcDbEntity
  8
0
  6
DASHED
 62
     3
100
AcDbLine
 10
151.150832736948
 20
-442.3404268572316
 30
0.0
 11
151.150832736948
 21
-435.9404628572315
 31
0.0
  0
LINE
  5
580
330
77
100
AcDbEntity
  8
0
  6
Continuous
 62
     3
100
AcDbLine
 10
153.850845736948
 20
-442.6404748572315
 30
0.0
 11
151.450835736948
 21
-442.6404748572315
 31
0.0
  0
LINE
  5
581
330
77
100
AcDbEntity
  8
0
  6
Continuous
 62
     3
100
AcDbLine
 10
154.150832736948
 20
-444.6404748572316
 30
0.0
 11
154.150832736948
 21
-442.9404628572315
 31
0.0
  0
LINE
  5
582
330
77
100
AcDbEntity
  8
0
  6
Continuous
 62
     3
100
AcDbLine
 10
175.850845736948
 20
-435.6404748572315
 30
0.0
 11
171.950835736948
 21
-435.6404748572315
 31
0.0
  0
LINE
  5
583
330
77
100
AcDbEntity
  8
0
  6
DASHED
 62
     3
100
AcDbLine
 10
176.150832736948
 20
-442.3404268572316
 30
0.0
 11
176.150832736948
 21
-435.9404628572315
 31
0.0
  0
LINE
  5
584
330
77
100
AcDbEntity
  8
0
  6
Continuous
 62
     3
100
AcDbLine
 10
173.450835736948
 20
-442.6404748572315
 30
0.0
 11
175.850845736948
 21
-442.6404748572315
 31
0.0
  0
LINE
  5
585
330
77
100
AcDbEntity
  8
0
  6
Continuous
 62
     3
100
AcDbLine
 10
173.150832736948
 20
-444.6404748572316
 30
0.0
 11
173.150832736948
 21
-442.9404628572315
 31
0.0
  0
LINE
  5
586
330
77
100
AcDbEntity
  8
0
  6
Continuous
 62
     3
100
AcDbLine
 10
181.400832736948
 20
-326.9405238572316
 30
0.0
 11
175.7214199920726
 21
-326.9405238572316
 31
0.0
  0
LINE
  5
587
330
77
100
AcDbEntity
  8
0
  6
Continuous
 62
     1
100
AcDbLine
 10
179.150832736948
 20
-295.4404628572316
 30
0.0
 11
179.150832736948
 21
-312.1404748572316
 31
0.0
  0
LINE
  5
588
330
77
100
AcDbEntity
  8
0
  6
Continuous
 62
     1
100
AcDbLine
 10
150.150832736948
 20
-293.4404628572316
 30
0.0
 11
177.150832736948
 21
-293.4404628572316
 31
0.0
  0
LINE
  5
589
330
77
100
AcDbEntity
  8
0
  6
Continuous
 62
     1
100
AcDbLine
 10
148.150832736948
 20
-312.1404748572316
 30
0.0
 11
148.150832736948
 21
-295.4404628572316
 31
0.0
  0
LINE
  5
58A
330
77
100
AcDbEntity
  8
0
  6
Continuous
 62
     1
100
AcDbLine
 10
177.150832736948
 20
-314.1404748572316
 30
0.0
 11
150.150832736948
 21
-314.1404748572316
 31
0.0
  0
LINE
  5
58B
330
77
100
AcDbEntity
  8
0
  6
Continuous
 62
     3
100
AcDbLine
 10
171.650832736948
 20
-304.3404268572316
 30
0.0
 11
171.650832736948
 21
-302.4404018572316
 31
0.0
  0
LINE
  5
58C
330
77
100
AcDbEntity
  8
0
  6
Continuous
 62
     3
100
AcDbLine
 10
175.850845736948
 20
-304.6404748572316
 30
0.0
 11
171.950835736948
 21
-304.6404748572316
 31
0.0
  0
LINE
  5
58D
330
77
100
AcDbEntity
  8
0
  6
DASHED
 62
     3
100
AcDbLine
 10
176.150832736948
 20
-311.3404268572316
 30
0.0
 11
176.150832736948
 21
-304.9404628572316
 31
0.0
  0
LINE
  5
58E
330
77
100
AcDbEntity
  8
0
  6
Continuous
 62
     3
100
AcDbLine
 10
173.450835736948
 20
-311.6404748572316
 30
0.0
 11
175.850845736948
 21
-311.6404748572316
 31
0.0
  0
LINE
  5
58F
330
77
100
AcDbEntity
  8
0
  6
Continuous
 62
     3
100
AcDbLine
 10
175.850845736948
 20
-302.1404138572316
 30
0.0
 11
171.950835736948
 21
-302.1404138572316
 31
0.0
  0
LINE
  5
590
330
77
100
AcDbEntity
  8
0
  6
DASHED
 62
     3
100
AcDbLine
 10
176.150832736948
 20
-296.7404508572316
 30
0.0
 11
176.150832736948
 21
-301.8403658572316
 31
0.0
  0
LINE
  5
591
330
77
100
AcDbEntity
  8
0
  6
DASHED
 62
     3
100
AcDbLine
 10
151.450835736948
 20
-296.4404628572316
 30
0.0
 11
175.850845736948
 21
-296.4404628572316
 31
0.0
  0
LINE
  5
592
330
77
100
AcDbEntity
  8
0
  6
Continuous
 62
     3
100
AcDbLine
 10
155.650832736948
 20
-302.4404018572316
 30
0.0
 11
155.650832736948
 21
-304.3404268572316
 31
0.0
  0
LINE
  5
593
330
77
100
AcDbEntity
  8
0
  6
Continuous
 62
     3
100
AcDbLine
 10
151.450835736948
 20
-302.1404138572316
 30
0.0
 11
155.350845736948
 21
-302.1404138572316
 31
0.0
  0
LINE
  5
594
330
77
100
AcDbEntity
  8
0
  6
DASHED
 62
     3
100
AcDbLine
 10
151.150832736948
 20
-296.7404508572316
 30
0.0
 11
151.150832736948
 21
-301.8403658572316
 31
0.0
  0
LINE
  5
595
330
77
100
AcDbEntity
  8
0
  6
Continuous
 62
     3
100
AcDbLine
 10
151.450835736948
 20
-304.6404748572316
 30
0.0
 11
155.350845736948
 21
-304.6404748572316
 31
0.0
  0
LINE
  5
596
330
77
100
AcDbEntity
  8
0
  6
DASHED
 62
     3
100
AcDbLine
 10
151.150832736948
 20
-311.3404268572316
 30
0.0
 11
151.150832736948
 21
-304.9404628572316
 31
0.0
  0
LINE
  5
597
330
77
100
AcDbEntity
  8
0
  6
Continuous
 62
     3
100
AcDbLine
 10
153.850845736948
 20
-311.6404748572316
 30
0.0
 11
151.450835736948
 21
-311.6404748572316
 31
0.0
  0
LINE
  5
598
330
77
100
AcDbEntity
  8
0
  6
Continuous
 62
     3
100
AcDbLine
 10
154.150832736948
 20
-313.6404748572316
 30
0.0
 11
154.150832736948
 21
-311.9404628572316
 31
0.0
  0
LINE
  5
599
330
77
100
AcDbEntity
  8
0
  6
Continuous
 62
     3
100
AcDbLine
 10
173.150832736948
 20
-313.6404748572316
 30
0.0
 11
173.150832736948
 21
-311.9404628572316
 31
0.0
  0
LINE
  5
59A
330
77
100
AcDbEntity
  8
0
  6
Continuous
 62
     3
100
AcDbLine
 10
194.150832736948
 20
-517.7405728572316
 30
0.0
 11
181.150832736948
 21
-517.7405728572316
 31
0.0
  0
LINE
  5
59B
330
77
100
AcDbEntity
  8
0
  6
Continuous
 62
     3
100
AcDbLine
 10
194.150832736948
 20
-514.1404748572316
 30
0.0
 11
181.150832736948
 21
-514.1404748572316
 31
0.0
  0
LINE
  5
59C
330
77
100
AcDbEntity
  8
0
  6
Continuous
 62
     1
100
AcDbLine
 10
194.150832736948
 20
-513.4405238572315
 30
0.0
 11
181.150832736948
 21
-513.4405238572315
 31
0.0
  0
LINE
  5
59D
330
77
100
AcDbEntity
  8
0
  6
Continuous
 62
     1
100
AcDbLine
 10
194.150832736948
 20
-518.4405238572316
 30
0.0
 11
181.150832736948
 21
-518.4405238572316
 31
0.0
  0
LINE
  5
59E
330
77
100
AcDbEntity
  8
0
  6
Continuous
 62
     3
100
AcDbLine
 10
194.150832736948
 20
-501.7405728572317
 30
0.0
 11
181.150832736948
 21
-501.7405728572317
 31
0.0
  0
LINE
  5
59F
330
77
100
AcDbEntity
  8
0
  6
Continuous
 62
     3
100
AcDbLine
 10
194.150832736948
 20
-498.1404748572317
 30
0.0
 11
181.150832736948
 21
-498.1404748572317
 31
0.0
  0
LINE
  5
5A0
330
77
100
AcDbEntity
  8
0
  6
Continuous
 62
     1
100
AcDbLine
 10
194.150832736948
 20
-502.4405238572316
 30
0.0
 11
181.150832736948
 21
-502.4405238572316
 31
0.0
  0
LINE
  5
5A1
330
77
100
AcDbEntity
  8
0
  6
Continuous
 62
     1
100
AcDbLine
 10
194.150832736948
 20
-497.4405238572315
 30
0.0
 11
181.150832736948
 21
-497.4405238572315
 31
0.0
  0
LINE
  5
5A2
330
77
100
AcDbEntity
  8
0
  6
Continuous
 62
     3
100
AcDbLine
 10
188.150832736948
 20
-436.7404508572316
 30
0.0
 11
181.150832736948
 21
-436.7404508572316
 31
0.0
  0
LINE
  5
5A3
330
77
100
AcDbEntity
  8
0
  6
Continuous
 62
     3
100
AcDbLine
 10
188.150832736948
 20
-433.1404748572316
 30
0.0
 11
181.150832736948
 21
-433.1404748572316
 31
0.0
  0
LINE
  5
5A4
330
77
100
AcDbEntity
  8
0
  6
Continuous
 62
     1
100
AcDbLine
 10
188.150832736948
 20
-432.4405238572316
 30
0.0
 11
181.150832736948
 21
-432.4405238572316
 31
0.0
  0
LINE
  5
5A5
330
77
100
AcDbEntity
  8
0
  6
Continuous
 62
     1
100
AcDbLine
 10
188.150832736948
 20
-437.4405238572316
 30
0.0
 11
181.150832736948
 21
-437.4405238572316
 31
0.0
  0
LINE
  5
5A6
330
77
100
AcDbEntity
  8
0
  6
Continuous
 62
     1
100
AcDbLine
 10
174.150832736948
 20
-524.6905238572314
 30
0.0
 11
179.150832736948
 21
-524.6905238572313
 31
0.0
  0
LINE
  5
5A7
330
77
100
AcDbEntity
  8
0
  6
Continuous
 62
     1
100
AcDbLine
 10
179.150832736948
 20
-464.6905238572315
 30
0.0
 11
179.150832736948
 21
-524.6905238572313
 31
0.0
  0
LINE
  5
5A8
330
77
100
AcDbEntity
  8
0
  6
Continuous
 62
     1
100
AcDbLine
 10
174.150832736948
 20
-464.6905238572315
 30
0.0
 11
174.150832736948
 21
-524.6905238572314
 31
0.0
  0
LINE
  5
5A9
330
77
100
AcDbEntity
  8
0
  6
Continuous
 62
     4
100
AcDbLine
 10
135.400832736948
 20
-525.1272918572315
 30
0.0
 11
135.400832736948
 21
-524.6905238572314
 31
0.0
  0
LINE
  5
5AA
330
77
100
AcDbEntity
  8
0
  6
Continuous
 62
     4
100
AcDbLine
 10
167.900954736948
 20
-525.1272918572315
 30
0.0
 11
167.900954736948
 21
-524.6905238572314
 31
0.0
  0
LINE
  5
5AB
330
77
100
AcDbEntity
  8
0
  6
Continuous
 62
     4
100
AcDbLine
 10
167.900954736948
 20
-525.1272918572315
 30
0.0
 11
135.400832736948
 21
-525.1272918572315
 31
0.0
  0
LINE
  5
5AC
330
77
100
AcDbEntity
  8
0
  6
Continuous
 62
     1
100
AcDbLine
 10
143.650954736948
 20
-529.8904748572315
 30
0.0
 11
135.400832736948
 21
-525.1272918572315
 31
0.0
  0
LINE
  5
5AD
330
77
100
AcDbEntity
  8
0
  6
Continuous
 62
     1
100
AcDbLine
 10
159.650954736948
 20
-529.8904748572315
 30
0.0
 11
167.900954736948
 21
-525.1272918572315
 31
0.0
  0
LINE
  5
5AE
330
77
100
AcDbEntity
  8
0
  6
Continuous
 62
     1
100
AcDbLine
 10
143.650954736948
 20
-529.8904748572315
 30
0.0
 11
159.650954736948
 21
-529.8904748572315
 31
0.0
  0
LINE
  5
5AF
330
77
100
AcDbEntity
  8
0
  6
Continuous
 62
     1
100
AcDbLine
 10
194.150832736948
 20
-502.4405238572316
 30
0.0
 11
194.150832736948
 21
-499.9405238572316
 31
0.0
  0
LINE
  5
5B0
330
77
100
AcDbEntity
  8
0
  6
Continuous
 62
     1
100
AcDbLine
 10
194.150832736948
 20
-518.4405238572316
 30
0.0
 11
194.150832736948
 21
-515.9405238572316
 31
0.0
  0
LINE
  5
5B1
330
77
100
AcDbEntity
  8
0
  6
DASH_CENTER
 62
     3
100
AcDbLine
 10
151.650832736948
 20
-524.6905238572314
 30
0.0
 11
151.650832736948
 21
-528.6905238572314
 31
0.0
  0
LINE
  5
5B2
330
77
100
AcDbEntity
  8
0
  6
DASH_CENTER
 62
     3
100
AcDbLine
 10
151.650832736948
 20
-524.6905238572314
 30
0.0
 11
151.650832736948
 21
-452.1905238572315
 31
0.0
  0
LINE
  5
5B3
330
77
100
AcDbEntity
  8
0
  6
DASH_CENTER
 62
     3
100
AcDbLine
 10
172.150832736948
 20
-515.9405238572316
 30
0.0
 11
195.8327288611666
 21
-515.9405238572316
 31
0.0
  0
LINE
  5
5B4
330
77
100
AcDbEntity
  8
0
  6
DASH_CENTER
 62
     3
100
AcDbLine
 10
171.150832736948
 20
-499.9405238572316
 30
0.0
 11
197.2091805453583
 21
-499.9405238572316
 31
0.0
  0
LINE
  5
5B5
330
77
100
AcDbEntity
  8
0
  6
DASH_CENTER
 62
     3
100
AcDbLine
 10
195.450759736948
 20
-434.9405238572315
 30
0.0
 11
145.702342808219
 21
-434.9405238572315
 31
0.0
  0
LINE
  5
5B6
330
77
100
AcDbEntity
  8
0
  6
Continuous
 62
     1
100
AcDbLine
 10
188.150832736948
 20
-432.4405238572316
 30
0.0
 11
188.150832736948
 21
-437.4405238572316
 31
0.0
  0
LINE
  5
5B7
330
77
100
AcDbEntity
  8
0
  6
Continuous
 62
     3
100
AcDbLine
 10
193.150832736948
 20
-384.1404748572316
 30
0.0
 11
181.150832736948
 21
-384.1404748572316
 31
0.0
  0
LINE
  5
5B8
330
77
100
AcDbEntity
  8
0
  6
Continuous
 62
     3
100
AcDbLine
 10
193.150832736948
 20
-387.7404508572316
 30
0.0
 11
181.150832736948
 21
-387.7404508572316
 31
0.0
  0
LINE
  5
5B9
330
77
100
AcDbEntity
  8
0
  6
Continuous
 62
     1
100
AcDbLine
 10
193.150832736948
 20
-388.4405238572316
 30
0.0
 11
181.150832736948
 21
-388.4405238572316
 31
0.0
  0
LINE
  5
5BA
330
77
100
AcDbEntity
  8
0
  6
Continuous
 62
     1
100
AcDbLine
 10
193.150832736948
 20
-383.4405238572316
 30
0.0
 11
181.150832736948
 21
-383.4405238572316
 31
0.0
  0
LINE
  5
5BB
330
77
100
AcDbEntity
  8
0
  6
Continuous
 62
     3
100
AcDbLine
 10
193.150832736948
 20
-343.7404508572316
 30
0.0
 11
183.650832736948
 21
-343.7404508572316
 31
0.0
  0
LINE
  5
5BC
330
77
100
AcDbEntity
  8
0
  6
Continuous
 62
     3
100
AcDbLine
 10
193.150832736948
 20
-340.1404748572316
 30
0.0
 11
183.650832736948
 21
-340.1404748572316
 31
0.0
  0
LINE
  5
5BD
330
77
100
AcDbEntity
  8
0
  6
Continuous
 62
     1
100
AcDbLine
 10
193.150832736948
 20
-344.4405238572316
 30
0.0
 11
183.650832736948
 21
-344.4405238572316
 31
0.0
  0
LINE
  5
5BE
330
77
100
AcDbEntity
  8
0
  6
Continuous
 62
     1
100
AcDbLine
 10
193.150832736948
 20
-339.4405238572316
 30
0.0
 11
183.650832736948
 21
-339.4405238572316
 31
0.0
  0
LINE
  5
5BF
330
77
100
AcDbEntity
  8
0
  6
Continuous
 62
     3
100
AcDbLine
 10
188.150832736948
 20
-302.1404748572316
 30
0.0
 11
181.150832736948
 21
-302.1404748572316
 31
0.0
  0
LINE
  5
5C0
330
77
100
AcDbEntity
  8
0
  6
Continuous
 62
     3
100
AcDbLine
 10
188.150832736948
 20
-305.7404508572316
 30
0.0
 11
181.150832736948
 21
-305.7404508572316
 31
0.0
  0
LINE
  5
5C1
330
77
100
AcDbEntity
  8
0
  6
Continuous
 62
     1
100
AcDbLine
 10
188.150832736948
 20
-306.4405238572316
 30
0.0
 11
181.150832736948
 21
-306.4405238572316
 31
0.0
  0
LINE
  5
5C2
330
77
100
AcDbEntity
  8
0
  6
Continuous
 62
     1
100
AcDbLine
 10
188.150832736948
 20
-301.4405238572316
 30
0.0
 11
181.150832736948
 21
-301.4405238572316
 31
0.0
  0
LINE
  5
5C3
330
77
100
AcDbEntity
  8
0
  6
Continuous
 62
     1
100
AcDbLine
 10
193.150832736948
 20
-383.4405238572316
 30
0.0
 11
193.150832736948
 21
-388.4405238572316
 31
0.0
  0
LINE
  5
5C4
330
77
100
AcDbEntity
  8
0
  6
Continuous
 62
     1
100
AcDbLine
 10
193.150832736948
 20
-339.4405238572316
 30
0.0
 11
193.150832736948
 21
-344.4405238572316
 31
0.0
  0
LINE
  5
5C5
330
77
100
AcDbEntity
  8
0
  6
Continuous
 62
     1
100
AcDbLine
 10
179.150832736948
 20
-333.6905238572316
 30
0.0
 11
179.150832736948
 21
-393.6905238572315
 31
0.0
  0
LINE
  5
5C6
330
77
100
AcDbEntity
  8
0
  6
Continuous
 62
     4
100
AcDbLine
 10
140.400832736948
 20
-394.1272918572315
 30
0.0
 11
140.400832736948
 21
-393.6905238572315
 31
0.0
  0
LINE
  5
5C7
330
77
100
AcDbEntity
  8
0
  6
Continuous
 62
     4
100
AcDbLine
 10
172.900954736948
 20
-394.1272918572315
 30
0.0
 11
172.900954736948
 21
-393.6905238572315
 31
0.0
  0
LINE
  5
5C8
330
77
100
AcDbEntity
  8
0
  6
Continuous
 62
     4
100
AcDbLine
 10
172.900954736948
 20
-394.1272918572315
 30
0.0
 11
140.400832736948
 21
-394.1272918572315
 31
0.0
  0
LINE
  5
5C9
330
77
100
AcDbEntity
  8
0
  6
Continuous
 62
     1
100
AcDbLine
 10
148.650954736948
 20
-398.8904748572315
 30
0.0
 11
140.400832736948
 21
-394.1272918572315
 31
0.0
  0
LINE
  5
5CA
330
77
100
AcDbEntity
  8
0
  6
Continuous
 62
     1
100
AcDbLine
 10
164.650954736948
 20
-398.8904748572315
 30
0.0
 11
172.900954736948
 21
-394.1272918572315
 31
0.0
  0
LINE
  5
5CB
330
77
100
AcDbEntity
  8
0
  6
Continuous
 62
     1
100
AcDbLine
 10
148.650954736948
 20
-398.8904748572315
 30
0.0
 11
164.650954736948
 21
-398.8904748572315
 31
0.0
  0
LINE
  5
5CC
330
77
100
AcDbEntity
  8
0
  6
Continuous
 62
     1
100
AcDbLine
 10
179.250808736948
 20
-364.0403778572316
 30
0.0
 11
179.150832736948
 21
-363.9402798572316
 31
0.0
  0
LINE
  5
5CD
330
77
100
AcDbEntity
  8
0
  6
DASH_CENTER
 62
     3
100
AcDbLine
 10
196.178420736948
 20
-385.9405238572316
 30
0.0
 11
129.178420736948
 21
-385.9405238572316
 31
0.0
  0
LINE
  5
5CE
330
77
100
AcDbEntity
  8
0
  6
DASH_CENTER
 62
     3
100
AcDbLine
 10
129.178420736948
 20
-341.9405238572316
 30
0.0
 11
196.178420736948
 21
-341.9405238572316
 31
0.0
  0
LINE
  5
5CF
330
77
100
AcDbEntity
  8
0
  6
DASH_CENTER
 62
     3
100
AcDbLine
 10
195.450881736948
 20
-303.9405238572316
 30
0.0
 11
146.100212565393
 21
-303.9405238572316
 31
0.0
  0
LINE
  5
5D0
330
77
100
AcDbEntity
  8
0
  6
Continuous
 62
     1
100
AcDbLine
 10
188.150832736948
 20
-301.4405238572316
 30
0.0
 11
188.150832736948
 21
-306.4405238572316
 31
0.0
  0
LINE
  5
5D1
330
77
100
AcDbEntity
  8
0
  6
Continuous
 62
     1
100
AcDbLine
 10
194.150832736948
 20
-499.9405238572316
 30
0.0
 11
194.150832736948
 21
-497.4405238572315
 31
0.0
  0
LINE
  5
5D2
330
77
100
AcDbEntity
  8
0
  6
Continuous
 62
     1
100
AcDbLine
 10
194.150832736948
 20
-515.9405238572316
 30
0.0
 11
194.150832736948
 21
-513.4405238572315
 31
0.0
  0
LINE
  5
5D3
330
77
100
AcDbEntity
  8
1
  6
Continuous
 62
     1
100
AcDbLine
 10
179.150832736948
 20
-393.6905238572315
 30
0.0
 11
137.5770140905893
 21
-393.6905238572315
 31
0.0
  0
LINE
  5
5D4
330
77
100
AcDbEntity
  8
1
  6
Continuous
 62
     1
100
AcDbLine
 10
135.9493291983144
 20
-393.2186745725155
 30
0.0
 11
137.2349616909629
 21
-392.7507426129866
 31
0.0
  0
LINE
  5
5D5
330
77
100
AcDbEntity
  8
1
  6
Continuous
 62
     1
100
AcDbLine
 10
135.9493291983144
 20
-334.1623731419473
 30
0.0
 11
137.2349616909629
 21
-334.6303051014767
 31
0.0
  0
LINE
  5
5D6
330
77
100
AcDbEntity
  8
1
  6
Continuous
 62
     1
100
AcDbLine
 10
137.5770140905893
 20
-333.6905238572316
 30
0.0
 11
179.150832736948
 21
-333.6905238572316
 31
0.0
  0
LINE
  5
5D7
330
77
100
AcDbEntity
  8
1
  6
Continuous
 62
     4
100
AcDbLine
 10
137.0370897860738
 20
-392.8160466846007
 30
0.0
 11
137.2080998577368
 21
-393.2858929949937
 31
0.0
  0
LINE
  5
5D8
330
77
100
AcDbEntity
  8
1
  6
Continuous
 62
     4
100
AcDbLine
 10
137.2080998577368
 20
-393.2858929949937
 30
0.0
 11
135.7809251656241
 21
-393.8053421020207
 31
0.0
  0
LINE
  5
5D9
330
77
100
AcDbEntity
  8
1
  6
Continuous
 62
     4
100
AcDbLine
 10
135.7809251656241
 20
-333.5689902004796
 30
0.0
 11
137.2080998577368
 21
-334.0884393075067
 31
0.0
  0
LINE
  5
5DA
330
77
100
AcDbEntity
  8
1
  6
Continuous
 62
     4
100
AcDbLine
 10
137.2080998577368
 20
-334.0884393075067
 30
0.0
 11
137.037089786074
 21
-334.5582856178997
 31
0.0
  0
LINE
  5
5DB
330
77
100
AcDbEntity
  8
1
  6
Continuous
 62
     4
100
AcDbLine
 10
137.037089786074
 20
-334.5582856178997
 30
0.0
 11
135.6099150939614
 21
-334.0388365108726
 31
0.0
  0
LINE
  5
5DC
330
77
100
AcDbEntity
  8
1
  6
Continuous
 62
     4
100
AcDbLine
 10
135.6099150939614
 20
-393.3354957916276
 30
0.0
 11
137.0370897860738
 21
-392.8160466846007
 31
0.0
  0
LINE
  5
5DD
330
77
100
AcDbEntity
  8
1
  6
DASH_CENTER
 62
     3
100
AcDbLine
 10
133.400832736948
 20
-365.4405238572316
 30
0.0
 11
145.150832736948
 21
-365.4405238572316
 31
0.0
  0
LINE
  5
5DE
330
77
100
AcDbEntity
  8
1
  6
DOT_CENTER
 62
     3
100
AcDbLine
 10
156.650832736948
 20
-397.567421222533
 30
0.0
 11
156.650832736948
 21
-315.918154271847
 31
0.0
  0
LINE
  5
5DF
330
77
100
AcDbEntity
  8
1
  6
DASH_CENTER
 62
     3
100
AcDbLine
 10
178.250832736948
 20
-365.4405238572316
 30
0.0
 11
179.900832736948
 21
-365.4405238572316
 31
0.0
  0
LINE
  5
5E0
330
77
100
AcDbEntity
  8
1
  6
DASH_CENTER
 62
     3
100
AcDbLine
 10
145.150832736948
 20
-365.4405238572316
 30
0.0
 11
173.150832736948
 21
-365.4405238572316
 31
0.0
  0
LINE
  5
5E1
330
77
100
AcDbEntity
  8
1
  6
DASH_CENTER
 62
     3
100
AcDbLine
 10
173.150832736948
 20
-365.4405238572316
 30
0.0
 11
178.250832736948
 21
-365.4405238572316
 31
0.0
  0
LINE
  5
5E2
330
77
100
AcDbEntity
  8
1
  6
DASH_CENTER
 62
     3
100
AcDbLine
 10
170.650832736948
 20
-361.6779612866868
 30
0.0
 11
170.650832736948
 21
-369.0749985745858
 31
0.0
  0
LINE
  5
5E3
330
77
100
AcDbEntity
  8
1
  6
DASH_CENTER
 62
     3
100
AcDbLine
 10
142.650832736948
 20
-361.6779612866868
 30
0.0
 11
142.650832736948
 21
-369.0749985745858
 31
0.0
  0
LINE
  5
5E4
330
77
100
AcDbEntity
  8
1
  6
Continuous
 62
     1
100
AcDbLine
 10
174.150832736948
 20
-464.6905238572315
 30
0.0
 11
179.150832736948
 21
-464.6905238572315
 31
0.0
  0
LINE
  5
5E5
330
77
100
AcDbEntity
  8
1
  6
DASH_CENTER
 62
     3
100
AcDbLine
 10
150.000832736948
 20
-314.1405238572316
 30
0.0
 11
177.300832736948
 21
-314.1405238572316
 31
0.0
  0
LINE
  5
5E6
330
77
100
AcDbEntity
  8
1
  6
DOT_CENTER
 62
     3
100
AcDbLine
 10
163.650832736948
 20
-286.661242592689
 30
0.0
 11
163.650832736948
 21
-326.4405238572316
 31
0.0
  0
LINE
  5
5E7
330
77
100
AcDbEntity
  8
1
  6
DOT_CENTER
 62
     3
100
AcDbLine
 10
163.650832736948
 20
-398.5277046658726
 30
0.0
 11
163.650832736948
 21
-409.793318994547
 31
0.0
  0
LINE
  5
5E8
330
77
100
AcDbEntity
  8
1
  6
DASH_CENTER
 62
     3
100
AcDbLine
 10
150.000832736948
 20
-445.1405238572315
 30
0.0
 11
177.300832736948
 21
-445.1405238572315
 31
0.0
  0
LINE
  5
5E9
330
77
100
AcDbEntity
  8
1
  6
DOT_CENTER
 62
     3
100
AcDbLine
 10
163.650832736948
 20
-416.793992220108
 30
0.0
 11
163.650832736948
 21
-456.689250297556
 31
0.0
  0
LINE
  5
5EA
330
77
100
AcDbEntity
  8
1
  6
Continuous
 62
     1
100
AcDbLine
 10
140.6508327369482
 20
-453.4405238572316
 30
0.0
 11
174.650832736948
 21
-453.4405238572316
 31
0.0
  0
LINE
  5
5EB
330
77
100
AcDbEntity
  8
1
  6
Continuous
 62
     1
100
AcDbLine
 10
140.650832736948
 20
-448.4405238572316
 30
0.0
 11
174.650832736948
 21
-448.4405238572316
 31
0.0
  0
LINE
  5
5EC
330
77
100
AcDbEntity
  8
1
  6
Continuous
 62
     1
100
AcDbLine
 10
142.0734824677582
 20
-453.9405238572316
 30
0.0
 11
140.6508327369482
 21
-456.4046254723696
 31
0.0
  0
LINE
  5
5ED
330
77
100
AcDbEntity
  8
1
  6
LONG_DASHED
 62
     3
100
AcDbLine
 10
161.2281830061382
 20
-453.9405238572316
 30
0.0
 11
161.5168581407328
 21
-454.4405238572315
 31
0.0
  0
LINE
  5
5EE
330
77
100
AcDbEntity
  8
1
  6
Continuous
 62
     1
100
AcDbLine
 10
140.650832736948
 20
-448.4405238572316
 30
0.0
 11
140.6508327369482
 21
-453.4405238572316
 31
0.0
  0
LINE
  5
5EF
330
77
100
AcDbEntity
  8
1
  6
Continuous
 62
     1
100
AcDbLine
 10
161.5168581407328
 20
-454.4405238572315
 30
0.0
 11
162.650832736948
 21
-456.4046254723696
 31
0.0
  0
LINE
  5
5F0
330
77
100
AcDbEntity
  8
1
  6
Continuous
 62
     1
100
AcDbLine
 10
141.150832736948
 20
-464.6905238572315
 30
0.0
 11
141.1508327369482
 21
-463.9405238572315
 31
0.0
  0
LINE
  5
5F1
330
77
100
AcDbEntity
  8
1
  6
Continuous
 62
     4
100
AcDbLine
 10
140.6508327369482
 20
-463.4405238572315
 30
0.0
 11
162.650832736948
 21
-463.4405238572315
 31
0.0
  0
LINE
  5
5F2
330
77
100
AcDbEntity
  8
1
  6
Continuous
 62
     4
100
AcDbLine
 10
162.150832736948
 20
-463.9405238572315
 30
0.0
 11
141.1508327369482
 21
-463.9405238572315
 31
0.0
  0
LINE
  5
5F3
330
77
100
AcDbEntity
  8
1
  6
Continuous
 62
     1
100
AcDbLine
 10
141.1508327369482
 20
-463.9405238572315
 30
0.0
 11
140.6508327369482
 21
-463.4405238572315
 31
0.0
  0
LINE
  5
5F4
330
77
100
AcDbEntity
  8
1
  6
Continuous
 62
     1
100
AcDbLine
 10
140.6508327369482
 20
-463.4405238572315
 30
0.0
 11
140.6508327369482
 21
-456.4046254723696
 31
0.0
  0
LINE
  5
5F5
330
77
100
AcDbEntity
  8
1
  6
Continuous
 62
     1
100
AcDbLine
 10
162.650832736948
 20
-456.4046254723696
 30
0.0
 11
162.650832736948
 21
-463.4405238572315
 31
0.0
  0
LINE
  5
5F6
330
77
100
AcDbEntity
  8
1
  6
Continuous
 62
     1
100
AcDbLine
 10
162.650832736948
 20
-463.4405238572315
 30
0.0
 11
162.150832736948
 21
-463.9405238572315
 31
0.0
  0
LINE
  5
5F7
330
77
100
AcDbEntity
  8
1
  6
Continuous
 62
     1
100
AcDbLine
 10
162.150832736948
 20
-463.9405238572315
 30
0.0
 11
162.150832736948
 21
-464.6905238572315
 31
0.0
  0
LINE
  5
5F8
330
77
100
AcDbEntity
  8
1
  6
Continuous
 62
     1
100
AcDbLine
 10
140.6508327369482
 20
-456.4046254723696
 30
0.0
 11
162.650832736948
 21
-456.4046254723696
 31
0.0
  0
LINE
  5
5F9
330
77
100
AcDbEntity
  8
1
  6
Continuous
 62
     1
100
AcDbLine
 10
159.650832736948
 20
-453.4405238572316
 30
0.0
 11
160.650832736948
 21
-454.4405238572315
 31
0.0
  0
LINE
  5
5FA
330
77
100
AcDbEntity
  8
1
  6
Continuous
 62
     1
100
AcDbLine
 10
160.650832736948
 20
-454.4405238572315
 30
0.0
 11
166.650832736948
 21
-454.4405238572315
 31
0.0
  0
LINE
  5
5FB
330
77
100
AcDbEntity
  8
1
  6
Continuous
 62
     1
100
AcDbLine
 10
166.650832736948
 20
-454.4405238572315
 30
0.0
 11
167.650832736948
 21
-453.4405238572316
 31
0.0
  0
LINE
  5
5FC
330
77
100
AcDbEntity
  8
1
  6
Continuous
 62
     1
100
AcDbLine
 10
174.650832736948
 20
-453.4405238572316
 30
0.0
 11
174.650832736948
 21
-448.4405238572316
 31
0.0
  0
LINE
  5
5FD
330
77
100
AcDbEntity
  8
1
  6
Continuous
 62
     1
100
AcDbLine
 10
167.400832736948
 20
-447.2508316471245
 30
0.0
 11
167.400832736948
 21
-448.4405238572316
 31
0.0
  0
LINE
  5
5FE
330
77
100
AcDbEntity
  8
1
  6
Continuous
 62
     1
100
AcDbLine
 10
159.900832736948
 20
-448.4405238572316
 30
0.0
 11
159.900832736948
 21
-447.2508316471245
 31
0.0
  0
LINE
  5
5FF
330
77
100
AcDbEntity
  8
1
  6
Continuous
 62
     4
100
AcDbLine
 10
168.395791246969
 20
-445.2508316471244
 30
0.0
 11
167.8798550413111
 21
-447.2508316471244
 31
0.0
  0
LINE
  5
600
330
77
100
AcDbEntity
  8
1
  6
Continuous
 62
     4
100
AcDbLine
 10
169.102898028155
 20
-445.2508316471244
 30
0.0
 11
168.5869618224971
 21
-447.2508316471244
 31
0.0
  0
LINE
  5
601
330
77
100
AcDbEntity
  8
1
  6
Continuous
 62
     1
100
AcDbLine
 10
169.8007289678432
 20
-447.2508316471245
 30
0.0
 11
164.150832736948
 21
-447.2508316471244
 31
0.0
  0
LINE
  5
602
330
77
100
AcDbEntity
  8
1
  6
Continuous
 62
     1
100
AcDbLine
 10
163.150832736948
 20
-447.2508316471244
 30
0.0
 11
157.5009365060531
 21
-447.2508316471244
 31
0.0
  0
LINE
  5
603
330
77
100
AcDbEntity
  8
1
  6
Continuous
 62
     4
100
AcDbLine
 10
159.4218104325861
 20
-447.2508316471244
 30
0.0
 11
158.9058742269282
 21
-445.2508316471244
 31
0.0
  0
LINE
  5
604
330
77
100
AcDbEntity
  8
1
  6
Continuous
 62
     4
100
AcDbLine
 10
158.714703651399
 20
-447.2508316471244
 30
0.0
 11
158.1987674457411
 21
-445.2508316471244
 31
0.0
  0
LINE
  5
605
330
77
100
AcDbEntity
  8
1
  6
Continuous
 62
     4
100
AcDbLine
 10
164.150832736948
 20
-445.2508316471244
 30
0.0
 11
164.150832736948
 21
-447.2508316471244
 31
0.0
  0
LINE
  5
606
330
77
100
AcDbEntity
  8
1
  6
Continuous
 62
     1
100
AcDbLine
 10
156.4228922684161
 20
-445.2508316471244
 30
0.0
 11
157.0310901956601
 21
-446.9218417187875
 31
0.0
  0
LINE
  5
607
330
77
100
AcDbEntity
  8
1
  6
Continuous
 62
     1
100
AcDbLine
 10
170.2705752782362
 20
-446.9218417187875
 30
0.0
 11
170.878773205481
 21
-445.2508316471244
 31
0.0
  0
LINE
  5
608
330
77
100
AcDbEntity
  8
1
  6
Continuous
 62
     4
100
AcDbLine
 10
163.150832736948
 20
-447.2508316471244
 30
0.0
 11
163.150832736948
 21
-445.2508316471244
 31
0.0
  0
LINE
  5
609
330
77
100
AcDbEntity
  8
1
  6
Continuous
 62
     1
100
AcDbLine
 10
172.950832736948
 20
-445.1404748572316
 30
0.0
 11
172.950832736948
 21
-445.2508316471244
 31
0.0
  0
LINE
  5
60A
330
77
100
AcDbEntity
  8
1
  6
Continuous
 62
     1
100
AcDbLine
 10
154.3508327369481
 20
-445.2508316471244
 30
0.0
 11
154.3508327369481
 21
-445.1404748572316
 31
0.0
  0
LINE
  5
60B
330
77
100
AcDbEntity
  8
1
  6
Continuous
 62
     1
100
AcDbLine
 10
172.950832736948
 20
-445.2508316471244
 30
0.0
 11
154.3508327369481
 21
-445.2508316471244
 31
0.0
  0
LINE
  5
60C
330
77
100
AcDbEntity
  8
1
  6
Continuous
 62
     1
100
AcDbLine
 10
145.6508327369482
 20
-322.4405238572316
 30
0.0
 11
174.650832736948
 21
-322.4405238572316
 31
0.0
  0
LINE
  5
60D
330
77
100
AcDbEntity
  8
1
  6
Continuous
 62
     1
100
AcDbLine
 10
145.650832736948
 20
-317.4405238572316
 30
0.0
 11
174.650832736948
 21
-317.4405238572316
 31
0.0
  0
LINE
  5
60E
330
77
100
AcDbEntity
  8
1
  6
Continuous
 62
     1
100
AcDbLine
 10
147.0734824677582
 20
-322.9405238572316
 30
0.0
 11
145.6508327369482
 21
-325.4046254723697
 31
0.0
  0
LINE
  5
60F
330
77
100
AcDbEntity
  8
1
  6
LONG_DASHED
 62
     3
100
AcDbLine
 10
166.2281830061382
 20
-322.9405238572316
 30
0.0
 11
166.5168581407328
 21
-323.4405238572316
 31
0.0
  0
LINE
  5
610
330
77
100
AcDbEntity
  8
1
  6
Continuous
 62
     1
100
AcDbLine
 10
145.650832736948
 20
-317.4405238572316
 30
0.0
 11
145.6508327369482
 21
-322.4405238572316
 31
0.0
  0
LINE
  5
611
330
77
100
AcDbEntity
  8
1
  6
Continuous
 62
     1
100
AcDbLine
 10
166.5168581407328
 20
-323.4405238572316
 30
0.0
 11
167.650832736948
 21
-325.4046254723697
 31
0.0
  0
LINE
  5
612
330
77
100
AcDbEntity
  8
1
  6
Continuous
 62
     1
100
AcDbLine
 10
146.150832736948
 20
-333.6905238572316
 30
0.0
 11
146.1508327369482
 21
-332.9405238572316
 31
0.0
  0
LINE
  5
613
330
77
100
AcDbEntity
  8
1
  6
Continuous
 62
     4
100
AcDbLine
 10
145.6508327369482
 20
-332.4405238572316
 30
0.0
 11
167.650832736948
 21
-332.4405238572316
 31
0.0
  0
LINE
  5
614
330
77
100
AcDbEntity
  8
1
  6
Continuous
 62
     4
100
AcDbLine
 10
167.150832736948
 20
-332.9405238572316
 30
0.0
 11
146.1508327369482
 21
-332.9405238572316
 31
0.0
  0
LINE
  5
615
330
77
100
AcDbEntity
  8
1
  6
Continuous
 62
     1
100
AcDbLine
 10
146.1508327369482
 20
-332.9405238572316
 30
0.0
 11
145.6508327369482
 21
-332.4405238572316
 31
0.0
  0
LINE
  5
616
330
77
100
AcDbEntity
  8
1
  6
Continuous
 62
     1
100
AcDbLine
 10
145.6508327369482
 20
-332.4405238572316
 30
0.0
 11
145.6508327369482
 21
-325.4046254723697
 31
0.0
  0
LINE
  5
617
330
77
100
AcDbEntity
  8
1
  6
Continuous
 62
     1
100
AcDbLine
 10
167.650832736948
 20
-325.4046254723697
 30
0.0
 11
167.650832736948
 21
-332.4405238572316
 31
0.0
  0
LINE
  5
618
330
77
100
AcDbEntity
  8
1
  6
Continuous
 62
     1
100
AcDbLine
 10
167.650832736948
 20
-332.4405238572316
 30
0.0
 11
167.150832736948
 21
-332.9405238572316
 31
0.0
  0
LINE
  5
619
330
77
100
AcDbEntity
  8
1
  6
Continuous
 62
     1
100
AcDbLine
 10
167.150832736948
 20
-332.9405238572316
 30
0.0
 11
167.150832736948
 21
-333.6905238572316
 31
0.0
  0
LINE
  5
61A
330
77
100
AcDbEntity
  8
1
  6
Continuous
 62
     1
100
AcDbLine
 10
145.6508327369482
 20
-325.4046254723697
 30
0.0
 11
167.650832736948
 21
-325.4046254723697
 31
0.0
  0
LINE
  5
61B
330
77
100
AcDbEntity
  8
1
  6
Continuous
 62
     1
100
AcDbLine
 10
159.650832736948
 20
-322.4405238572316
 30
0.0
 11
160.650832736948
 21
-323.4405238572316
 31
0.0
  0
LINE
  5
61C
330
77
100
AcDbEntity
  8
1
  6
Continuous
 62
     1
100
AcDbLine
 10
160.650832736948
 20
-323.4405238572316
 30
0.0
 11
166.650832736948
 21
-323.4405238572316
 31
0.0
  0
LINE
  5
61D
330
77
100
AcDbEntity
  8
1
  6
Continuous
 62
     1
100
AcDbLine
 10
166.650832736948
 20
-323.4405238572316
 30
0.0
 11
167.650832736948
 21
-322.4405238572316
 31
0.0
  0
LINE
  5
61E
330
77
100
AcDbEntity
  8
1
  6
Continuous
 62
     1
100
AcDbLine
 10
174.650832736948
 20
-322.4405238572316
 30
0.0
 11
174.650832736948
 21
-317.4405238572316
 31
0.0
  0
LINE
  5
61F
330
77
100
AcDbEntity
  8
1
  6
Continuous
 62
     1
100
AcDbLine
 10
167.400832736948
 20
-316.2508316471245
 30
0.0
 11
167.400832736948
 21
-317.4405238572316
 31
0.0
  0
LINE
  5
620
330
77
100
AcDbEntity
  8
1
  6
Continuous
 62
     1
100
AcDbLine
 10
159.900832736948
 20
-317.4405238572316
 30
0.0
 11
159.900832736948
 21
-316.2508316471245
 31
0.0
  0
LINE
  5
621
330
77
100
AcDbEntity
  8
1
  6
Continuous
 62
     1
100
AcDbLine
 10
169.8007289678431
 20
-316.2508316471245
 30
0.0
 11
164.150832736948
 21
-316.2508316471245
 31
0.0
  0
LINE
  5
622
330
77
100
AcDbEntity
  8
1
  6
Continuous
 62
     1
100
AcDbLine
 10
163.150832736948
 20
-316.2508316471245
 30
0.0
 11
157.5009365060531
 21
-316.2508316471245
 31
0.0
  0
LINE
  5
623
330
77
100
AcDbEntity
  8
1
  6
Continuous
 62
     1
100
AcDbLine
 10
154.350832736948
 20
-314.2508316471245
 30
0.0
 11
154.350832736948
 21
-314.1404748572317
 31
0.0
  0
LINE
  5
624
330
77
100
AcDbEntity
  8
1
  6
Continuous
 62
     1
100
AcDbLine
 10
172.9508327369479
 20
-314.1404748572317
 30
0.0
 11
172.9508327369479
 21
-314.2508316471245
 31
0.0
  0
LINE
  5
625
330
77
100
AcDbEntity
  8
1
  6
Continuous
 62
     4
100
AcDbLine
 10
158.7147036513989
 20
-316.2508316471245
 30
0.0
 11
158.198767445741
 21
-314.2508316471245
 31
0.0
  0
LINE
  5
626
330
77
100
AcDbEntity
  8
1
  6
Continuous
 62
     4
100
AcDbLine
 10
159.4218104325861
 20
-316.2508316471245
 30
0.0
 11
158.9058742269281
 21
-314.2508316471245
 31
0.0
  0
LINE
  5
627
330
77
100
AcDbEntity
  8
1
  6
Continuous
 62
     4
100
AcDbLine
 10
163.150832736948
 20
-316.2508316471245
 30
0.0
 11
163.150832736948
 21
-314.2508316471245
 31
0.0
  0
LINE
  5
628
330
77
100
AcDbEntity
  8
1
  6
Continuous
 62
     4
100
AcDbLine
 10
164.150832736948
 20
-314.2508316471245
 30
0.0
 11
164.150832736948
 21
-316.2508316471245
 31
0.0
  0
LINE
  5
629
330
77
100
AcDbEntity
  8
1
  6
Continuous
 62
     4
100
AcDbLine
 10
168.395791246969
 20
-314.2508316471245
 30
0.0
 11
167.8798550413111
 21
-316.2508316471245
 31
0.0
  0
LINE
  5
62A
330
77
100
AcDbEntity
  8
1
  6
Continuous
 62
     4
100
AcDbLine
 10
169.102898028155
 20
-314.2508316471245
 30
0.0
 11
168.586961822497
 21
-316.2508316471245
 31
0.0
  0
LINE
  5
62B
330
77
100
AcDbEntity
  8
1
  6
Continuous
 62
     1
100
AcDbLine
 10
172.9508327369479
 20
-314.2508316471245
 30
0.0
 11
154.350832736948
 21
-314.2508316471245
 31
0.0
  0
LINE
  5
62C
330
77
100
AcDbEntity
  8
1
  6
Continuous
 62
     1
100
AcDbLine
 10
170.2705752782361
 20
-315.9218417187877
 30
0.0
 11
170.878773205481
 21
-314.2508316471245
 31
0.0
  0
LINE
  5
62D
330
77
100
AcDbEntity
  8
1
  6
Continuous
 62
     1
100
AcDbLine
 10
156.4228922684161
 20
-314.2508316471245
 30
0.0
 11
157.0310901956601
 21
-315.9218417187877
 31
0.0
  0
LINE
  5
62E
330
77
100
AcDbEntity
  8
1
  6
Continuous
 62
     1
100
AcDbLine
 10
402.7337930911519
 20
-543.950437666292
 30
0.0
 11
410.7337930911519
 21
-543.950437666292
 31
0.0
  0
ARC
  5
62F
330
77
100
AcDbEntity
  8
1
  6
Continuous
 62
     1
100
AcDbCircle
 10
308.1508327369482
 20
-494.6905238572315
 30
0.0
 40
180.0000000000001
100
AcDbArc
 50
170.6334257925793
 51
180.0795774971303
  0
ARC
  5
630
330
77
100
AcDbEntity
  8
1
  6
Continuous
 62
     1
100
AcDbCircle
 10
130.8467231553169
 20
-523.9367667862804
 30
0.0
 40
0.3000000000000563
100
AcDbArc
 50
189.3665742074144
 51
290.0000000000091
  0
ARC
  5
631
330
77
100
AcDbEntity
  8
1
  6
Continuous
 62
     1
100
AcDbCircle
 10
308.1508327369482
 20
-494.6905238572315
 30
0.0
 40
180.0000000000002
100
AcDbArc
 50
180.0795774971303
 51
189.3665742074208
  0
ARC
  5
632
330
77
100
AcDbEntity
  8
1
  6
Continuous
 62
     1
100
AcDbCircle
 10
308.2429453700919
 20
-460.2212146287915
 30
0.0
 40
187.1224498682271
100
AcDbArc
 50
199.8468883573526
 51
200.1531116425982
  0
ARC
  5
633
330
77
100
AcDbEntity
  8
1
  6
Continuous
 62
     1
100
AcDbCircle
 10
130.8467231553167
 20
-465.4442809281832
 30
0.0
 40
0.3000000000001437
100
AcDbArc
 50
70.00000000001458
 51
170.6334257925687
  0
ARC
  5
634
330
77
100
AcDbEntity
  8
1
  6
Continuous
 62
     1
100
AcDbCircle
 10
308.2429453700906
 20
-529.1598330856636
 30
0.0
 40
187.1224498682231
100
AcDbArc
 50
159.8468883574039
 51
160.1531116426496
  0
ARC
  5
635
330
77
100
AcDbEntity
  8
1
  6
Continuous
 62
     4
100
AcDbCircle
 10
282.747933187847
 20
-494.6871661512497
 30
0.0
 40
155.5
100
AcDbArc
 50
179.6866453194155
 51
191.0274664620885
  0
ARC
  5
636
330
77
100
AcDbEntity
  8
1
  6
Continuous
 62
     4
100
AcDbCircle
 10
282.747933187847
 20
-494.6871661512497
 30
0.0
 40
155.5
100
AcDbArc
 50
168.9725335379115
 51
179.6866453194155
  0
ARC
  5
637
330
77
100
AcDbEntity
  8
1
  6
Continuous
 62
     4
100
AcDbCircle
 10
282.747933187847
 20
-494.6871661512497
 30
0.0
 40
154.9999999999998
100
AcDbArc
 50
168.9725335379115
 51
180.0
  0
ARC
  5
638
330
77
100
AcDbEntity
  8
1
  6
Continuous
 62
     4
100
AcDbCircle
 10
282.747933187847
 20
-494.6871661512497
 30
0.0
 40
155.0
100
AcDbArc
 50
180.0
 51
191.0274664620887
  0
ARC
  5
639
330
77
100
AcDbEntity
  8
0
  6
Continuous
 62
     3
100
AcDbCircle
 10
173.4508357369481
 20
-442.9404628572315
 30
0.0
 40
0.2999879999999848
100
AcDbArc
 50
90.00000000002172
 51
180.0
  0
ARC
  5
63A
330
77
100
AcDbEntity
  8
0
  6
Continuous
 62
     3
100
AcDbCircle
 10
175.850845736948
 20
-442.3404268572316
 30
0.0
 40
0.3000490000000013
100
AcDbArc
 50
270.0
 51
0.0
  0
ARC
  5
63B
330
77
100
AcDbEntity
  8
0
  6
Continuous
 62
     3
100
AcDbCircle
 10
175.850845736948
 20
-435.9404628572315
 30
0.0
 40
0.2999879999999848
100
AcDbArc
 50
0.0
 51
90.0
  0
ARC
  5
63C
330
77
100
AcDbEntity
  8
0
  6
Continuous
 62
     3
100
AcDbCircle
 10
171.950835736948
 20
-435.3404268572315
 30
0.0
 40
0.3000030000000038
100
AcDbArc
 50
180.0
 51
270.0
  0
ARC
  5
63D
330
77
100
AcDbEntity
  8
0
  6
Continuous
 62
     3
100
AcDbCircle
 10
171.950835736948
 20
-433.4404018572316
 30
0.0
 40
0.2999880000000417
100
AcDbArc
 50
90.0
 51
180.0
  0
ARC
  5
63E
330
77
100
AcDbEntity
  8
0
  6
Continuous
 62
     3
100
AcDbCircle
 10
175.850845736948
 20
-432.8403658572315
 30
0.0
 40
0.3000490000000013
100
AcDbArc
 50
270.0
 51
0.0
  0
ARC
  5
63F
330
77
100
AcDbEntity
  8
0
  6
Continuous
 62
     3
100
AcDbCircle
 10
175.850845736948
 20
-427.7404508572316
 30
0.0
 40
0.2999879999999848
100
AcDbArc
 50
0.0
 51
90.0
  0
ARC
  5
640
330
77
100
AcDbEntity
  8
0
  6
Continuous
 62
     3
100
AcDbCircle
 10
151.450835736948
 20
-427.7404508572316
 30
0.0
 40
0.2999880000000417
100
AcDbArc
 50
90.0
 51
180.0
  0
ARC
  5
641
330
77
100
AcDbEntity
  8
0
  6
Continuous
 62
     3
100
AcDbCircle
 10
151.450835736948
 20
-432.8403658572315
 30
0.0
 40
0.3000030000000038
100
AcDbArc
 50
180.0
 51
270.0
  0
ARC
  5
642
330
77
100
AcDbEntity
  8
0
  6
Continuous
 62
     3
100
AcDbCircle
 10
155.350845736948
 20
-433.4404018572316
 30
0.0
 40
0.2999879999999848
100
AcDbArc
 50
0.0
 51
90.0
  0
ARC
  5
643
330
77
100
AcDbEntity
  8
0
  6
Continuous
 62
     3
100
AcDbCircle
 10
155.350845736948
 20
-435.3404268572315
 30
0.0
 40
0.3000490000000013
100
AcDbArc
 50
270.0
 51
0.0
  0
ARC
  5
644
330
77
100
AcDbEntity
  8
0
  6
Continuous
 62
     3
100
AcDbCircle
 10
151.450835736948
 20
-435.9404628572315
 30
0.0
 40
0.2999879999999848
100
AcDbArc
 50
90.0
 51
180.0
  0
ARC
  5
645
330
77
100
AcDbEntity
  8
0
  6
Continuous
 62
     3
100
AcDbCircle
 10
151.450835736948
 20
-442.3404268572316
 30
0.0
 40
0.3000030000000038
100
AcDbArc
 50
180.0
 51
270.0
  0
ARC
  5
646
330
77
100
AcDbEntity
  8
0
  6
Continuous
 62
     3
100
AcDbCircle
 10
153.850845736948
 20
-442.9404628572315
 30
0.0
 40
0.2999879999999848
100
AcDbArc
 50
0.0
 51
90.0
  0
ARC
  5
647
330
77
100
AcDbEntity
  8
0
  6
Continuous
 62
     1
100
AcDbCircle
 10
150.150832736948
 20
-443.1404748572315
 30
0.0
 40
2.0
100
AcDbArc
 50
180.0
 51
270.0
  0
ARC
  5
648
330
77
100
AcDbEntity
  8
0
  6
Continuous
 62
     1
100
AcDbCircle
 10
150.150832736948
 20
-426.4404628572315
 30
0.0
 40
2.0
100
AcDbArc
 50
90.0
 51
180.0
  0
ARC
  5
649
330
77
100
AcDbEntity
  8
0
  6
Continuous
 62
     1
100
AcDbCircle
 10
177.150832736948
 20
-426.4404628572315
 30
0.0
 40
2.0
100
AcDbArc
 50
0.0
 51
90.0
  0
ARC
  5
64A
330
77
100
AcDbEntity
  8
0
  6
Continuous
 62
     1
100
AcDbCircle
 10
177.150832736948
 20
-443.1404748572315
 30
0.0
 40
2.0
100
AcDbArc
 50
270.0
 51
0.0
  0
ARC
  5
64B
330
77
100
AcDbEntity
  8
0
  6
Continuous
 62
     3
100
AcDbCircle
 10
173.650832736948
 20
-444.6404748572316
 30
0.0
 40
0.5
100
AcDbArc
 50
180.0
 51
270.0
  0
ARC
  5
64C
330
77
100
AcDbEntity
  8
0
  6
Continuous
 62
     3
100
AcDbCircle
 10
153.650832736948
 20
-444.6404748572316
 30
0.0
 40
0.5
100
AcDbArc
 50
270.0
 51
0.0
  0
ARC
  5
64D
330
77
100
AcDbEntity
  8
0
  6
Continuous
 62
     3
100
AcDbCircle
 10
173.4508357369481
 20
-311.9404628572316
 30
0.0
 40
0.2999879999999848
100
AcDbArc
 50
90.00000000002172
 51
180.0
  0
ARC
  5
64E
330
77
100
AcDbEntity
  8
0
  6
Continuous
 62
     3
100
AcDbCircle
 10
175.850845736948
 20
-311.3404268572316
 30
0.0
 40
0.3000490000000013
100
AcDbArc
 50
270.0
 51
0.0
  0
ARC
  5
64F
330
77
100
AcDbEntity
  8
0
  6
Continuous
 62
     3
100
AcDbCircle
 10
175.850845736948
 20
-304.9404628572316
 30
0.0
 40
0.2999879999999848
100
AcDbArc
 50
0.0
 51
90.0
  0
ARC
  5
650
330
77
100
AcDbEntity
  8
0
  6
Continuous
 62
     3
100
AcDbCircle
 10
171.950835736948
 20
-304.3404268572316
 30
0.0
 40
0.3000030000000038
100
AcDbArc
 50
180.0
 51
270.0
  0
ARC
  5
651
330
77
100
AcDbEntity
  8
0
  6
Continuous
 62
     3
100
AcDbCircle
 10
171.950835736948
 20
-302.4404018572316
 30
0.0
 40
0.2999880000000417
100
AcDbArc
 50
90.0
 51
180.0
  0
ARC
  5
652
330
77
100
AcDbEntity
  8
0
  6
Continuous
 62
     3
100
AcDbCircle
 10
175.850845736948
 20
-301.8403658572316
 30
0.0
 40
0.3000490000000013
100
AcDbArc
 50
270.0
 51
0.0
  0
ARC
  5
653
330
77
100
AcDbEntity
  8
0
  6
Continuous
 62
     3
100
AcDbCircle
 10
175.850845736948
 20
-296.7404508572316
 30
0.0
 40
0.2999879999999848
100
AcDbArc
 50
0.0
 51
90.0
  0
ARC
  5
654
330
77
100
AcDbEntity
  8
0
  6
Continuous
 62
     3
100
AcDbCircle
 10
151.450835736948
 20
-296.7404508572316
 30
0.0
 40
0.2999880000000417
100
AcDbArc
 50
90.0
 51
180.0
  0
ARC
  5
655
330
77
100
AcDbEntity
  8
0
  6
Continuous
 62
     3
100
AcDbCircle
 10
151.450835736948
 20
-301.8403658572316
 30
0.0
 40
0.3000030000000038
100
AcDbArc
 50
180.0
 51
270.0
  0
ARC
  5
656
330
77
100
AcDbEntity
  8
0
  6
Continuous
 62
     3
100
AcDbCircle
 10
155.350845736948
 20
-302.4404018572316
 30
0.0
 40
0.2999879999999848
100
AcDbArc
 50
0.0
 51
90.0
  0
ARC
  5
657
330
77
100
AcDbEntity
  8
0
  6
Continuous
 62
     3
100
AcDbCircle
 10
155.350845736948
 20
-304.3404268572316
 30
0.0
 40
0.3000490000000013
100
AcDbArc
 50
270.0
 51
0.0
  0
ARC
  5
658
330
77
100
AcDbEntity
  8
0
  6
Continuous
 62
     3
100
AcDbCircle
 10
151.450835736948
 20
-304.9404628572316
 30
0.0
 40
0.2999879999999848
100
AcDbArc
 50
90.0
 51
180.0
  0
ARC
  5
659
330
77
100
AcDbEntity
  8
0
  6
Continuous
 62
     3
100
AcDbCircle
 10
151.450835736948
 20
-311.3404268572316
 30
0.0
 40
0.3000030000000038
100
AcDbArc
 50
180.0
 51
270.0
  0
ARC
  5
65A
330
77
100
AcDbEntity
  8
0
  6
Continuous
 62
     3
100
AcDbCircle
 10
153.850845736948
 20
-311.9404628572316
 30
0.0
 40
0.2999879999999848
100
AcDbArc
 50
0.0
 51
90.0
  0
ARC
  5
65B
330
77
100
AcDbEntity
  8
0
  6
Continuous
 62
     1
100
AcDbCircle
 10
177.150832736948
 20
-312.1404748572316
 30
0.0
 40
2.0
100
AcDbArc
 50
270.0
 51
0.0
  0
ARC
  5
65C
330
77
100
AcDbEntity
  8
0
  6
Continuous
 62
     1
100
AcDbCircle
 10
177.150832736948
 20
-295.4404628572316
 30
0.0
 40
2.0
100
AcDbArc
 50
0.0
 51
90.0
  0
ARC
  5
65D
330
77
100
AcDbEntity
  8
0
  6
Continuous
 62
     1
100
AcDbCircle
 10
150.150832736948
 20
-295.4404628572316
 30
0.0
 40
2.0
100
AcDbArc
 50
90.0
 51
180.0
  0
ARC
  5
65E
330
77
100
AcDbEntity
  8
0
  6
Continuous
 62
     1
100
AcDbCircle
 10
150.150832736948
 20
-312.1404748572316
 30
0.0
 40
2.0
100
AcDbArc
 50
180.0
 51
270.0
  0
ARC
  5
65F
330
77
100
AcDbEntity
  8
0
  6
Continuous
 62
     3
100
AcDbCircle
 10
173.650832736948
 20
-313.6404748572316
 30
0.0
 40
0.5
100
AcDbArc
 50
180.0
 51
270.0
  0
ARC
  5
660
330
77
100
AcDbEntity
  8
0
  6
Continuous
 62
     3
100
AcDbCircle
 10
153.650832736948
 20
-313.6404748572316
 30
0.0
 40
0.5
100
AcDbArc
 50
270.0
 51
0.0
  0
ARC
  5
661
330
77
100
AcDbEntity
  8
1
  6
Continuous
 62
     1
100
AcDbCircle
 10
135.8467231553169
 20
-392.9367667862805
 30
0.0
 40
0.3000000000000655
100
AcDbArc
 50
189.3665742074251
 51
290.0000000000091
  0
ARC
  5
662
330
77
100
AcDbEntity
  8
1
  6
Continuous
 62
     1
100
AcDbCircle
 10
313.1508327369482
 20
-363.6905238572316
 30
0.0
 40
180.0000000000001
100
AcDbArc
 50
170.6334257925793
 51
189.3665742074208
  0
ARC
  5
663
330
77
100
AcDbEntity
  8
1
  6
Continuous
 62
     1
100
AcDbCircle
 10
313.2429453700919
 20
-329.2212146287916
 30
0.0
 40
187.1224498682271
100
AcDbArc
 50
199.8468883573526
 51
200.1531116425982
  0
ARC
  5
664
330
77
100
AcDbEntity
  8
1
  6
Continuous
 62
     1
100
AcDbCircle
 10
135.8467231553167
 20
-334.4442809281832
 30
0.0
 40
0.3000000000001437
100
AcDbArc
 50
70.00000000001458
 51
170.6334257925687
  0
ARC
  5
665
330
77
100
AcDbEntity
  8
1
  6
Continuous
 62
     1
100
AcDbCircle
 10
313.2429453700906
 20
-398.1598330856636
 30
0.0
 40
187.1224498682231
100
AcDbArc
 50
159.8468883574039
 51
160.1531116426496
  0
ARC
  5
666
330
77
100
AcDbEntity
  8
1
  6
Continuous
 62
     4
100
AcDbCircle
 10
287.747933187847
 20
-363.6871661512497
 30
0.0
 40
155.5
100
AcDbArc
 50
179.6866453194155
 51
191.0274664620885
  0
ARC
  5
667
330
77
100
AcDbEntity
  8
1
  6
Continuous
 62
     4
100
AcDbCircle
 10
287.747933187847
 20
-363.6871661512497
 30
0.0
 40
155.5
100
AcDbArc
 50
168.9725335379115
 51
179.6866453194155
  0
ARC
  5
668
330
77
100
AcDbEntity
  8
1
  6
Continuous
 62
     4
100
AcDbCircle
 10
287.747933187847
 20
-363.6871661512497
 30
0.0
 40
154.9999999999998
100
AcDbArc
 50
168.9725335379115
 51
180.0
  0
ARC
  5
669
330
77
100
AcDbEntity
  8
1
  6
Continuous
 62
     4
100
AcDbCircle
 10
287.747933187847
 20
-363.6871661512497
 30
0.0
 40
155.0
100
AcDbArc
 50
180.0
 51
191.0274664620887
  0
CIRCLE
  5
66A
330
77
100
AcDbEntity
  8
1
  6
Continuous
 62
     4
100
AcDbCircle
 10
151.650832736948
 20
-496.4405238572315
 30
0.0
 40
21.25
  0
CIRCLE
  5
66B
330
77
100
AcDbEntity
  8
1
  6
Continuous
 62
     4
100
AcDbCircle
 10
151.650832736948
 20
-496.4405238572315
 30
0.0
 40
21.60000000000002
  0
CIRCLE
  5
66C
330
77
100
AcDbEntity
  8
1
  6
Continuous
 62
     1
100
AcDbCircle
 10
137.650832736948
 20
-496.4405238572315
 30
0.0
 40
2.5
  0
CIRCLE
  5
66D
330
77
100
AcDbEntity
  8
1
  6
Continuous
 62
     1
100
AcDbCircle
 10
165.650832736948
 20
-496.4405238572315
 30
0.0
 40
2.5
  0
CIRCLE
  5
66E
330
77
100
AcDbEntity
  8
1
  6
Continuous
 62
     4
100
AcDbCircle
 10
156.650832736948
 20
-365.4405238572316
 30
0.0
 40
21.25
  0
CIRCLE
  5
66F
330
77
100
AcDbEntity
  8
1
  6
Continuous
 62
     4
100
AcDbCircle
 10
156.650832736948
 20
-365.4405238572316
 30
0.0
 40
21.60000000000002
  0
CIRCLE
  5
670
330
77
100
AcDbEntity
  8
1
  6
Continuous
 62
     1
100
AcDbCircle
 10
142.650832736948
 20
-365.4405238572316
 30
0.0
 40
2.5
  0
CIRCLE
  5
671
330
77
100
AcDbEntity
  8
1
  6
Continuous
 62
     1
100
AcDbCircle
 10
170.650832736948
 20
-365.4405238572316
 30
0.0
 40
2.5
  0
ARC
  5
672
330
77
100
AcDbEntity
  8
1
  6
Continuous
 62
     4
100
AcDbCircle
 10
130.6099150939614
 20
-524.3354957916276
 30
0.0
 40
0.5000000000001482
100
AcDbArc
 50
191.027466462028
 51
289.9999999999786
  0
ARC
  5
673
330
77
100
AcDbEntity
  8
1
  6
Continuous
 62
     4
100
AcDbCircle
 10
130.6099150939614
 20
-465.0388365108725
 30
0.0
 40
0.4999999999999902
100
AcDbArc
 50
70.00000000001688
 51
168.9725335379144
  0
ARC
  5
674
330
77
100
AcDbEntity
  8
1
  6
Continuous
 62
     4
100
AcDbCircle
 10
135.6099150939614
 20
-393.3354957916276
 30
0.0
 40
0.5000000000001589
100
AcDbArc
 50
191.0274664620344
 51
289.9999999999786
  0
ARC
  5
675
330
77
100
AcDbEntity
  8
1
  6
Continuous
 62
     4
100
AcDbCircle
 10
135.6099150939614
 20
-334.0388365108726
 30
0.0
 40
0.4999999999999902
100
AcDbArc
 50
70.00000000001688
 51
168.9725335379144
  0
ARC
  5
676
330
77
100
AcDbEntity
  8
1
  6
Continuous
 62
     3
100
AcDbCircle
 10
150.000832736948
 20
-312.1405238572316
 30
0.0
 40
2.0
100
AcDbArc
 50
180.0
 51
270.0
  0
ARC
  5
677
330
77
100
AcDbEntity
  8
1
  6
Continuous
 62
     3
100
AcDbCircle
 10
177.300832736948
 20
-312.1405238572316
 30
0.0
 40
2.0
100
AcDbArc
 50
270.0
 51
0.0
  0
ARC
  5
678
330
77
100
AcDbEntity
  8
1
  6
Continuous
 62
     3
100
AcDbCircle
 10
160.362157602353
 20
-454.4405238572315
 30
0.0
 40
1.000000000000672
100
AcDbArc
 50
29.99999999997775
 51
90.0
  0
ARC
  5
679
330
77
100
AcDbEntity
  8
1
  6
Continuous
 62
     1
100
AcDbCircle
 10
142.9395078715432
 20
-454.4405238572315
 30
0.0
 40
1.0
100
AcDbArc
 50
90.0
 51
150.0000000000165
  0
ARC
  5
67A
330
77
100
AcDbEntity
  8
1
  6
Continuous
 62
     1
100
AcDbCircle
 10
142.9395078715432
 20
-454.4405238572315
 30
0.0
 40
1.0
100
AcDbArc
 50
90.0
 51
150.0000000000165
  0
ARC
  5
67B
330
77
100
AcDbEntity
  8
1
  6
Continuous
 62
     1
100
AcDbCircle
 10
157.5009365060531
 20
-446.7508316471245
 30
0.0
 40
0.5000000000001262
100
AcDbArc
 50
200.0000000000259
 51
270.0
  0
ARC
  5
67C
330
77
100
AcDbEntity
  8
1
  6
Continuous
 62
     1
100
AcDbCircle
 10
169.8007289678432
 20
-446.7508316471245
 30
0.0
 40
0.5
100
AcDbArc
 50
270.0
 51
339.999999999974
  0
ARC
  5
67D
330
77
100
AcDbEntity
  8
1
  6
Continuous
 62
     3
100
AcDbCircle
 10
165.362157602353
 20
-323.4405238572316
 30
0.0
 40
1.000000000000672
100
AcDbArc
 50
29.99999999997775
 51
90.0
  0
ARC
  5
67E
330
77
100
AcDbEntity
  8
1
  6
Continuous
 62
     1
100
AcDbCircle
 10
147.9395078715432
 20
-323.4405238572316
 30
0.0
 40
1.0
100
AcDbArc
 50
90.0
 51
150.0000000000165
  0
ARC
  5
67F
330
77
100
AcDbEntity
  8
1
  6
Continuous
 62
     1
100
AcDbCircle
 10
147.9395078715432
 20
-323.4405238572316
 30
0.0
 40
1.0
100
AcDbArc
 50
90.0
 51
150.0000000000165
  0
ARC
  5
680
330
77
100
AcDbEntity
  8
1
  6
Continuous
 62
     1
100
AcDbCircle
 10
157.5009365060531
 20
-315.7508316471245
 30
0.0
 40
0.5000000000001457
100
AcDbArc
 50
200.0000000000321
 51
270.0
  0
ARC
  5
681
330
77
100
AcDbEntity
  8
1
  6
Continuous
 62
     1
100
AcDbCircle
 10
169.8007289678431
 20
-315.7508316471245
 30
0.0
 40
0.5
100
AcDbArc
 50
270.0
 51
339.9999999999679
  0
TEXT
  5
683
330
77
100
AcDbEntity
  8
0
 62
     3
100
AcDbText
 10
264.860213736948
 20
-540.6905238572315
 30
0.0
 40
2.0
  1
utiliser.
 41
0.792
  7
CONVERTER_17
100
AcDbText
  0
TEXT
  5
684
330
77
100
AcDbEntity
  8
0
 62
     3
100
AcDbText
 10
264.860213736948
 20
-536.6905238572315
 30
0.0
 40
2.0
  1
26mm de deport de l%%daxe de rotation est a
 41
0.792
  7
CONVERTER_17
100
AcDbText
  0
TEXT
  5
685
330
77
100
AcDbEntity
  8
0
 62
     3
100
AcDbText
 10
264.860335736948
 20
-532.6905238572315
 30
0.0
 40
2.0
  1
Pour angle d%%douverture de 180%%d une paumelle a
 41
0.792
  7
CONVERTER_17
100
AcDbText
  0
TEXT
  5
686
330
77
100
AcDbEntity
  8
0
 62
     3
100
AcDbText
 10
264.860335736948
 20
-526.1905238572316
 30
0.0
 40
2.0
  1
to surface door has to be used.
 41
0.792
  7
CONVERTER_17
100
AcDbText
  0
TEXT
  5
687
330
77
100
AcDbEntity
  8
0
 62
     3
100
AcDbText
 10
264.860335736948
 20
-522.1905238572316
 30
0.0
 40
2.0
  1
hinge with a size of 26mm from pivot centre
 41
0.792
  7
CONVERTER_17
100
AcDbText
  0
TEXT
  5
688
330
77
100
AcDbEntity
  8
0
 62
     4
100
AcDbText
 10
264.860335736948
 20
-511.6905238572315
 30
0.0
 40
3.0
  1
abstand verwendet werden.
 41
0.792
  7
CONVERTER_17
100
AcDbText
  0
TEXT
  5
689
330
77
100
AcDbEntity
  8
0
 62
     3
100
AcDbText
 10
264.860335736948
 20
-518.1905238572316
 30
0.0
 40
2.0
  1
In case door leaf opens 180%%d,offset type of
 41
0.792
  7
CONVERTER_17
100
AcDbText
  0
TEXT
  5
68A
330
77
100
AcDbEntity
  8
0
 62
     4
100
AcDbText
 10
264.860335736948
 20
-505.6905238572316
 30
0.0
 40
3.0
  1
Einbohrband mit 26mm Drehpunkt-
 41
0.792
  7
CONVERTER_17
100
AcDbText
  0
TEXT
  5
68B
330
77
100
AcDbEntity
  8
0
 62
     4
100
AcDbText
 10
264.860335736948
 20
-499.6905238572316
 30
0.0
 40
3.0
  1
Bei 180° Öffnungswinkel muß ein
 41
0.792
  7
CONVERTER_17
100
AcDbText
  0
DIMENSION
  5
696
330
77
100
AcDbEntity
  8
1
100
AcDbDimension
  2
*D42
 10
245.6518247061202
 20
-326.9405238572316
 30
0.0
 11
241.9018247061202
 21
-334.6368294201316
 31
0.0
 70
   160
  1
<>
 71
     5
 42
15.0
 53
90.0
  3
ME10_DIM_28
100
AcDbAlignedDimension
 13
196.178420736948
 23
-341.9405238572316
 33
0.0
 14
181.400832736948
 24
-326.9405238572316
 34
0.0
 50
90.0
100
AcDbRotatedDimension
  0
DIMENSION
  5
6B3
330
77
100
AcDbEntity
  8
1
100
AcDbDimension
  2
*D44
 10
245.6449648799433
 20
-457.9405238572316
 30
0.0
 11
241.8949648799433
 21
-479.5952735617847
 31
0.0
 70
   160
  1
<>
 71
     5
 42
42.0
 53
90.0
  3
ME10_DIM_29
100
AcDbAlignedDimension
 13
197.2091805453583
 23
-499.9405238572316
 33
0.0
 14
181.400832736948
 24
-457.9405238572316
 34
0.0
 50
90.0
100
AcDbRotatedDimension
  0
DIMENSION
  5
6D0
330
77
100
AcDbEntity
  8
1
100
AcDbDimension
  2
*D46
 10
141.056408954545
 20
-326.9405238572316
 30
0.0
 11
137.806408954545
 21
-309.7281184646106
 31
0.0
 70
   160
  1
33
 71
     5
 42
33.50006100000002
 53
90.0
  3
ME10_DIM_30
100
AcDbAlignedDimension
 13
150.150832736948
 23
-293.4404628572316
 33
0.0
 14
175.7214199920726
 24
-326.9405238572316
 34
0.0
 50
270.0
100
AcDbRotatedDimension
  0
DIMENSION
  5
6ED
330
77
100
AcDbEntity
  8
1
100
AcDbDimension
  2
*D48
 10
136.29128162878
 20
-457.9405238572316
 30
0.0
 11
133.04128162878
 21
-441.4416276099905
 31
0.0
 70
   160
  1
33
 71
     5
 42
33.50006100000002
 53
90.0
  3
ME10_DIM_31
100
AcDbAlignedDimension
 13
150.150832736948
 23
-424.4404628572316
 33
0.0
 14
168.0242081503819
 24
-457.9405238572316
 34
0.0
 50
90.0
100
AcDbRotatedDimension
  0
DIMENSION
  5
70A
330
77
100
AcDbEntity
  8
1
100
AcDbDimension
  2
*D50
 10
255.3810181752672
 20
-385.9405238572316
 30
0.0
 11
251.6310181752672
 21
-362.8914734675176
 31
0.0
 70
   160
  1
<>
 71
     5
 42
44.0
 53
90.0
  3
ME10_DIM_32
100
AcDbAlignedDimension
 13
196.178420736948
 23
-341.9405238572316
 33
0.0
 14
196.178420736948
 24
-385.9405238572316
 34
0.0
 50
90.0
100
AcDbRotatedDimension
  0
DIMENSION
  5
727
330
77
100
AcDbEntity
  8
1
100
AcDbDimension
  2
*D52
 10
255.3810181752672
 20
-341.9405238572316
 30
0.0
 11
251.6310181752672
 21
-322.9405238572316
 31
0.0
 70
   160
  1
<>
 71
     5
 42
38.0
 53
90.0
  3
ME10_DIM_33
100
AcDbAlignedDimension
 13
195.450881736948
 23
-303.9405238572316
 33
0.0
 14
196.178420736948
 24
-341.9405238572316
 34
0.0
 50
90.0
100
AcDbRotatedDimension
  0
DIMENSION
  5
744
330
77
100
AcDbEntity
  8
1
100
AcDbDimension
  2
*D54
 10
255.5642735317066
 20
-515.9405238572316
 30
0.0
 11
251.8142735317066
 21
-507.9361554239656
 31
0.0
 70
   160
  1
<>
 71
     5
 42
16.00000000000006
 53
90.0
  3
ME10_DIM_34
100
AcDbAlignedDimension
 13
197.2091805453583
 23
-499.9405238572316
 33
0.0
 14
195.8327288611666
 24
-515.9405238572316
 34
0.0
 50
90.0
100
AcDbRotatedDimension
  0
DIMENSION
  5
761
330
77
100
AcDbEntity
  8
1
100
AcDbDimension
  2
*D56
 10
255.5642735317066
 20
-499.9405238572316
 30
0.0
 11
251.8142735317066
 21
-467.4405238572315
 31
0.0
 70
   160
  1
<>
 71
     5
 42
65.0
 53
90.0
  3
ME10_DIM_35
100
AcDbAlignedDimension
 13
195.450759736948
 23
-434.9405238572315
 33
0.0
 14
197.2091805453583
 24
-499.9405238572316
 34
0.0
 50
90.0
100
AcDbRotatedDimension
  0
ENDSEC
  0
SECTION
  2
OBJECTS
  0
DICTIONARY
  5
C
330
0
100
AcDbDictionary
281
     1
  3
ACAD_COLOR
350
6E
  3
ACAD_GROUP
350
D
  3
ACAD_LAYOUT
350
6D
  3
ACAD_MATERIAL
350
10
  3
ACAD_MLEADERSTYLE
350
71
  3
ACAD_MLINESTYLE
350
6A
  3
ACAD_PLOTSETTINGS
350
6C
  3
ACAD_PLOTSTYLENAME
350
E
  3
ACAD_SCALELIST
350
3D
  3
ACAD_TABLESTYLE
350
6F
  3
ACAD_VISUALSTYLE
350
29
  3
ACDB_RECOMPOSE_DATA
350
77F
  3
AcDbVariableDictionary
350
774
  0
DICTIONARY
  5
6E
102
{ACAD_REACTORS
330
C
102
}
330
C
100
AcDbDictionary
281
     1
  0
DICTIONARY
  5
D
102
{ACAD_REACTORS
330
C
102
}
330
C
100
AcDbDictionary
281
     1
  0
DICTIONARY
  5
6D
102
{ACAD_REACTORS
330
C
102
}
330
C
100
AcDbDictionary
281
     1
  3
Layout1
350
76
  3
Layout2
350
7E
  3
Model
350
7A
  0
DICTIONARY
  5
10
102
{ACAD_REACTORS
330
C
102
}
330
C
100
AcDbDictionary
281
     1
  3
ByBlock
350
19
  3
ByLayer
350
11
  3
Global
350
21
  0
DICTIONARY
  5
71
102
{ACAD_REACTORS
330
C
102
}
330
C
100
AcDbDictionary
281
     1
  3
Standard
350
72
  0
DICTIONARY
  5
6A
102
{ACAD_REACTORS
330
C
102
}
330
C
100
AcDbDictionary
281
     1
  3
Standard
350
6B
  0
DICTIONARY
  5
6C
102
{ACAD_REACTORS
330
C
102
}
330
C
100
AcDbDictionary
281
     1
  0
ACDBDICTIONARYWDFLT
  5
E
102
{ACAD_REACTORS
330
C
102
}
330
C
100
AcDbDictionary
281
     1
  3
Normal
350
F
100
AcDbDictionaryWithDefault
340
F
  0
DICTIONARY
  5
3D
102
{ACAD_REACTORS
330
C
102
}
330
C
100
AcDbDictionary
281
     1
  3
A0
350
3E
  3
A1
350
3F
  3
A2
350
40
  3
A3
350
41
  3
A4
350
42
  3
A5
350
43
  3
A6
350
44
  3
A7
350
45
  3
A8
350
46
  3
A9
350
47
  3
B0
350
48
  3
B1
350
49
  3
B2
350
4A
  3
B3
350
4B
  3
B4
350
4C
  3
B5
350
4D
  3
B6
350
4E
  3
B7
350
4F
  3
B8
350
50
  3
B9
350
51
  3
C0
350
52
  3
C1
350
53
  3
C2
350
54
  3
C3
350
55
  3
C4
350
56
  3
C5
350
57
  3
C6
350
58
  3
C7
350
59
  3
C8
350
5A
  3
C9
350
5B
  3
D0
350
5C
  3
D1
350
5D
  3
D2
350
5E
  0
DICTIONARY
  5
6F
102
{ACAD_REACTORS
330
C
102
}
330
C
100
AcDbDictionary
281
     1
  3
Standard
350
70
  0
DICTIONARY
  5
29
102
{ACAD_REACTORS
330
C
102
}
330
C
100
AcDbDictionary
281
     1
  3
2dWireframe
350
2F
  3
3D Hidden
350
31
  3
3dWireframe
350
30
  3
Basic
350
2E
  3
Brighten
350
35
  3
ColorChange
350
39
  3
Conceptual
350
32
  3
Dim
350
34
  3
EdgeColorOff
350
3C
  3
Facepattern
350
38
  3
Flat
350
2A
  3
FlatWithEdges
350
2B
  3
Gouraud
350
2C
  3
GouraudWithEdges
350
2D
  3
JitterOff
350
3A
  3
Linepattern
350
37
  3
OverhangOff
350
3B
  3
Realistic
350
33
  3
Thicken
350
36
  0
XRECORD
  5
77F
102
{ACAD_REACTORS
330
C
102
}
330
C
100
AcDbXrecord
280
     1
 90
        1
330
70
  0
DICTIONARY
  5
774
102
{ACAD_REACTORS
330
C
102
}
330
C
100
AcDbDictionary
281
     1
  3
CANNOSCALE
350
778
  3
CMLEADERSTYLE
350
776
  3
CTABLESTYLE
350
775
  3
LAYEREVAL
350
77A
  3
LAYERNOTIFY
350
77B
  3
LIGHTINGUNITS
350
779
  3
MSLTSCALE
350
777
  3
XCLIPFRAME
350
77C
  0
LAYOUT
  5
76
102
{ACAD_REACTORS
330
6D
102
}
330
6D
100
AcDbPlotSettings
  1

  2

  4

  6

 40
0.0
 41
0.0
 42
0.0
 43
0.0
 44
0.0
 45
0.0
 46
0.0
 47
0.0
 48
0.0
 49
0.0
140
0.0
141
0.0
142
1.0
143
1.0
 70
   688
 72
     0
 73
     0
 74
     5
  7

 75
    16
147
1.0
 76
     0
 77
     2
 78
   300
148
0.0
149
0.0
100
AcDbLayout
  1
Layout1
 70
     1
 71
     1
 10
0.0
 20
0.0
 11
12.0
 21
9.0
 12
0.0
 22
0.0
 32
0.0
 14
0.0
 24
0.0
 34
0.0
 15
0.0
 25
0.0
 35
0.0
146
0.0
 13
0.0
 23
0.0
 33
0.0
 16
1.0
 26
0.0
 36
0.0
 17
0.0
 27
1.0
 37
0.0
 76
     0
330
73
  0
LAYOUT
  5
7E
102
{ACAD_REACTORS
330
6D
102
}
330
6D
100
AcDbPlotSettings
  1

  2

  4

  6

 40
0.0
 41
0.0
 42
0.0
 43
0.0
 44
0.0
 45
0.0
 46
0.0
 47
0.0
 48
0.0
 49
0.0
140
0.0
141
0.0
142
1.0
143
1.0
 70
   688
 72
     0
 73
     0
 74
     5
  7

 75
    16
147
1.0
 76
     0
 77
     2
 78
   300
148
0.0
149
0.0
100
AcDbLayout
  1
Layout2
 70
     1
 71
     2
 10
0.0
 20
0.0
 11
12.0
 21
9.0
 12
0.0
 22
0.0
 32
0.0
 14
0.0
 24
0.0
 34
0.0
 15
0.0
 25
0.0
 35
0.0
146
0.0
 13
0.0
 23
0.0
 33
0.0
 16
1.0
 26
0.0
 36
0.0
 17
0.0
 27
1.0
 37
0.0
 76
     0
330
7B
  0
LAYOUT
  5
7A
102
{ACAD_REACTORS
330
6D
102
}
330
6D
100
AcDbPlotSettings
  1

  2

  4

  6

 40
0.0
 41
0.0
 42
0.0
 43
0.0
 44
0.0
 45
0.0
 46
0.0
 47
0.0
 48
0.0
 49
0.0
140
0.0
141
0.0
142
1.0
143
1.0
 70
  1712
 72
     0
 73
     0
 74
     0
  7

 75
     0
147
1.0
 76
     0
 77
     2
 78
   300
148
0.0
149
0.0
100
AcDbLayout
  1
Model
 70
     1
 71
     0
 10
0.0
 20
0.0
 11
12.0
 21
9.0
 12
0.0
 22
0.0
 32
0.0
 14
0.0
 24
0.0
 34
0.0
 15
0.0
 25
0.0
 35
0.0
146
0.0
 13
0.0
 23
0.0
 33
0.0
 16
1.0
 26
0.0
 36
0.0
 17
0.0
 27
1.0
 37
0.0
 76
     0
330
77
  0
MATERIAL
  5
19
102
{ACAD_XDICTIONARY
360
1A
102
}
102
{ACAD_REACTORS
330
10
102
}
330
10
100
AcDbMaterial
  1
ByBlock
 72
     0
 43
0.0208333333333333
 43
0.0
 43
0.0
 43
0.0
 43
0.0
 43
0.0208333333333333
 43
0.0
 43
0.0
 43
0.0
 43
0.0
 43
1.0
 43
0.0
 43
0.0
 43
0.0
 43
0.0
 43
1.0
 77
     0
 47
0.0208333333333333
 47
0.0
 47
0.0
 47
0.0
 47
0.0
 47
0.0208333333333333
 47
0.0
 47
0.0
 47
0.0
 47
0.0
 47
1.0
 47
0.0
 47
0.0
 47
0.0
 47
0.0
 47
1.0
171
     0
 49
0.0208333333333333
 49
0.0
 49
0.0
 49
0.0
 49
0.0
 49
0.0208333333333333
 49
0.0
 49
0.0
 49
0.0
 49
0.0
 49
1.0
 49
0.0
 49
0.0
 49
0.0
 49
0.0
 49
1.0
175
     0
142
0.0208333333333333
142
0.0
142
0.0
142
0.0
142
0.0
142
0.0208333333333333
142
0.0
142
0.0
142
0.0
142
0.0
142
1.0
142
0.0
142
0.0
142
0.0
142
0.0
142
1.0
179
     0
144
0.0208333333333333
144
0.0
144
0.0
144
0.0
144
0.0
144
0.0208333333333333
144
0.0
144
0.0
144
0.0
144
0.0
144
1.0
144
0.0
144
0.0
144
0.0
144
0.0
144
1.0
147
0.0208333333333333
147
0.0
147
0.0
147
0.0
147
0.0
147
0.0208333333333333
147
0.0
147
0.0
147
0.0
147
0.0
147
1.0
147
0.0
147
0.0
147
0.0
147
0.0
147
1.0
  0
MATERIAL
  5
11
102
{ACAD_XDICTIONARY
360
12
102
}
102
{ACAD_REACTORS
330
10
102
}
330
10
100
AcDbMaterial
  1
ByLayer
 72
     0
 43
0.0208333333333333
 43
0.0
 43
0.0
 43
0.0
 43
0.0
 43
0.0208333333333333
 43
0.0
 43
0.0
 43
0.0
 43
0.0
 43
1.0
 43
0.0
 43
0.0
 43
0.0
 43
0.0
 43
1.0
 77
     0
 47
0.0208333333333333
 47
0.0
 47
0.0
 47
0.0
 47
0.0
 47
0.0208333333333333
 47
0.0
 47
0.0
 47
0.0
 47
0.0
 47
1.0
 47
0.0
 47
0.0
 47
0.0
 47
0.0
 47
1.0
171
     0
 49
0.0208333333333333
 49
0.0
 49
0.0
 49
0.0
 49
0.0
 49
0.0208333333333333
 49
0.0
 49
0.0
 49
0.0
 49
0.0
 49
1.0
 49
0.0
 49
0.0
 49
0.0
 49
0.0
 49
1.0
175
     0
142
0.0208333333333333
142
0.0
142
0.0
142
0.0
142
0.0
142
0.0208333333333333
142
0.0
142
0.0
142
0.0
142
0.0
142
1.0
142
0.0
142
0.0
142
0.0
142
0.0
142
1.0
179
     0
144
0.0208333333333333
144
0.0
144
0.0
144
0.0
144
0.0
144
0.0208333333333333
144
0.0
144
0.0
144
0.0
144
0.0
144
1.0
144
0.0
144
0.0
144
0.0
144
0.0
144
1.0
147
0.0208333333333333
147
0.0
147
0.0
147
0.0
147
0.0
147
0.0208333333333333
147
0.0
147
0.0
147
0.0
147
0.0
147
1.0
147
0.0
147
0.0
147
0.0
147
0.0
147
1.0
  0
MATERIAL
  5
21
102
{ACAD_XDICTIONARY
360
22
102
}
102
{ACAD_REACTORS
330
10
102
}
330
10
100
AcDbMaterial
  1
Global
 72
     0
 43
0.0208333333333333
 43
0.0
 43
0.0
 43
0.0
 43
0.0
 43
0.0208333333333333
 43
0.0
 43
0.0
 43
0.0
 43
0.0
 43
1.0
 43
0.0
 43
0.0
 43
0.0
 43
0.0
 43
1.0
 77
     0
 47
0.0208333333333333
 47
0.0
 47
0.0
 47
0.0
 47
0.0
 47
0.0208333333333333
 47
0.0
 47
0.0
 47
0.0
 47
0.0
 47
1.0
 47
0.0
 47
0.0
 47
0.0
 47
0.0
 47
1.0
171
     0
 49
0.0208333333333333
 49
0.0
 49
0.0
 49
0.0
 49
0.0
 49
0.0208333333333333
 49
0.0
 49
0.0
 49
0.0
 49
0.0
 49
1.0
 49
0.0
 49
0.0
 49
0.0
 49
0.0
 49
1.0
175
     0
142
0.0208333333333333
142
0.0
142
0.0
142
0.0
142
0.0
142
0.0208333333333333
142
0.0
142
0.0
142
0.0
142
0.0
142
1.0
142
0.0
142
0.0
142
0.0
142
0.0
142
1.0
179
     0
144
0.0208333333333333
144
0.0
144
0.0
144
0.0
144
0.0
144
0.0208333333333333
144
0.0
144
0.0
144
0.0
144
0.0
144
1.0
144
0.0
144
0.0
144
0.0
144
0.0
144
1.0
147
0.0208333333333333
147
0.0
147
0.0
147
0.0
147
0.0
147
0.0208333333333333
147
0.0
147
0.0
147
0.0
147
0.0
147
1.0
147
0.0
147
0.0
147
0.0
147
0.0
147
1.0
  0
MLEADERSTYLE
  5
72
102
{ACAD_REACTORS
330
71
102
}
330
71
100
AcDbMLeaderStyle
170
     2
171
     1
172
     0
 90
        2
 40
0.0
 41
0.0
173
     1
 91
-1056964608
340
66
 92
       -2
290
     1
 42
0.09
291
     1
 43
0.36
  3
Standard
 44
0.18
300

342
60
174
     1
178
     6
175
     1
176
     0
 93
-1056964608
 45
0.18
292
     0
297
     0
 46
0.18
 94
-1056964608
 47
1.0
 49
1.0
140
1.0
293
     1
141
0.0
294
     1
177
     0
142
1.0
295
     0
296
     0
143
0.125
1001
ACAD_MLEADERVER
1070
     2
  0
MLINESTYLE
  5
6B
102
{ACAD_REACTORS
330
6A
102
}
330
6A
100
AcDbMlineStyle
  2
STANDARD
 70
     0
  3

 62
   256
 51
90.0
 52
90.0
 71
     2
 49
0.5
 62
   256
  6
BYLAYER
 49
-0.5
 62
   256
  6
BYLAYER
  0
ACDBPLACEHOLDER
  5
F
102
{ACAD_REACTORS
330
E
102
}
330
E
  0
SCALE
  5
3E
102
{ACAD_REACTORS
330
3D
102
}
330
3D
100
AcDbScale
 70
     0
300
1:1
140
1.0
141
1.0
290
     1
  0
SCALE
  5
3F
102
{ACAD_REACTORS
330
3D
102
}
330
3D
100
AcDbScale
 70
     0
300
1:2
140
1.0
141
2.0
290
     0
  0
SCALE
  5
40
102
{ACAD_REACTORS
330
3D
102
}
330
3D
100
AcDbScale
 70
     0
300
1:4
140
1.0
141
4.0
290
     0
  0
SCALE
  5
41
102
{ACAD_REACTORS
330
3D
102
}
330
3D
100
AcDbScale
 70
     0
300
1:5
140
1.0
141
5.0
290
     0
  0
SCALE
  5
42
102
{ACAD_REACTORS
330
3D
102
}
330
3D
100
AcDbScale
 70
     0
300
1:8
140
1.0
141
8.0
290
     0
  0
SCALE
  5
43
102
{ACAD_REACTORS
330
3D
102
}
330
3D
100
AcDbScale
 70
     0
300
1:10
140
1.0
141
10.0
290
     0
  0
SCALE
  5
44
102
{ACAD_REACTORS
330
3D
102
}
330
3D
100
AcDbScale
 70
     0
300
1:16
140
1.0
141
16.0
290
     0
  0
SCALE
  5
45
102
{ACAD_REACTORS
330
3D
102
}
330
3D
100
AcDbScale
 70
     0
300
1:20
140
1.0
141
20.0
290
     0
  0
SCALE
  5
46
102
{ACAD_REACTORS
330
3D
102
}
330
3D
100
AcDbScale
 70
     0
300
1:30
140
1.0
141
30.0
290
     0
  0
SCALE
  5
47
102
{ACAD_REACTORS
330
3D
102
}
330
3D
100
AcDbScale
 70
     0
300
1:40
140
1.0
141
40.0
290
     0
  0
SCALE
  5
48
102
{ACAD_REACTORS
330
3D
102
}
330
3D
100
AcDbScale
 70
     0
300
1:50
140
1.0
141
50.0
290
     0
  0
SCALE
  5
49
102
{ACAD_REACTORS
330
3D
102
}
330
3D
100
AcDbScale
 70
     0
300
1:100
140
1.0
141
100.0
290
     0
  0
SCALE
  5
4A
102
{ACAD_REACTORS
330
3D
102
}
330
3D
100
AcDbScale
 70
     0
300
2:1
140
2.0
141
1.0
290
     0
  0
SCALE
  5
4B
102
{ACAD_REACTORS
330
3D
102
}
330
3D
100
AcDbScale
 70
     0
300
4:1
140
4.0
141
1.0
290
     0
  0
SCALE
  5
4C
102
{ACAD_REACTORS
330
3D
102
}
330
3D
100
AcDbScale
 70
     0
300
8:1
140
8.0
141
1.0
290
     0
  0
SCALE
  5
4D
102
{ACAD_REACTORS
330
3D
102
}
330
3D
100
AcDbScale
 70
     0
300
10:1
140
10.0
141
1.0
290
     0
  0
SCALE
  5
4E
102
{ACAD_REACTORS
330
3D
102
}
330
3D
100
AcDbScale
 70
     0
300
100:1
140
100.0
141
1.0
290
     0
  0
SCALE
  5
4F
102
{ACAD_REACTORS
330
3D
102
}
330
3D
100
AcDbScale
 70
     0
300
1/128" = 1'-0"
140
0.0078125
141
12.0
290
     0
  0
SCALE
  5
50
102
{ACAD_REACTORS
330
3D
102
}
330
3D
100
AcDbScale
 70
     0
300
1/64" = 1'-0"
140
0.015625
141
12.0
290
     0
  0
SCALE
  5
51
102
{ACAD_REACTORS
330
3D
102
}
330
3D
100
AcDbScale
 70
     0
300
1/32" = 1'-0"
140
0.03125
141
12.0
290
     0
  0
SCALE
  5
52
102
{ACAD_REACTORS
330
3D
102
}
330
3D
100
AcDbScale
 70
     0
300
1/16" = 1'-0"
140
0.0625
141
12.0
290
     0
  0
SCALE
  5
53
102
{ACAD_REACTORS
330
3D
102
}
330
3D
100
AcDbScale
 70
     0
300
3/32" = 1'-0"
140
0.09375
141
12.0
290
     0
  0
SCALE
  5
54
102
{ACAD_REACTORS
330
3D
102
}
330
3D
100
AcDbScale
 70
     0
300
1/8" = 1'-0"
140
0.125
141
12.0
290
     0
  0
SCALE
  5
55
102
{ACAD_REACTORS
330
3D
102
}
330
3D
100
AcDbScale
 70
     0
300
3/16" = 1'-0"
140
0.1875
141
12.0
290
     0
  0
SCALE
  5
56
102
{ACAD_REACTORS
330
3D
102
}
330
3D
100
AcDbScale
 70
     0
300
1/4" = 1'-0"
140
0.25
141
12.0
290
     0
  0
SCALE
  5
57
102
{ACAD_REACTORS
330
3D
102
}
330
3D
100
AcDbScale
 70
     0
300
3/8" = 1'-0"
140
0.375
141
12.0
290
     0
  0
SCALE
  5
58
102
{ACAD_REACTORS
330
3D
102
}
330
3D
100
AcDbScale
 70
     0
300
1/2" = 1'-0"
140
0.5
141
12.0
290
     0
  0
SCALE
  5
59
102
{ACAD_REACTORS
330
3D
102
}
330
3D
100
AcDbScale
 70
     0
300
3/4" = 1'-0"
140
0.75
141
12.0
290
     0
  0
SCALE
  5
5A
102
{ACAD_REACTORS
330
3D
102
}
330
3D
100
AcDbScale
 70
     0
300
1" = 1'-0"
140
1.0
141
12.0
290
     0
  0
SCALE
  5
5B
102
{ACAD_REACTORS
330
3D
102
}
330
3D
100
AcDbScale
 70
     0
300
1-1/2" = 1'-0"
140
1.5
141
12.0
290
     0
  0
SCALE
  5
5C
102
{ACAD_REACTORS
330
3D
102
}
330
3D
100
AcDbScale
 70
     0
300
3" = 1'-0"
140
3.0
141
12.0
290
     0
  0
SCALE
  5
5D
102
{ACAD_REACTORS
330
3D
102
}
330
3D
100
AcDbScale
 70
     0
300
6" = 1'-0"
140
6.0
141
12.0
290
     0
  0
SCALE
  5
5E
102
{ACAD_REACTORS
330
3D
102
}
330
3D
100
AcDbScale
 70
     0
300
1'-0" = 1'-0"
140
12.0
141
12.0
290
     0
  0
TABLESTYLE
  5
70
102
{ACAD_XDICTIONARY
360
77D
102
}
102
{ACAD_REACTORS
330
6F
102
}
330
6F
100
AcDbTableStyle
  3
Standard
 70
     0
 71
     0
 40
0.06
 41
0.06
280
     0
281
     0
  7
Standard
140
0.18
170
     2
 62
     0
 63
     7
283
     0
274
    -2
284
     1
 64
     0
275
    -2
285
     1
 65
     0
276
    -2
286
     1
 66
     0
277
    -2
287
     1
 67
     0
278
    -2
288
     1
 68
     0
279
    -2
289
     1
 69
     0
  7
Standard
140
0.25
170
     5
 62
     0
 63
     7
283
     0
274
    -2
284
     1
 64
     0
275
    -2
285
     1
 65
     0
276
    -2
286
     1
 66
     0
277
    -2
287
     1
 67
     0
278
    -2
288
     1
 68
     0
279
    -2
289
     1
 69
     0
  7
Standard
140
0.18
170
     5
 62
     0
 63
     7
283
     0
274
    -2
284
     1
 64
     0
275
    -2
285
     1
 65
     0
276
    -2
286
     1
 66
     0
277
    -2
287
     1
 67
     0
278
    -2
288
     1
 68
     0
279
    -2
289
     1
 69
     0
  0
VISUALSTYLE
  5
2F
102
{ACAD_XDICTIONARY
360
78D
102
}
102
{ACAD_REACTORS
330
29
102
}
330
29
100
AcDbVisualStyle
  2
2dWireframe
 70
     4
 71
     0
 72
     2
 73
     0
 90
        0
 40
-0.6
 41
-30.0
 62
     5
 63
     7
421
 16777215
 74
     1
 91
        4
 64
     7
 65
   257
 75
     1
175
     1
 42
1.0
 92
        0
 66
   257
 43
1.0
 76
     1
 77
     6
 78
     2
 67
     7
 79
     5
170
     0
171
     0
290
     0
174
     0
 93
        1
 44
0.0
173
     0
291
     0
 45
0.0
1001
ACAD
1000
AcDbSavedByObjectVersion
1070
     0
  0
VISUALSTYLE
  5
31
102
{ACAD_XDICTIONARY
360
791
102
}
102
{ACAD_REACTORS
330
29
102
}
330
29
100
AcDbVisualStyle
  2
3D Hidden
 70
     6
 71
     1
 72
     2
 73
     2
 90
        0
 40
-0.6
 41
-30.0
 62
     5
 63
     7
421
 16777215
 74
     2
 91
        2
 64
     7
 65
   257
 75
     2
175
     1
 42
179.0
 92
        0
 66
   257
 43
1.0
 76
     1
 77
     6
 78
     2
 67
     7
 79
     3
170
     0
171
     0
290
     0
174
     0
 93
        1
 44
0.0
173
     0
291
     0
 45
0.0
1001
ACAD
1000
AcDbSavedByObjectVersion
1070
     0
  0
VISUALSTYLE
  5
30
102
{ACAD_XDICTIONARY
360
78F
102
}
102
{ACAD_REACTORS
330
29
102
}
330
29
100
AcDbVisualStyle
  2
3dWireframe
 70
     5
 71
     0
 72
     2
 73
     0
 90
        0
 40
-0.6
 41
-30.0
 62
     5
 63
     7
421
 16777215
 74
     1
 91
        4
 64
     7
 65
   257
 75
     1
175
     1
 42
1.0
 92
        0
 66
   257
 43
1.0
 76
     1
 77
     6
 78
     2
 67
     7
 79
     5
170
     0
171
     0
290
     0
174
     0
 93
        1
 44
0.0
173
     0
291
     0
 45
0.0
1001
ACAD
1000
AcDbSavedByObjectVersion
1070
     0
  0
VISUALSTYLE
  5
2E
102
{ACAD_XDICTIONARY
360
78B
102
}
102
{ACAD_REACTORS
330
29
102
}
330
29
100
AcDbVisualStyle
  2
Basic
 70
     7
 71
     1
 72
     0
 73
     1
 90
        0
 40
-0.6
 41
-30.0
 62
     5
 63
     7
421
 16777215
 74
     0
 91
        4
 64
     7
 65
   257
 75
     1
175
     1
 42
1.0
 92
        8
 66
     7
 43
1.0
 76
     1
 77
     6
 78
     2
 67
     7
 79
     5
170
     0
171
     0
290
     0
174
     0
 93
        1
 44
0.0
173
     0
291
     1
 45
0.0
1001
ACAD
1000
AcDbSavedByObjectVersion
1070
     0
  0
VISUALSTYLE
  5
35
102
{ACAD_XDICTIONARY
360
799
102
}
102
{ACAD_REACTORS
330
29
102
}
330
29
100
AcDbVisualStyle
  2
Brighten
 70
    12
 71
     2
 72
     2
 73
     0
 90
        0
 40
-0.6
 41
-30.0
 62
     5
 63
     7
421
 16777215
 74
     1
 91
        4
 64
     7
 65
   257
 75
     1
175
     1
 42
1.0
 92
        8
 66
     7
 43
1.0
 76
     1
 77
     6
 78
     2
 67
     7
 79
     5
170
     0
171
     0
290
     0
174
     0
 93
        1
 44
50.0
173
     0
291
     1
 45
0.0
1001
ACAD
1000
AcDbSavedByObjectVersion
1070
     0
  0
VISUALSTYLE
  5
39
102
{ACAD_XDICTIONARY
360
7A1
102
}
102
{ACAD_REACTORS
330
29
102
}
330
29
100
AcDbVisualStyle
  2
ColorChange
 70
    16
 71
     2
 72
     2
 73
     3
 90
        0
 40
-0.6
 41
-30.0
 62
     5
 63
     8
421
  8421504
 74
     1
 91
        4
 64
     7
 65
   257
 75
     1
175
     1
 42
1.0
 92
        8
 66
     8
424
  8421504
 43
1.0
 76
     1
 77
     6
 78
     2
 67
     7
 79
     5
170
     0
171
     0
290
     0
174
     0
 93
        1
 44
0.0
173
     0
291
     1
 45
0.0
1001
ACAD
1000
AcDbSavedByObjectVersion
1070
     0
  0
VISUALSTYLE
  5
32
102
{ACAD_XDICTIONARY
360
793
102
}
102
{ACAD_REACTORS
330
29
102
}
330
29
100
AcDbVisualStyle
  2
Conceptual
 70
     9
 71
     3
 72
     2
 73
     0
 90
        0
 40
-0.6
 41
-30.0
 62
     5
 63
     7
421
 16777215
 74
     2
 91
        2
 64
     7
 65
   257
 75
     1
175
     1
 42
179.0
 92
        8
 66
     7
 43
1.0
 76
     1
 77
     6
 78
     2
 67
     7
 79
     3
170
     0
171
     0
290
     0
174
     0
 93
        1
 44
0.0
173
     0
291
     0
 45
0.0
1001
ACAD
1000
AcDbSavedByObjectVersion
1070
     0
  0
VISUALSTYLE
  5
34
102
{ACAD_XDICTIONARY
360
797
102
}
102
{ACAD_REACTORS
330
29
102
}
330
29
100
AcDbVisualStyle
  2
Dim
 70
    11
 71
     2
 72
     2
 73
     0
 90
        0
 40
-0.6
 41
-30.0
 62
     5
 63
     7
421
 16777215
 74
     1
 91
        4
 64
     7
 65
   257
 75
     1
175
     1
 42
1.0
 92
        8
 66
     7
 43
1.0
 76
     1
 77
     6
 78
     2
 67
     7
 79
     5
170
     0
171
     0
290
     0
174
     0
 93
        1
 44
-50.0
173
     0
291
     1
 45
0.0
1001
ACAD
1000
AcDbSavedByObjectVersion
1070
     0
  0
VISUALSTYLE
  5
3C
102
{ACAD_XDICTIONARY
360
7A7
102
}
102
{ACAD_REACTORS
330
29
102
}
330
29
100
AcDbVisualStyle
  2
EdgeColorOff
 70
    22
 71
     2
 72
     2
 73
     0
 90
        0
 40
-0.6
 41
-30.0
 62
     5
 63
     7
421
 16777215
 74
     1
 91
        4
 64
     7
 65
   257
 75
     1
175
     1
 42
1.0
 92
        8
 66
     7
 43
1.0
 76
     1
 77
     6
 78
     2
 67
     7
 79
     5
170
     0
171
     0
290
     0
174
     0
 93
        1
 44
0.0
173
     0
291
     1
 45
0.0
1001
ACAD
1000
AcDbSavedByObjectVersion
1070
     0
  0
VISUALSTYLE
  5
38
102
{ACAD_XDICTIONARY
360
79F
102
}
102
{ACAD_REACTORS
330
29
102
}
330
29
100
AcDbVisualStyle
  2
Facepattern
 70
    15
 71
     2
 72
     2
 73
     0
 90
        0
 40
-0.6
 41
-30.0
 62
     5
 63
     7
421
 16777215
 74
     1
 91
        4
 64
     7
 65
   257
 75
     1
175
     1
 42
1.0
 92
        8
 66
     7
 43
1.0
 76
     1
 77
     6
 78
     2
 67
     7
 79
     5
170
     0
171
     0
290
     0
174
     0
 93
        1
 44
0.0
173
     0
291
     1
 45
0.0
1001
ACAD
1000
AcDbSavedByObjectVersion
1070
     0
  0
VISUALSTYLE
  5
2A
102
{ACAD_XDICTIONARY
360
783
102
}
102
{ACAD_REACTORS
330
29
102
}
330
29
100
AcDbVisualStyle
  2
Flat
 70
     0
 71
     2
 72
     1
 73
     1
 90
        2
 40
-0.6
 41
30.0
 62
     5
 63
     7
421
 16777215
 74
     0
 91
        4
 64
     7
 65
   257
 75
     1
175
     1
 42
1.0
 92
        8
 66
     7
 43
1.0
 76
     1
 77
     6
 78
     2
 67
     7
 79
     5
170
     0
171
     0
290
     0
174
     0
 93
       13
 44
0.0
173
     0
291
     1
 45
0.0
1001
ACAD
1000
AcDbSavedByObjectVersion
1070
     0
  0
VISUALSTYLE
  5
2B
102
{ACAD_XDICTIONARY
360
785
102
}
102
{ACAD_REACTORS
330
29
102
}
330
29
100
AcDbVisualStyle
  2
FlatWithEdges
 70
     1
 71
     2
 72
     1
 73
     1
 90
        2
 40
-0.6
 41
30.0
 62
     5
 63
     7
421
 16777215
 74
     1
 91
        4
 64
     7
 65
   257
 75
     1
175
     1
 42
1.0
 92
        0
 66
   257
 43
1.0
 76
     1
 77
     6
 78
     2
 67
     7
 79
     5
170
     0
171
     0
290
     0
174
     0
 93
       13
 44
0.0
173
     0
291
     1
 45
0.0
1001
ACAD
1000
AcDbSavedByObjectVersion
1070
     0
  0
VISUALSTYLE
  5
2C
102
{ACAD_XDICTIONARY
360
787
102
}
102
{ACAD_REACTORS
330
29
102
}
330
29
100
AcDbVisualStyle
  2
Gouraud
 70
     2
 71
     2
 72
     2
 73
     1
 90
        2
 40
-0.6
 41
30.0
 62
     5
 63
     7
421
 16777215
 74
     0
 91
        4
 64
     7
 65
   257
 75
     1
175
     1
 42
1.0
 92
        0
 66
     7
 43
1.0
 76
     1
 77
     6
 78
     2
 67
     7
 79
     5
170
     0
171
     0
290
     0
174
     0
 93
       13
 44
0.0
173
     0
291
     1
 45
0.0
1001
ACAD
1000
AcDbSavedByObjectVersion
1070
     0
  0
VISUALSTYLE
  5
2D
102
{ACAD_XDICTIONARY
360
789
102
}
102
{ACAD_REACTORS
330
29
102
}
330
29
100
AcDbVisualStyle
  2
GouraudWithEdges
 70
     3
 71
     2
 72
     2
 73
     1
 90
        2
 40
-0.6
 41
30.0
 62
     5
 63
     7
421
 16777215
 74
     1
 91
        4
 64
     7
 65
   257
 75
     1
175
     1
 42
1.0
 92
        0
 66
   257
 43
1.0
 76
     1
 77
     6
 78
     2
 67
     7
 79
     5
170
     0
171
     0
290
     0
174
     0
 93
       13
 44
0.0
173
     0
291
     1
 45
0.0
1001
ACAD
1000
AcDbSavedByObjectVersion
1070
     0
  0
VISUALSTYLE
  5
3A
102
{ACAD_XDICTIONARY
360
7A3
102
}
102
{ACAD_REACTORS
330
29
102
}
330
29
100
AcDbVisualStyle
  2
JitterOff
 70
    20
 71
     2
 72
     2
 73
     0
 90
        0
 40
-0.6
 41
-30.0
 62
     5
 63
     7
421
 16777215
 74
     1
 91
        4
 64
     7
 65
   257
 75
     1
175
     1
 42
1.0
 92
       10
 66
     7
 43
1.0
 76
     1
 77
     6
 78
     2
 67
     7
 79
     5
170
     0
171
     0
290
     0
174
     0
 93
        1
 44
0.0
173
     0
291
     1
 45
0.0
1001
ACAD
1000
AcDbSavedByObjectVersion
1070
     0
  0
VISUALSTYLE
  5
37
102
{ACAD_XDICTIONARY
360
79D
102
}
102
{ACAD_REACTORS
330
29
102
}
330
29
100
AcDbVisualStyle
  2
Linepattern
 70
    14
 71
     2
 72
     2
 73
     0
 90
        0
 40
-0.6
 41
-30.0
 62
     5
 63
     7
421
 16777215
 74
     1
 91
        4
 64
     7
 65
   257
 75
     7
175
     7
 42
1.0
 92
        8
 66
     7
 43
1.0
 76
     1
 77
     6
 78
     2
 67
     7
 79
     5
170
     0
171
     0
290
     0
174
     0
 93
        1
 44
0.0
173
     0
291
     1
 45
0.0
1001
ACAD
1000
AcDbSavedByObjectVersion
1070
     0
  0
VISUALSTYLE
  5
3B
102
{ACAD_XDICTIONARY
360
7A5
102
}
102
{ACAD_REACTORS
330
29
102
}
330
29
100
AcDbVisualStyle
  2
OverhangOff
 70
    21
 71
     2
 72
     2
 73
     0
 90
        0
 40
-0.6
 41
-30.0
 62
     5
 63
     7
421
 16777215
 74
     1
 91
        4
 64
     7
 65
   257
 75
     1
175
     1
 42
1.0
 92
        9
 66
     7
 43
1.0
 76
     1
 77
     6
 78
     2
 67
     7
 79
     5
170
     0
171
     0
290
     0
174
     0
 93
        1
 44
0.0
173
     0
291
     1
 45
0.0
1001
ACAD
1000
AcDbSavedByObjectVersion
1070
     0
  0
VISUALSTYLE
  5
33
102
{ACAD_XDICTIONARY
360
795
102
}
102
{ACAD_REACTORS
330
29
102
}
330
29
100
AcDbVisualStyle
  2
Realistic
 70
     8
 71
     2
 72
     2
 73
     0
 90
        0
 40
-0.6
 41
-30.0
 62
     5
 63
     7
421
 16777215
 74
     1
 91
        0
 64
     7
 65
   257
 75
     1
175
     1
 42
1.0
 92
        8
 66
     8
424
  7895160
 43
1.0
 76
     1
 77
     6
 78
     2
 67
     7
 79
     5
170
     0
171
     0
290
     0
174
     0
 93
       13
 44
0.0
173
     0
291
     0
 45
0.0
1001
ACAD
1000
AcDbSavedByObjectVersion
1070
     0
  0
VISUALSTYLE
  5
36
102
{ACAD_XDICTIONARY
360
79B
102
}
102
{ACAD_REACTORS
330
29
102
}
330
29
100
AcDbVisualStyle
  2
Thicken
 70
    13
 71
     2
 72
     2
 73
     0
 90
        0
 40
-0.6
 41
-30.0
 62
     5
 63
     7
421
 16777215
 74
     1
 91
        4
 64
     7
 65
   257
 75
     1
175
     1
 42
1.0
 92
       12
 66
     7
 43
1.0
 76
     1
 77
     6
 78
     2
 67
     7
 79
     5
170
     0
171
     0
290
     0
174
     0
 93
        1
 44
0.0
173
     0
291
     1
 45
0.0
1001
ACAD
1000
AcDbSavedByObjectVersion
1070
     0
  0
DICTIONARYVAR
  5
778
102
{ACAD_REACTORS
330
774
102
}
330
774
100
DictionaryVariables
280
     0
  1
1:1
  0
DICTIONARYVAR
  5
776
102
{ACAD_REACTORS
330
774
102
}
330
774
100
DictionaryVariables
280
     0
  1
STANDARD
  0
DICTIONARYVAR
  5
775
102
{ACAD_REACTORS
330
774
102
}
330
774
100
DictionaryVariables
280
     0
  1
STANDARD
  0
DICTIONARYVAR
  5
77A
102
{ACAD_REACTORS
330
774
102
}
330
774
100
DictionaryVariables
280
     0
  1
0
  0
DICTIONARYVAR
  5
77B
102
{ACAD_REACTORS
330
774
102
}
330
774
100
DictionaryVariables
280
     0
  1
0
  0
DICTIONARYVAR
  5
779
102
{ACAD_REACTORS
330
774
102
}
330
774
100
DictionaryVariables
280
     0
  1
2
  0
DICTIONARYVAR
  5
777
102
{ACAD_REACTORS
330
774
102
}
330
774
100
DictionaryVariables
280
     0
  1
1
  0
DICTIONARYVAR
  5
77C
102
{ACAD_REACTORS
330
774
102
}
330
774
100
DictionaryVariables
280
     0
  1
2
  0
DICTIONARY
  5
1A
330
19
100
AcDbDictionary
280
     1
281
     1
  3
ACAD_XREC_ROUNDTRIP
360
781
  3
BUMPTILE
360
1C
  3
DIFFUSETILE
360
1B
  3
OPACITYTILE
360
1F
  3
REFLECTIONTILE
360
1E
  3
REFRACTIONTILE
360
20
  3
SPECULARTILE
360
1D
  0
DICTIONARY
  5
12
330
11
100
AcDbDictionary
280
     1
281
     1
  3
ACAD_XREC_ROUNDTRIP
360
780
  3
BUMPTILE
360
14
  3
DIFFUSETILE
360
13
  3
OPACITYTILE
360
17
  3
REFLECTIONTILE
360
16
  3
REFRACTIONTILE
360
18
  3
SPECULARTILE
360
15
  0
DICTIONARY
  5
22
330
21
100
AcDbDictionary
280
     1
281
     1
  3
ACAD_XREC_ROUNDTRIP
360
782
  3
BUMPTILE
360
24
  3
DIFFUSETILE
360
23
  3
OPACITYTILE
360
27
  3
REFLECTIONTILE
360
26
  3
REFRACTIONTILE
360
28
  3
SPECULARTILE
360
25
  0
DICTIONARY
  5
77D
330
70
100
AcDbDictionary
280
     1
281
     1
  3
ACAD_ROUNDTRIP_2008_TABLESTYLE_CELLSTYLEMAP
360
77E
  3
ACAD_XREC_ROUNDTRIP
360
7A9
  0
DICTIONARY
  5
78D
330
2F
100
AcDbDictionary
280
     1
281
     1
  3
ACAD_XREC_ROUNDTRIP
360
78E
  0
DICTIONARY
  5
791
330
31
100
AcDbDictionary
280
     1
281
     1
  3
ACAD_XREC_ROUNDTRIP
360
792
  0
DICTIONARY
  5
78F
330
30
100
AcDbDictionary
280
     1
281
     1
  3
ACAD_XREC_ROUNDTRIP
360
790
  0
DICTIONARY
  5
78B
330
2E
100
AcDbDictionary
280
     1
281
     1
  3
ACAD_XREC_ROUNDTRIP
360
78C
  0
DICTIONARY
  5
799
330
35
100
AcDbDictionary
280
     1
281
     1
  3
ACAD_XREC_ROUNDTRIP
360
79A
  0
DICTIONARY
  5
7A1
330
39
100
AcDbDictionary
280
     1
281
     1
  3
ACAD_XREC_ROUNDTRIP
360
7A2
  0
DICTIONARY
  5
793
330
32
100
AcDbDictionary
280
     1
281
     1
  3
ACAD_XREC_ROUNDTRIP
360
794
  0
DICTIONARY
  5
797
330
34
100
AcDbDictionary
280
     1
281
     1
  3
ACAD_XREC_ROUNDTRIP
360
798
  0
DICTIONARY
  5
7A7
330
3C
100
AcDbDictionary
280
     1
281
     1
  3
ACAD_XREC_ROUNDTRIP
360
7A8
  0
DICTIONARY
  5
79F
330
38
100
AcDbDictionary
280
     1
281
     1
  3
ACAD_XREC_ROUNDTRIP
360
7A0
  0
DICTIONARY
  5
783
330
2A
100
AcDbDictionary
280
     1
281
     1
  3
ACAD_XREC_ROUNDTRIP
360
784
  0
DICTIONARY
  5
785
330
2B
100
AcDbDictionary
280
     1
281
     1
  3
ACAD_XREC_ROUNDTRIP
360
786
  0
DICTIONARY
  5
787
330
2C
100
AcDbDictionary
280
     1
281
     1
  3
ACAD_XREC_ROUNDTRIP
360
788
  0
DICTIONARY
  5
789
330
2D
100
AcDbDictionary
280
     1
281
     1
  3
ACAD_XREC_ROUNDTRIP
360
78A
  0
DICTIONARY
  5
7A3
330
3A
100
AcDbDictionary
280
     1
281
     1
  3
ACAD_XREC_ROUNDTRIP
360
7A4
  0
DICTIONARY
  5
79D
330
37
100
AcDbDictionary
280
     1
281
     1
  3
ACAD_XREC_ROUNDTRIP
360
79E
  0
DICTIONARY
  5
7A5
330
3B
100
AcDbDictionary
280
     1
281
     1
  3
ACAD_XREC_ROUNDTRIP
360
7A6
  0
DICTIONARY
  5
795
330
33
100
AcDbDictionary
280
     1
281
     1
  3
ACAD_XREC_ROUNDTRIP
360
796
  0
DICTIONARY
  5
79B
330
36
100
AcDbDictionary
280
     1
281
     1
  3
ACAD_XREC_ROUNDTRIP
360
79C
  0
XRECORD
  5
781
102
{ACAD_REACTORS
330
1A
102
}
330
1A
100
AcDbXrecord
280
     1
102
MATERIAL
148
0.0
149
0.0
149
0.0
 93
        0
 94
      127
282
     0
 72
     0
 77
     0
171
     0
175
     0
179
     0
273
     0
  0
XRECORD
  5
1C
102
{ACAD_REACTORS
330
1A
102
}
330
1A
100
AcDbXrecord
280
     1
270
     1
271
     1
  0
XRECORD
  5
1B
102
{ACAD_REACTORS
330
1A
102
}
330
1A
100
AcDbXrecord
280
     1
270
     1
271
     1
  0
XRECORD
  5
1F
102
{ACAD_REACTORS
330
1A
102
}
330
1A
100
AcDbXrecord
280
     1
270
     1
271
     1
  0
XRECORD
  5
1E
102
{ACAD_REACTORS
330
1A
102
}
330
1A
100
AcDbXrecord
280
     1
270
     1
271
     1
  0
XRECORD
  5
20
102
{ACAD_REACTORS
330
1A
102
}
330
1A
100
AcDbXrecord
280
     1
270
     1
271
     1
  0
XRECORD
  5
1D
102
{ACAD_REACTORS
330
1A
102
}
330
1A
100
AcDbXrecord
280
     1
270
     1
271
     1
  0
XRECORD
  5
780
102
{ACAD_REACTORS
330
12
102
}
330
12
100
AcDbXrecord
280
     1
102
MATERIAL
148
0.0
149
0.0
149
0.0
 93
        0
 94
      127
282
     0
 72
     0
 77
     0
171
     0
175
     0
179
     0
273
     0
  0
XRECORD
  5
14
102
{ACAD_REACTORS
330
12
102
}
330
12
100
AcDbXrecord
280
     1
270
     1
271
     1
  0
XRECORD
  5
13
102
{ACAD_REACTORS
330
12
102
}
330
12
100
AcDbXrecord
280
     1
270
     1
271
     1
  0
XRECORD
  5
17
102
{ACAD_REACTORS
330
12
102
}
330
12
100
AcDbXrecord
280
     1
270
     1
271
     1
  0
XRECORD
  5
16
102
{ACAD_REACTORS
330
12
102
}
330
12
100
AcDbXrecord
280
     1
270
     1
271
     1
  0
XRECORD
  5
18
102
{ACAD_REACTORS
330
12
102
}
330
12
100
AcDbXrecord
280
     1
270
     1
271
     1
  0
XRECORD
  5
15
102
{ACAD_REACTORS
330
12
102
}
330
12
100
AcDbXrecord
280
     1
270
     1
271
     1
  0
XRECORD
  5
782
102
{ACAD_REACTORS
330
22
102
}
330
22
100
AcDbXrecord
280
     1
102
MATERIAL
148
0.0
149
0.0
149
0.0
 93
        0
 94
      127
282
     0
 72
     0
 77
     0
171
     0
175
     0
179
     0
273
     0
  0
XRECORD
  5
24
102
{ACAD_REACTORS
330
22
102
}
330
22
100
AcDbXrecord
280
     1
270
     1
271
     1
  0
XRECORD
  5
23
102
{ACAD_REACTORS
330
22
102
}
330
22
100
AcDbXrecord
280
     1
270
     1
271
     1
  0
XRECORD
  5
27
102
{ACAD_REACTORS
330
22
102
}
330
22
100
AcDbXrecord
280
     1
270
     1
271
     1
  0
XRECORD
  5
26
102
{ACAD_REACTORS
330
22
102
}
330
22
100
AcDbXrecord
280
     1
270
     1
271
     1
  0
XRECORD
  5
28
102
{ACAD_REACTORS
330
22
102
}
330
22
100
AcDbXrecord
280
     1
270
     1
271
     1
  0
XRECORD
  5
25
102
{ACAD_REACTORS
330
22
102
}
330
22
100
AcDbXrecord
280
     1
270
     1
271
     1
  0
CELLSTYLEMAP
  5
77E
102
{ACAD_REACTORS
330
77D
102
}
330
77D
100
AcDbCellStyleMap
 90
        3
300
CELLSTYLE
  1
TABLEFORMAT_BEGIN
 90
        5
170
     1
 91
        0
 92
    32768
 62
   257
 93
        1
300
CONTENTFORMAT
  1
CONTENTFORMAT_BEGIN
 90
        0
 91
        0
 92
      512
 93
        0
300

 40
0.0
140
1.0
 94
        5
 62
     0
340
60
144
0.25
309
CONTENTFORMAT_END
171
     0
 94
        0
309
TABLEFORMAT_END
  1
CELLSTYLE_BEGIN
 90
        1
 91
        1
300
_TITLE
309
CELLSTYLE_END
300
CELLSTYLE
  1
TABLEFORMAT_BEGIN
 90
        5
170
     1
 91
        0
 92
        0
 62
   257
 93
        1
300
CONTENTFORMAT
  1
CONTENTFORMAT_BEGIN
 90
        0
 91
        0
 92
      512
 93
        0
300

 40
0.0
140
1.0
 94
        5
 62
     0
340
60
144
0.18
309
CONTENTFORMAT_END
171
     0
 94
        0
309
TABLEFORMAT_END
  1
CELLSTYLE_BEGIN
 90
        2
 91
        1
300
_HEADER
309
CELLSTYLE_END
300
CELLSTYLE
  1
TABLEFORMAT_BEGIN
 90
        5
170
     1
 91
        0
 92
        0
 62
   257
 93
        1
300
CONTENTFORMAT
  1
CONTENTFORMAT_BEGIN
 90
        0
 91
        0
 92
      512
 93
        0
300

 40
0.0
140
1.0
 94
        2
 62
     0
340
60
144
0.18
309
CONTENTFORMAT_END
171
     0
 94
        0
309
TABLEFORMAT_END
  1
CELLSTYLE_BEGIN
 90
        3
 91
        2
300
_DATA
309
CELLSTYLE_END
  0
XRECORD
  5
7A9
102
{ACAD_REACTORS
330
77D
102
}
330
77D
100
AcDbXrecord
280
     1
102
ACAD_ROUNDTRIP_PRE2007_TABLESTYLE
 90
      512
 91
        0
  1

 92
      512
 93
        0
  2

 94
      512
 95
        0
  3

  0
XRECORD
  5
78E
102
{ACAD_REACTORS
330
78D
102
}
330
78D
100
AcDbXrecord
280
     1
102
RTVSPropertyOp0
 70
     1
102
RTVSPropertyOp1
 70
     1
102
RTVSPropertyOp2
 70
     1
102
RTVSPropertyOp3
 70
     1
102
RTVSPropertyOp4
 70
     1
102
RTVSPropertyOp5
 70
     1
102
RTVSPropertyOp6
 70
     1
102
RTVSPropertyOp7
 70
     1
102
RTVSPropertyOp8
 70
     1
102
RTVSPropertyOp9
 70
     1
102
RTVSPropertyOp10
 70
     1
102
RTVSPropertyOp11
 70
     1
102
RTVSPropertyOp12
 70
     1
102
RTVSPropertyOp13
 70
     1
102
RTVSPropertyOp14
 70
     1
102
RTVSPropertyOp15
 70
     1
102
RTVSPropertyOp16
 70
     1
102
RTVSPropertyOp17
 70
     1
102
RTVSPropertyOp18
 70
     1
102
RTVSPropertyOp19
 70
     1
102
RTVSPropertyOp20
 70
     1
102
RTVSPropertyOp21
 70
     1
102
RTVSPropertyOp22
 70
     1
102
RTVSPropertyOp23
 70
     1
102
RTVSPropertyOp24
 70
     1
102
RTVSPropertyOp25
 70
     1
102
RTVSPropertyOp26
 70
     1
102
RTVSPropertyOp27
 70
     1
  0
XRECORD
  5
792
102
{ACAD_REACTORS
330
791
102
}
330
791
100
AcDbXrecord
280
     1
102
RTVSPropertyOp0
 70
     1
102
RTVSPropertyOp1
 70
     1
102
RTVSPropertyOp2
 70
     1
102
RTVSPropertyOp3
 70
     1
102
RTVSPropertyOp4
 70
     1
102
RTVSPropertyOp5
 70
     1
102
RTVSPropertyOp6
 70
     1
102
RTVSPropertyOp7
 70
     1
102
RTVSPropertyOp8
 70
     1
102
RTVSPropertyOp9
 70
     1
102
RTVSPropertyOp10
 70
     1
102
RTVSPropertyOp11
 70
     1
102
RTVSPropertyOp12
 70
     1
102
RTVSPropertyOp13
 70
     1
102
RTVSPropertyOp14
 70
     1
102
RTVSPropertyOp15
 70
     1
102
RTVSPropertyOp16
 70
     1
102
RTVSPropertyOp17
 70
     1
102
RTVSPropertyOp18
 70
     1
102
RTVSPropertyOp19
 70
     1
102
RTVSPropertyOp20
 70
     1
102
RTVSPropertyOp21
 70
     1
102
RTVSPropertyOp22
 70
     1
102
RTVSPropertyOp23
 70
     1
102
RTVSPropertyOp24
 70
     1
102
RTVSPropertyOp25
 70
     1
102
RTVSPropertyOp26
 70
     1
102
RTVSPropertyOp27
 70
     1
  0
XRECORD
  5
790
102
{ACAD_REACTORS
330
78F
102
}
330
78F
100
AcDbXrecord
280
     1
102
RTVSPropertyOp0
 70
     1
102
RTVSPropertyOp1
 70
     1
102
RTVSPropertyOp2
 70
     1
102
RTVSPropertyOp3
 70
     1
102
RTVSPropertyOp4
 70
     1
102
RTVSPropertyOp5
 70
     1
102
RTVSPropertyOp6
 70
     1
102
RTVSPropertyOp7
 70
     1
102
RTVSPropertyOp8
 70
     1
102
RTVSPropertyOp9
 70
     1
102
RTVSPropertyOp10
 70
     1
102
RTVSPropertyOp11
 70
     1
102
RTVSPropertyOp12
 70
     1
102
RTVSPropertyOp13
 70
     1
102
RTVSPropertyOp14
 70
     1
102
RTVSPropertyOp15
 70
     1
102
RTVSPropertyOp16
 70
     1
102
RTVSPropertyOp17
 70
     1
102
RTVSPropertyOp18
 70
     1
102
RTVSPropertyOp19
 70
     1
102
RTVSPropertyOp20
 70
     1
102
RTVSPropertyOp21
 70
     1
102
RTVSPropertyOp22
 70
     1
102
RTVSPropertyOp23
 70
     1
102
RTVSPropertyOp24
 70
     1
102
RTVSPropertyOp25
 70
     1
102
RTVSPropertyOp26
 70
     1
102
RTVSPropertyOp27
 70
     1
  0
XRECORD
  5
78C
102
{ACAD_REACTORS
330
78B
102
}
330
78B
100
AcDbXrecord
280
     1
102
RTVSPropertyOp0
 70
     1
102
RTVSPropertyOp1
 70
     1
102
RTVSPropertyOp2
 70
     1
102
RTVSPropertyOp3
 70
     1
102
RTVSPropertyOp4
 70
     1
102
RTVSPropertyOp5
 70
     1
102
RTVSPropertyOp6
 70
     1
102
RTVSPropertyOp7
 70
     1
102
RTVSPropertyOp8
 70
     1
102
RTVSPropertyOp9
 70
     1
102
RTVSPropertyOp10
 70
     1
102
RTVSPropertyOp11
 70
     1
102
RTVSPropertyOp12
 70
     1
102
RTVSPropertyOp13
 70
     1
102
RTVSPropertyOp14
 70
     1
102
RTVSPropertyOp15
 70
     1
102
RTVSPropertyOp16
 70
     1
102
RTVSPropertyOp17
 70
     1
102
RTVSPropertyOp18
 70
     1
102
RTVSPropertyOp19
 70
     1
102
RTVSPropertyOp20
 70
     1
102
RTVSPropertyOp21
 70
     1
102
RTVSPropertyOp22
 70
     1
102
RTVSPropertyOp23
 70
     1
102
RTVSPropertyOp24
 70
     1
102
RTVSPropertyOp25
 70
     1
102
RTVSPropertyOp26
 70
     1
102
RTVSPropertyOp27
 70
     1
  0
XRECORD
  5
79A
102
{ACAD_REACTORS
330
799
102
}
330
799
100
AcDbXrecord
280
     1
102
RTVSPropertyOp0
 70
     1
102
RTVSPropertyOp1
 70
     1
102
RTVSPropertyOp2
 70
     1
102
RTVSPropertyOp3
 70
     1
102
RTVSPropertyOp4
 70
     1
102
RTVSPropertyOp5
 70
     1
102
RTVSPropertyOp6
 70
     1
102
RTVSPropertyOp7
 70
     1
102
RTVSPropertyOp8
 70
     1
102
RTVSPropertyOp9
 70
     1
102
RTVSPropertyOp10
 70
     1
102
RTVSPropertyOp11
 70
     1
102
RTVSPropertyOp12
 70
     1
102
RTVSPropertyOp13
 70
     1
102
RTVSPropertyOp14
 70
     1
102
RTVSPropertyOp15
 70
     1
102
RTVSPropertyOp16
 70
     1
102
RTVSPropertyOp17
 70
     1
102
RTVSPropertyOp18
 70
     1
102
RTVSPropertyOp19
 70
     1
102
RTVSPropertyOp20
 70
     1
102
RTVSPropertyOp21
 70
     1
102
RTVSPropertyOp22
 70
     1
102
RTVSPropertyOp23
 70
     1
102
RTVSPropertyOp24
 70
     1
102
RTVSPropertyOp25
 70
     1
102
RTVSPropertyOp26
 70
     1
102
RTVSPropertyOp27
 70
     1
  0
XRECORD
  5
7A2
102
{ACAD_REACTORS
330
7A1
102
}
330
7A1
100
AcDbXrecord
280
     1
102
RTVSPropertyOp0
 70
     1
102
RTVSPropertyOp1
 70
     1
102
RTVSPropertyOp2
 70
     1
102
RTVSPropertyOp3
 70
     1
102
RTVSPropertyOp4
 70
     1
102
RTVSPropertyOp5
 70
     1
102
RTVSPropertyOp6
 70
     1
102
RTVSPropertyOp7
 70
     1
102
RTVSPropertyOp8
 70
     1
102
RTVSPropertyOp9
 70
     1
102
RTVSPropertyOp10
 70
     1
102
RTVSPropertyOp11
 70
     1
102
RTVSPropertyOp12
 70
     1
102
RTVSPropertyOp13
 70
     1
102
RTVSPropertyOp14
 70
     1
102
RTVSPropertyOp15
 70
     1
102
RTVSPropertyOp16
 70
     1
102
RTVSPropertyOp17
 70
     1
102
RTVSPropertyOp18
 70
     1
102
RTVSPropertyOp19
 70
     1
102
RTVSPropertyOp20
 70
     1
102
RTVSPropertyOp21
 70
     1
102
RTVSPropertyOp22
 70
     1
102
RTVSPropertyOp23
 70
     1
102
RTVSPropertyOp24
 70
     1
102
RTVSPropertyOp25
 70
     1
102
RTVSPropertyOp26
 70
     1
102
RTVSPropertyOp27
 70
     1
  0
XRECORD
  5
794
102
{ACAD_REACTORS
330
793
102
}
330
793
100
AcDbXrecord
280
     1
102
RTVSPropertyOp0
 70
     1
102
RTVSPropertyOp1
 70
     1
102
RTVSPropertyOp2
 70
     1
102
RTVSPropertyOp3
 70
     1
102
RTVSPropertyOp4
 70
     1
102
RTVSPropertyOp5
 70
     1
102
RTVSPropertyOp6
 70
     1
102
RTVSPropertyOp7
 70
     1
102
RTVSPropertyOp8
 70
     1
102
RTVSPropertyOp9
 70
     1
102
RTVSPropertyOp10
 70
     1
102
RTVSPropertyOp11
 70
     1
102
RTVSPropertyOp12
 70
     1
102
RTVSPropertyOp13
 70
     1
102
RTVSPropertyOp14
 70
     1
102
RTVSPropertyOp15
 70
     1
102
RTVSPropertyOp16
 70
     1
102
RTVSPropertyOp17
 70
     1
102
RTVSPropertyOp18
 70
     1
102
RTVSPropertyOp19
 70
     1
102
RTVSPropertyOp20
 70
     1
102
RTVSPropertyOp21
 70
     1
102
RTVSPropertyOp22
 70
     1
102
RTVSPropertyOp23
 70
     1
102
RTVSPropertyOp24
 70
     1
102
RTVSPropertyOp25
 70
     1
102
RTVSPropertyOp26
 70
     1
102
RTVSPropertyOp27
 70
     1
  0
XRECORD
  5
798
102
{ACAD_REACTORS
330
797
102
}
330
797
100
AcDbXrecord
280
     1
102
RTVSPropertyOp0
 70
     1
102
RTVSPropertyOp1
 70
     1
102
RTVSPropertyOp2
 70
     1
102
RTVSPropertyOp3
 70
     1
102
RTVSPropertyOp4
 70
     1
102
RTVSPropertyOp5
 70
     1
102
RTVSPropertyOp6
 70
     1
102
RTVSPropertyOp7
 70
     1
102
RTVSPropertyOp8
 70
     1
102
RTVSPropertyOp9
 70
     1
102
RTVSPropertyOp10
 70
     1
102
RTVSPropertyOp11
 70
     1
102
RTVSPropertyOp12
 70
     1
102
RTVSPropertyOp13
 70
     1
102
RTVSPropertyOp14
 70
     1
102
RTVSPropertyOp15
 70
     1
102
RTVSPropertyOp16
 70
     1
102
RTVSPropertyOp17
 70
     1
102
RTVSPropertyOp18
 70
     1
102
RTVSPropertyOp19
 70
     1
102
RTVSPropertyOp20
 70
     1
102
RTVSPropertyOp21
 70
     1
102
RTVSPropertyOp22
 70
     1
102
RTVSPropertyOp23
 70
     1
102
RTVSPropertyOp24
 70
     1
102
RTVSPropertyOp25
 70
     1
102
RTVSPropertyOp26
 70
     1
102
RTVSPropertyOp27
 70
     1
  0
XRECORD
  5
7A8
102
{ACAD_REACTORS
330
7A7
102
}
330
7A7
100
AcDbXrecord
280
     1
102
RTVSPropertyOp0
 70
     0
102
RTVSPropertyOp1
 70
     0
102
RTVSPropertyOp2
 70
     0
102
RTVSPropertyOp3
 70
     0
102
RTVSPropertyOp4
 70
     0
102
RTVSPropertyOp5
 70
     0
102
RTVSPropertyOp6
 70
     0
102
RTVSPropertyOp7
 70
     0
102
RTVSPropertyOp8
 70
     0
102
RTVSPropertyOp9
 70
     0
102
RTVSPropertyOp10
 70
     0
102
RTVSPropertyOp11
 70
     0
102
RTVSPropertyOp12
 70
     0
102
RTVSPropertyOp13
 70
     0
102
RTVSPropertyOp14
 70
     2
102
RTVSPropertyOp15
 70
     0
102
RTVSPropertyOp16
 70
     0
102
RTVSPropertyOp17
 70
     0
102
RTVSPropertyOp18
 70
     0
102
RTVSPropertyOp19
 70
     0
102
RTVSPropertyOp20
 70
     0
102
RTVSPropertyOp21
 70
     0
102
RTVSPropertyOp22
 70
     0
102
RTVSPropertyOp23
 70
     0
102
RTVSPropertyOp24
 70
     0
102
RTVSPropertyOp25
 70
     0
102
RTVSPropertyOp26
 70
     0
102
RTVSPropertyOp27
 70
     0
  0
XRECORD
  5
7A0
102
{ACAD_REACTORS
330
79F
102
}
330
79F
100
AcDbXrecord
280
     1
102
RTVSPropertyOp0
 70
     1
102
RTVSPropertyOp1
 70
     1
102
RTVSPropertyOp2
 70
     1
102
RTVSPropertyOp3
 70
     1
102
RTVSPropertyOp4
 70
     1
102
RTVSPropertyOp5
 70
     1
102
RTVSPropertyOp6
 70
     1
102
RTVSPropertyOp7
 70
     1
102
RTVSPropertyOp8
 70
     1
102
RTVSPropertyOp9
 70
     1
102
RTVSPropertyOp10
 70
     1
102
RTVSPropertyOp11
 70
     1
102
RTVSPropertyOp12
 70
     1
102
RTVSPropertyOp13
 70
     1
102
RTVSPropertyOp14
 70
     1
102
RTVSPropertyOp15
 70
     1
102
RTVSPropertyOp16
 70
     1
102
RTVSPropertyOp17
 70
     1
102
RTVSPropertyOp18
 70
     1
102
RTVSPropertyOp19
 70
     1
102
RTVSPropertyOp20
 70
     1
102
RTVSPropertyOp21
 70
     1
102
RTVSPropertyOp22
 70
     1
102
RTVSPropertyOp23
 70
     1
102
RTVSPropertyOp24
 70
     1
102
RTVSPropertyOp25
 70
     1
102
RTVSPropertyOp26
 70
     1
102
RTVSPropertyOp27
 70
     1
  0
XRECORD
  5
784
102
{ACAD_REACTORS
330
783
102
}
330
783
100
AcDbXrecord
280
     1
102
RTVSPropertyOp0
 70
     1
102
RTVSPropertyOp1
 70
     1
102
RTVSPropertyOp2
 70
     1
102
RTVSPropertyOp3
 70
     1
102
RTVSPropertyOp4
 70
     1
102
RTVSPropertyOp5
 70
     1
102
RTVSPropertyOp6
 70
     1
102
RTVSPropertyOp7
 70
     1
102
RTVSPropertyOp8
 70
     1
102
RTVSPropertyOp9
 70
     1
102
RTVSPropertyOp10
 70
     1
102
RTVSPropertyOp11
 70
     1
102
RTVSPropertyOp12
 70
     1
102
RTVSPropertyOp13
 70
     1
102
RTVSPropertyOp14
 70
     1
102
RTVSPropertyOp15
 70
     1
102
RTVSPropertyOp16
 70
     1
102
RTVSPropertyOp17
 70
     1
102
RTVSPropertyOp18
 70
     1
102
RTVSPropertyOp19
 70
     1
102
RTVSPropertyOp20
 70
     1
102
RTVSPropertyOp21
 70
     1
102
RTVSPropertyOp22
 70
     1
102
RTVSPropertyOp23
 70
     1
102
RTVSPropertyOp24
 70
     1
102
RTVSPropertyOp25
 70
     1
102
RTVSPropertyOp26
 70
     1
102
RTVSPropertyOp27
 70
     1
  0
XRECORD
  5
786
102
{ACAD_REACTORS
330
785
102
}
330
785
100
AcDbXrecord
280
     1
102
RTVSPropertyOp0
 70
     1
102
RTVSPropertyOp1
 70
     1
102
RTVSPropertyOp2
 70
     1
102
RTVSPropertyOp3
 70
     1
102
RTVSPropertyOp4
 70
     1
102
RTVSPropertyOp5
 70
     1
102
RTVSPropertyOp6
 70
     1
102
RTVSPropertyOp7
 70
     1
102
RTVSPropertyOp8
 70
     1
102
RTVSPropertyOp9
 70
     1
102
RTVSPropertyOp10
 70
     1
102
RTVSPropertyOp11
 70
     1
102
RTVSPropertyOp12
 70
     1
102
RTVSPropertyOp13
 70
     1
102
RTVSPropertyOp14
 70
     1
102
RTVSPropertyOp15
 70
     1
102
RTVSPropertyOp16
 70
     1
102
RTVSPropertyOp17
 70
     1
102
RTVSPropertyOp18
 70
     1
102
RTVSPropertyOp19
 70
     1
102
RTVSPropertyOp20
 70
     1
102
RTVSPropertyOp21
 70
     1
102
RTVSPropertyOp22
 70
     1
102
RTVSPropertyOp23
 70
     1
102
RTVSPropertyOp24
 70
     1
102
RTVSPropertyOp25
 70
     1
102
RTVSPropertyOp26
 70
     1
102
RTVSPropertyOp27
 70
     1
  0
XRECORD
  5
788
102
{ACAD_REACTORS
330
787
102
}
330
787
100
AcDbXrecord
280
     1
102
RTVSPropertyOp0
 70
     1
102
RTVSPropertyOp1
 70
     1
102
RTVSPropertyOp2
 70
     1
102
RTVSPropertyOp3
 70
     1
102
RTVSPropertyOp4
 70
     1
102
RTVSPropertyOp5
 70
     1
102
RTVSPropertyOp6
 70
     1
102
RTVSPropertyOp7
 70
     1
102
RTVSPropertyOp8
 70
     1
102
RTVSPropertyOp9
 70
     1
102
RTVSPropertyOp10
 70
     1
102
RTVSPropertyOp11
 70
     1
102
RTVSPropertyOp12
 70
     1
102
RTVSPropertyOp13
 70
     1
102
RTVSPropertyOp14
 70
     1
102
RTVSPropertyOp15
 70
     1
102
RTVSPropertyOp16
 70
     1
102
RTVSPropertyOp17
 70
     1
102
RTVSPropertyOp18
 70
     1
102
RTVSPropertyOp19
 70
     1
102
RTVSPropertyOp20
 70
     1
102
RTVSPropertyOp21
 70
     1
102
RTVSPropertyOp22
 70
     1
102
RTVSPropertyOp23
 70
     1
102
RTVSPropertyOp24
 70
     1
102
RTVSPropertyOp25
 70
     1
102
RTVSPropertyOp26
 70
     1
102
RTVSPropertyOp27
 70
     1
  0
XRECORD
  5
78A
102
{ACAD_REACTORS
330
789
102
}
330
789
100
AcDbXrecord
280
     1
102
RTVSPropertyOp0
 70
     1
102
RTVSPropertyOp1
 70
     1
102
RTVSPropertyOp2
 70
     1
102
RTVSPropertyOp3
 70
     1
102
RTVSPropertyOp4
 70
     1
102
RTVSPropertyOp5
 70
     1
102
RTVSPropertyOp6
 70
     1
102
RTVSPropertyOp7
 70
     1
102
RTVSPropertyOp8
 70
     1
102
RTVSPropertyOp9
 70
     1
102
RTVSPropertyOp10
 70
     1
102
RTVSPropertyOp11
 70
     1
102
RTVSPropertyOp12
 70
     1
102
RTVSPropertyOp13
 70
     1
102
RTVSPropertyOp14
 70
     1
102
RTVSPropertyOp15
 70
     1
102
RTVSPropertyOp16
 70
     1
102
RTVSPropertyOp17
 70
     1
102
RTVSPropertyOp18
 70
     1
102
RTVSPropertyOp19
 70
     1
102
RTVSPropertyOp20
 70
     1
102
RTVSPropertyOp21
 70
     1
102
RTVSPropertyOp22
 70
     1
102
RTVSPropertyOp23
 70
     1
102
RTVSPropertyOp24
 70
     1
102
RTVSPropertyOp25
 70
     1
102
RTVSPropertyOp26
 70
     1
102
RTVSPropertyOp27
 70
     1
  0
XRECORD
  5
7A4
102
{ACAD_REACTORS
330
7A3
102
}
330
7A3
100
AcDbXrecord
280
     1
102
RTVSPropertyOp0
 70
     0
102
RTVSPropertyOp1
 70
     0
102
RTVSPropertyOp2
 70
     0
102
RTVSPropertyOp3
 70
     0
102
RTVSPropertyOp4
 70
     0
102
RTVSPropertyOp5
 70
     0
102
RTVSPropertyOp6
 70
     0
102
RTVSPropertyOp7
 70
     0
102
RTVSPropertyOp8
 70
     0
102
RTVSPropertyOp9
 70
     0
102
RTVSPropertyOp10
 70
     0
102
RTVSPropertyOp11
 70
     0
102
RTVSPropertyOp12
 70
     0
102
RTVSPropertyOp13
 70
     0
102
RTVSPropertyOp14
 70
     2
102
RTVSPropertyOp15
 70
     0
102
RTVSPropertyOp16
 70
     0
102
RTVSPropertyOp17
 70
     0
102
RTVSPropertyOp18
 70
     0
102
RTVSPropertyOp19
 70
     0
102
RTVSPropertyOp20
 70
     0
102
RTVSPropertyOp21
 70
     0
102
RTVSPropertyOp22
 70
     0
102
RTVSPropertyOp23
 70
     0
102
RTVSPropertyOp24
 70
     0
102
RTVSPropertyOp25
 70
     0
102
RTVSPropertyOp26
 70
     0
102
RTVSPropertyOp27
 70
     0
  0
XRECORD
  5
79E
102
{ACAD_REACTORS
330
79D
102
}
330
79D
100
AcDbXrecord
280
     1
102
RTVSPropertyOp0
 70
     1
102
RTVSPropertyOp1
 70
     1
102
RTVSPropertyOp2
 70
     1
102
RTVSPropertyOp3
 70
     1
102
RTVSPropertyOp4
 70
     1
102
RTVSPropertyOp5
 70
     1
102
RTVSPropertyOp6
 70
     1
102
RTVSPropertyOp7
 70
     1
102
RTVSPropertyOp8
 70
     1
102
RTVSPropertyOp9
 70
     1
102
RTVSPropertyOp10
 70
     1
102
RTVSPropertyOp11
 70
     1
102
RTVSPropertyOp12
 70
     1
102
RTVSPropertyOp13
 70
     1
102
RTVSPropertyOp14
 70
     1
102
RTVSPropertyOp15
 70
     1
102
RTVSPropertyOp16
 70
     1
102
RTVSPropertyOp17
 70
     1
102
RTVSPropertyOp18
 70
     1
102
RTVSPropertyOp19
 70
     1
102
RTVSPropertyOp20
 70
     1
102
RTVSPropertyOp21
 70
     1
102
RTVSPropertyOp22
 70
     1
102
RTVSPropertyOp23
 70
     1
102
RTVSPropertyOp24
 70
     1
102
RTVSPropertyOp25
 70
     1
102
RTVSPropertyOp26
 70
     1
102
RTVSPropertyOp27
 70
     1
  0
XRECORD
  5
7A6
102
{ACAD_REACTORS
330
7A5
102
}
330
7A5
100
AcDbXrecord
280
     1
102
RTVSPropertyOp0
 70
     0
102
RTVSPropertyOp1
 70
     0
102
RTVSPropertyOp2
 70
     0
102
RTVSPropertyOp3
 70
     0
102
RTVSPropertyOp4
 70
     0
102
RTVSPropertyOp5
 70
     0
102
RTVSPropertyOp6
 70
     0
102
RTVSPropertyOp7
 70
     0
102
RTVSPropertyOp8
 70
     0
102
RTVSPropertyOp9
 70
     0
102
RTVSPropertyOp10
 70
     0
102
RTVSPropertyOp11
 70
     0
102
RTVSPropertyOp12
 70
     0
102
RTVSPropertyOp13
 70
     0
102
RTVSPropertyOp14
 70
     2
102
RTVSPropertyOp15
 70
     0
102
RTVSPropertyOp16
 70
     0
102
RTVSPropertyOp17
 70
     0
102
RTVSPropertyOp18
 70
     0
102
RTVSPropertyOp19
 70
     0
102
RTVSPropertyOp20
 70
     0
102
RTVSPropertyOp21
 70
     0
102
RTVSPropertyOp22
 70
     0
102
RTVSPropertyOp23
 70
     0
102
RTVSPropertyOp24
 70
     0
102
RTVSPropertyOp25
 70
     0
102
RTVSPropertyOp26
 70
     0
102
RTVSPropertyOp27
 70
     0
  0
XRECORD
  5
796
102
{ACAD_REACTORS
330
795
102
}
330
795
100
AcDbXrecord
280
     1
102
RTVSPropertyOp0
 70
     1
102
RTVSPropertyOp1
 70
     1
102
RTVSPropertyOp2
 70
     1
102
RTVSPropertyOp3
 70
     1
102
RTVSPropertyOp4
 70
     1
102
RTVSPropertyOp5
 70
     1
102
RTVSPropertyOp6
 70
     1
102
RTVSPropertyOp7
 70
     1
102
RTVSPropertyOp8
 70
     1
102
RTVSPropertyOp9
 70
     1
102
RTVSPropertyOp10
 70
     1
102
RTVSPropertyOp11
 70
     1
102
RTVSPropertyOp12
 70
     1
102
RTVSPropertyOp13
 70
     1
102
RTVSPropertyOp14
 70
     1
102
RTVSPropertyOp15
 70
     1
102
RTVSPropertyOp16
 70
     1
102
RTVSPropertyOp17
 70
     1
102
RTVSPropertyOp18
 70
     1
102
RTVSPropertyOp19
 70
     1
102
RTVSPropertyOp20
 70
     1
102
RTVSPropertyOp21
 70
     1
102
RTVSPropertyOp22
 70
     1
102
RTVSPropertyOp23
 70
     1
102
RTVSPropertyOp24
 70
     1
102
RTVSPropertyOp25
 70
     1
102
RTVSPropertyOp26
 70
     1
102
RTVSPropertyOp27
 70
     1
  0
XRECORD
  5
79C
102
{ACAD_REACTORS
330
79B
102
}
330
79B
100
AcDbXrecord
280
     1
102
RTVSPropertyOp0
 70
     1
102
RTVSPropertyOp1
 70
     1
102
RTVSPropertyOp2
 70
     1
102
RTVSPropertyOp3
 70
     1
102
RTVSPropertyOp4
 70
     1
102
RTVSPropertyOp5
 70
     1
102
RTVSPropertyOp6
 70
     1
102
RTVSPropertyOp7
 70
     1
102
RTVSPropertyOp8
 70
     1
102
RTVSPropertyOp9
 70
     1
102
RTVSPropertyOp10
 70
     1
102
RTVSPropertyOp11
 70
     1
102
RTVSPropertyOp12
 70
     1
102
RTVSPropertyOp13
 70
     1
102
RTVSPropertyOp14
 70
     1
102
RTVSPropertyOp15
 70
     1
102
RTVSPropertyOp16
 70
     1
102
RTVSPropertyOp17
 70
     1
102
RTVSPropertyOp18
 70
     1
102
RTVSPropertyOp19
 70
     1
102
RTVSPropertyOp20
 70
     1
102
RTVSPropertyOp21
 70
     1
102
RTVSPropertyOp22
 70
     1
102
RTVSPropertyOp23
 70
     1
102
RTVSPropertyOp24
 70
     1
102
RTVSPropertyOp25
 70
     1
102
RTVSPropertyOp26
 70
     1
102
RTVSPropertyOp27
 70
     1
  0
ENDSEC
  0
EOF
