  0
SECTION
  2
HEADER
  9
$ACADVER
  1
AC1015
  9
$ACADMAINTVER
 70
     6
  9
$DWGCODEPAGE
  3
ANSI_1252
  9
$INSBASE
 10
0.0
 20
0.0
 30
0.0
  9
$EXTMIN
 10
83.7784353741496
 20
-650.245869367347
 30
0.0
  9
$EXTMAX
 10
667.7784353741496
 20
-240.245869367347
 30
0.0
  9
$LIMMIN
 10
0.0
 20
0.0
  9
$LIMMAX
 10
12.0
 20
9.0
  9
$ORTHOMODE
 70
     0
  9
$REGENMODE
 70
     1
  9
$FILLMODE
 70
     1
  9
$QTEXTMODE
 70
     0
  9
$MIRRTEXT
 70
     1
  9
$LTSCALE
 40
1.0
  9
$ATTMODE
 70
     1
  9
$TEXTSIZE
 40
0.2
  9
$TRACEWID
 40
0.05
  9
$TEXTSTYLE
  7
Standard
  9
$CLAYER
  8
0
  9
$CELTYPE
  6
ByLayer
  9
$CECOLOR
 62
   256
  9
$CELTSCALE
 40
1.0
  9
$DISPSILH
 70
     0
  9
$DIMSCALE
 40
1.0
  9
$DIMASZ
 40
0.18
  9
$DIMEXO
 40
0.0625
  9
$DIMDLI
 40
0.38
  9
$DIMRND
 40
0.0
  9
$DIMDLE
 40
0.0
  9
$DIMEXE
 40
0.18
  9
$DIMTP
 40
0.0
  9
$DIMTM
 40
0.0
  9
$DIMTXT
 40
0.18
  9
$DIMCEN
 40
0.09
  9
$DIMTSZ
 40
0.0
  9
$DIMTOL
 70
     0
  9
$DIMLIM
 70
     0
  9
$DIMTIH
 70
     1
  9
$DIMTOH
 70
     1
  9
$DIMSE1
 70
     0
  9
$DIMSE2
 70
     0
  9
$DIMTAD
 70
     0
  9
$DIMZIN
 70
     0
  9
$DIMBLK
  1

  9
$DIMASO
 70
     1
  9
$DIMSHO
 70
     1
  9
$DIMPOST
  1

  9
$DIMAPOST
  1

  9
$DIMALT
 70
     0
  9
$DIMALTD
 70
     2
  9
$DIMALTF
 40
25.4
  9
$DIMLFAC
 40
1.0
  9
$DIMTOFL
 70
     0
  9
$DIMTVP
 40
0.0
  9
$DIMTIX
 70
     0
  9
$DIMSOXD
 70
     0
  9
$DIMSAH
 70
     0
  9
$DIMBLK1
  1

  9
$DIMBLK2
  1

  9
$DIMSTYLE
  2
Standard
  9
$DIMCLRD
 70
     0
  9
$DIMCLRE
 70
     0
  9
$DIMCLRT
 70
     0
  9
$DIMTFAC
 40
1.0
  9
$DIMGAP
 40
0.09
  9
$DIMJUST
 70
     0
  9
$DIMSD1
 70
     0
  9
$DIMSD2
 70
     0
  9
$DIMTOLJ
 70
     1
  9
$DIMTZIN
 70
     0
  9
$DIMALTZ
 70
     0
  9
$DIMALTTZ
 70
     0
  9
$DIMUPT
 70
     0
  9
$DIMDEC
 70
     4
  9
$DIMTDEC
 70
     4
  9
$DIMALTU
 70
     2
  9
$DIMALTTD
 70
     2
  9
$DIMTXSTY
  7
Standard
  9
$DIMAUNIT
 70
     0
  9
$DIMADEC
 70
     0
  9
$DIMALTRND
 40
0.0
  9
$DIMAZIN
 70
     0
  9
$DIMDSEP
 70
    46
  9
$DIMATFIT
 70
     3
  9
$DIMFRAC
 70
     0
  9
$DIMLDRBLK
  1

  9
$DIMLUNIT
 70
     2
  9
$DIMLWD
 70
    -2
  9
$DIMLWE
 70
    -2
  9
$DIMTMOVE
 70
     0
  9
$LUNITS
 70
     2
  9
$LUPREC
 70
     4
  9
$SKETCHINC
 40
0.1
  9
$FILLETRAD
 40
0.5
  9
$AUNITS
 70
     0
  9
$AUPREC
 70
     0
  9
$MENU
  1
.
  9
$ELEVATION
 40
0.0
  9
$PELEVATION
 40
0.0
  9
$THICKNESS
 40
0.0
  9
$LIMCHECK
 70
     0
  9
$CHAMFERA
 40
0.5
  9
$CHAMFERB
 40
0.5
  9
$CHAMFERC
 40
1.0
  9
$CHAMFERD
 40
0.0
  9
$SKPOLY
 70
     0
  9
$TDCREATE
 40
2454621.517816563
  9
$TDUCREATE
 40
2454621.434483229
  9
$TDUPDATE
 40
2454621.517816574
  9
$TDUUPDATE
 40
2454621.434483241
  9
$TDINDWG
 40
0.0000000116
  9
$TDUSRTIMER
 40
0.0000000116
  9
$USRTIMER
 70
     1
  9
$ANGBASE
 50
0.0
  9
$ANGDIR
 70
     0
  9
$PDMODE
 70
     0
  9
$PDSIZE
 40
0.0
  9
$PLINEWID
 40
0.0
  9
$SPLFRAME
 70
     0
  9
$SPLINETYPE
 70
     6
  9
$SPLINESEGS
 70
     8
  9
$HANDSEED
  5
600
  9
$SURFTAB1
 70
     6
  9
$SURFTAB2
 70
     6
  9
$SURFTYPE
 70
     6
  9
$SURFU
 70
     6
  9
$SURFV
 70
     6
  9
$UCSBASE
  2

  9
$UCSNAME
  2

  9
$UCSORG
 10
0.0
 20
0.0
 30
0.0
  9
$UCSXDIR
 10
1.0
 20
0.0
 30
0.0
  9
$UCSYDIR
 10
0.0
 20
1.0
 30
0.0
  9
$UCSORTHOREF
  2

  9
$UCSORTHOVIEW
 70
     0
  9
$UCSORGTOP
 10
0.0
 20
0.0
 30
0.0
  9
$UCSORGBOTTOM
 10
0.0
 20
0.0
 30
0.0
  9
$UCSORGLEFT
 10
0.0
 20
0.0
 30
0.0
  9
$UCSORGRIGHT
 10
0.0
 20
0.0
 30
0.0
  9
$UCSORGFRONT
 10
0.0
 20
0.0
 30
0.0
  9
$UCSORGBACK
 10
0.0
 20
0.0
 30
0.0
  9
$PUCSBASE
  2

  9
$PUCSNAME
  2

  9
$PUCSORG
 10
0.0
 20
0.0
 30
0.0
  9
$PUCSXDIR
 10
1.0
 20
0.0
 30
0.0
  9
$PUCSYDIR
 10
0.0
 20
1.0
 30
0.0
  9
$PUCSORTHOREF
  2

  9
$PUCSORTHOVIEW
 70
     0
  9
$PUCSORGTOP
 10
0.0
 20
0.0
 30
0.0
  9
$PUCSORGBOTTOM
 10
0.0
 20
0.0
 30
0.0
  9
$PUCSORGLEFT
 10
0.0
 20
0.0
 30
0.0
  9
$PUCSORGRIGHT
 10
0.0
 20
0.0
 30
0.0
  9
$PUCSORGFRONT
 10
0.0
 20
0.0
 30
0.0
  9
$PUCSORGBACK
 10
0.0
 20
0.0
 30
0.0
  9
$USERI1
 70
     0
  9
$USERI2
 70
     0
  9
$USERI3
 70
     0
  9
$USERI4
 70
     0
  9
$USERI5
 70
     0
  9
$USERR1
 40
15.5
  9
$USERR2
 40
0.0
  9
$USERR3
 40
0.0
  9
$USERR4
 40
0.0
  9
$USERR5
 40
0.0
  9
$WORLDVIEW
 70
     1
  9
$SHADEDGE
 70
     3
  9
$SHADEDIF
 70
    70
  9
$TILEMODE
 70
     1
  9
$MAXACTVP
 70
    64
  9
$PINSBASE
 10
0.0
 20
0.0
 30
0.0
  9
$PLIMCHECK
 70
     0
  9
$PEXTMIN
 10
1.00000000000000E+20
 20
1.00000000000000E+20
 30
1.00000000000000E+20
  9
$PEXTMAX
 10
-1.00000000000000E+20
 20
-1.00000000000000E+20
 30
-1.00000000000000E+20
  9
$PLIMMIN
 10
0.0
 20
0.0
  9
$PLIMMAX
 10
12.0
 20
9.0
  9
$UNITMODE
 70
     0
  9
$VISRETAIN
 70
     1
  9
$PLINEGEN
 70
     0
  9
$PSLTSCALE
 70
     1
  9
$TREEDEPTH
 70
  3020
  9
$CMLSTYLE
  2
Standard
  9
$CMLJUST
 70
     0
  9
$CMLSCALE
 40
1.0
  9
$PROXYGRAPHICS
 70
     1
  9
$MEASUREMENT
 70
     1
  9
$CELWEIGHT
370
    -1
  9
$ENDCAPS
280
     0
  9
$JOINSTYLE
280
     0
  9
$LWDISPLAY
290
     0
  9
$INSUNITS
 70
     1
  9
$HYPERLINKBASE
  1

  9
$STYLESHEET
  1

  9
$XEDIT
290
     1
  9
$CEPSNTYPE
380
     0
  9
$PSTYLEMODE
290
     1
  9
$FINGERPRINTGUID
  2
{74897D27-695D-41A2-8A9E-F84394863D7B}
  9
$VERSIONGUID
  2
{FAEB1C32-E019-11D5-929B-00C0DF256EC4}
  9
$EXTNAMES
290
     1
  9
$PSVPSCALE
 40
0.0
  9
$OLESTARTUP
290
     0
  0
ENDSEC
  0
SECTION
  2
CLASSES
  0
CLASS
  1
ACDBDICTIONARYWDFLT
  2
AcDbDictionaryWithDefault
  3
ObjectDBX Classes
 90
        0
280
     0
281
     0
  0
CLASS
  1
VISUALSTYLE
  2
AcDbVisualStyle
  3
ObjectDBX Classes
 90
     4095
280
     0
281
     0
  0
CLASS
  1

  2
exOdDbCircle
  3

 90
        0
280
     0
281
     1
  0
CLASS
  1

  2
exOdDbSpline
  3

 90
        0
280
     0
281
     1
  0
CLASS
  1

  2
exOdDbPolyline
  3

 90
        0
280
     0
281
     1
  0
CLASS
  1
ACDBPLACEHOLDER
  2
AcDbPlaceHolder
  3
ObjectDBX Classes
 90
        0
280
     0
281
     0
  0
CLASS
  1
LAYOUT
  2
AcDbLayout
  3
ObjectDBX Classes
 90
        0
280
     0
281
     0
  0
ENDSEC
  0
SECTION
  2
TABLES
  0
TABLE
  2
VPORT
  5
8
330
0
100
AcDbSymbolTable
 70
     1
  0
VPORT
  5
29
330
8
100
AcDbSymbolTableRecord
100
AcDbViewportTableRecord
  2
*Active
 70
     0
 10
0.0
 20
0.0
 11
1.0
 21
1.0
 12
375.7784353741496
 22
-445.245869367347
 13
0.0
 23
0.0
 14
0.5
 24
0.5
 15
0.5
 25
0.5
 16
0.0
 26
0.0
 36
1.0
 17
0.0
 27
0.0
 37
0.0
 40
451.0000000000001
 41
1.60267857142857
 42
50.0
 43
0.0
 44
0.0
 50
0.0
 51
0.0
 71
     0
 72
   100
 73
     1
 74
     3
 75
     0
 76
     0
 77
     0
 78
     0
281
     0
 65
     1
110
0.0
120
0.0
130
0.0
111
1.0
121
0.0
131
0.0
112
0.0
122
1.0
132
0.0
 79
     0
146
0.0
  0
ENDTAB
  0
TABLE
  2
LTYPE
  5
5
330
0
100
AcDbSymbolTable
 70
     8
  0
LTYPE
  5
14
330
5
100
AcDbSymbolTableRecord
100
AcDbLinetypeTableRecord
  2
ByBlock
 70
     0
  3

 72
    65
 73
     0
 40
0.0
  0
LTYPE
  5
15
330
5
100
AcDbSymbolTableRecord
100
AcDbLinetypeTableRecord
  2
ByLayer
 70
     0
  3

 72
    65
 73
     0
 40
0.0
  0
LTYPE
  5
16
330
5
100
AcDbSymbolTableRecord
100
AcDbLinetypeTableRecord
  2
Continuous
 70
     0
  3
Solid line
 72
    65
 73
     0
 40
0.0
  0
LTYPE
  5
3B
330
5
100
AcDbSymbolTableRecord
100
AcDbLinetypeTableRecord
  2
DASHED
 70
     0
  3
Dashed
 72
    65
 73
     2
 40
15.0
 49
7.0
 74
     0
 49
-8.0
 74
     0
  0
LTYPE
  5
3C
330
5
100
AcDbSymbolTableRecord
100
AcDbLinetypeTableRecord
  2
DOTTED
 70
     0
  3
Dotted
 72
    65
 73
     2
 40
1.0
 49
0.0
 74
     0
 49
-1.0
 74
     0
  0
LTYPE
  5
3D
330
5
100
AcDbSymbolTableRecord
100
AcDbLinetypeTableRecord
  2
DOT_CENTER
 70
     0
  3
Dot_Center
 72
    65
 73
     4
 40
14.0
 49
12.0
 74
     0
 49
-1.0
 74
     0
 49
0.0
 74
     0
 49
-1.0
 74
     0
  0
LTYPE
  5
3E
330
5
100
AcDbSymbolTableRecord
100
AcDbLinetypeTableRecord
  2
LONG_DASHED
 70
     0
  3
Long_Dashed
 72
    65
 73
     2
 40
15.0
 49
10.0
 74
     0
 49
-5.0
 74
     0
  0
LTYPE
  5
3F
330
5
100
AcDbSymbolTableRecord
100
AcDbLinetypeTableRecord
  2
DASH_CENTER
 70
     0
  3
Dash_Center
 72
    65
 73
     4
 40
14.0
 49
11.0
 74
     0
 49
-1.0
 74
     0
 49
1.0
 74
     0
 49
-1.0
 74
     0
  0
LTYPE
  5
40
330
5
100
AcDbSymbolTableRecord
100
AcDbLinetypeTableRecord
  2
PHANTOM
 70
     0
  3
Phantom
 72
    65
 73
     6
 40
13.0
 49
10.0
 74
     0
 49
-1.0
 74
     0
 49
0.0
 74
     0
 49
-1.0
 74
     0
 49
0.0
 74
     0
 49
-1.0
 74
     0
  0
LTYPE
  5
41
330
5
100
AcDbSymbolTableRecord
100
AcDbLinetypeTableRecord
  2
CENTER_DASH_DASH
 70
     0
  3
Center_Dash_Dash
 72
    65
 73
     6
 40
14.0
 49
9.0
 74
     0
 49
-1.0
 74
     0
 49
1.0
 74
     0
 49
-1.0
 74
     0
 49
1.0
 74
     0
 49
-1.0
 74
     0
  0
ENDTAB
  0
TABLE
  2
LAYER
  5
2
330
0
100
AcDbSymbolTable
 70
     3
  0
LAYER
  5
10
330
2
100
AcDbSymbolTableRecord
100
AcDbLayerTableRecord
  2
0
 70
     0
 62
     7
  6
Continuous
370
    -3
390
F
  0
LAYER
  5
42
330
2
100
AcDbSymbolTableRecord
100
AcDbLayerTableRecord
  2
1
 70
     0
 62
     7
  6
Continuous
370
    -3
390
F
  0
LAYER
  5
43
330
2
100
AcDbSymbolTableRecord
100
AcDbLayerTableRecord
  2
EBENE_1
 70
     0
 62
     7
  6
Continuous
370
    -3
390
F
  0
ENDTAB
  0
TABLE
  2
STYLE
  5
3
330
0
100
AcDbSymbolTable
 70
     9
  0
STYLE
  5
11
330
3
100
AcDbSymbolTableRecord
100
AcDbTextStyleTableRecord
  2
Standard
 70
     0
 40
0.0
 41
1.0
 50
0.0
 71
     0
 42
0.2
  3
txt
  4

  0
STYLE
  5
198
330
3
100
AcDbSymbolTableRecord
100
AcDbTextStyleTableRecord
  2
CONVERTER_11
 70
     0
 40
0.0
 41
0.9
 50
0.0
 71
     0
 42
0.2
  3
txt.shx
  4

  0
STYLE
  5
2C7
330
3
100
AcDbSymbolTableRecord
100
AcDbTextStyleTableRecord
  2
CONVERTER_12
 70
     0
 40
0.0
 41
0.54
 50
0.0
 71
     0
 42
0.2
  3
txt.shx
  4

  0
STYLE
  5
2C9
330
3
100
AcDbSymbolTableRecord
100
AcDbTextStyleTableRecord
  2
CONVERTER_13
 70
     0
 40
0.0
 41
0.72
 50
0.0
 71
     0
 42
0.2
  3
txt.shx
  4

  0
STYLE
  5
2CB
330
3
100
AcDbSymbolTableRecord
100
AcDbTextStyleTableRecord
  2
CONVERTER_14
 70
     0
 40
0.0
 41
0.765
 50
0.0
 71
     0
 42
0.2
  3
txt.shx
  4

  0
STYLE
  5
2F6
330
3
100
AcDbSymbolTableRecord
100
AcDbTextStyleTableRecord
  2
CONVERTER_15
 70
     0
 40
0.0
 41
0.657
 50
0.0
 71
     0
 42
0.2
  3
txt.shx
  4

  0
STYLE
  5
2F8
330
3
100
AcDbSymbolTableRecord
100
AcDbTextStyleTableRecord
  2
CONVERTER_16
 70
     0
 40
0.0
 41
0.702
 50
0.0
 71
     0
 42
0.2
  3
txt.shx
  4

  0
STYLE
  5
2FC
330
3
100
AcDbSymbolTableRecord
100
AcDbTextStyleTableRecord
  2
CONVERTER_17
 70
     0
 40
0.0
 41
0.99
 50
0.0
 71
     0
 42
0.2
  3
txt.shx
  4

  0
STYLE
  5
308
330
3
100
AcDbSymbolTableRecord
100
AcDbTextStyleTableRecord
  2
CONVERTER_18
 70
     0
 40
0.0
 41
0.81
 50
0.0
 71
     0
 42
0.2
  3
txt.shx
  4

  0
ENDTAB
  0
TABLE
  2
VIEW
  5
6
330
0
100
AcDbSymbolTable
 70
     0
  0
ENDTAB
  0
TABLE
  2
UCS
  5
7
330
0
100
AcDbSymbolTable
 70
     0
  0
ENDTAB
  0
TABLE
  2
APPID
  5
9
330
0
100
AcDbSymbolTable
 70
     1
  0
APPID
  5
12
330
9
100
AcDbSymbolTableRecord
100
AcDbRegAppTableRecord
  2
ACAD
 70
     0
  0
ENDTAB
  0
TABLE
  2
DIMSTYLE
  5
A
330
0
100
AcDbSymbolTable
 70
    16
100
AcDbDimStyleTable
  0
DIMSTYLE
105
27
330
A
100
AcDbSymbolTableRecord
100
AcDbDimStyleTableRecord
  2
Standard
 70
     0
340
11
  0
DIMSTYLE
105
19C
102
{ACAD_REACTORS
330
19D
102
}
330
A
100
AcDbSymbolTableRecord
100
AcDbDimStyleTableRecord
  2
ME10_DIM_10
 70
     0
  3
- GEZE TS 5000
 41
4.66666666666667
 42
0.0
 44
2.66666666666667
 73
     0
 74
     0
 77
     1
 78
     8
140
4.66666666666667
147
2.66666666666667
172
     1
173
     1
176
     3
177
     3
178
     4
271
     2
340
198
  0
DIMSTYLE
105
1A7
102
{ACAD_REACTORS
330
1A8
102
}
330
A
100
AcDbSymbolTableRecord
100
AcDbDimStyleTableRecord
  2
ME10_DIM_11
 70
     0
 41
4.66666666666667
 42
0.0
 44
2.66666666666667
 73
     0
 74
     0
 77
     1
 78
     8
140
4.66666666666667
147
2.66666666666667
172
     1
173
     1
176
     3
177
     3
178
     4
271
     2
340
198
  0
DIMSTYLE
105
1B2
102
{ACAD_REACTORS
330
1B3
102
}
330
A
100
AcDbSymbolTableRecord
100
AcDbDimStyleTableRecord
  2
ME10_DIM_12
 70
     0
 41
4.66666666666667
 42
0.0
 44
2.66666666666667
 73
     0
 74
     0
 77
     1
 78
     8
140
4.66666666666667
147
2.66666666666667
172
     1
173
     1
176
     3
177
     3
178
     4
271
     2
340
198
  0
DIMSTYLE
105
1BD
102
{ACAD_REACTORS
330
1BE
102
}
330
A
100
AcDbSymbolTableRecord
100
AcDbDimStyleTableRecord
  2
ME10_DIM_13
 70
     0
 41
4.66666666666667
 42
0.0
 44
2.66666666666667
 73
     0
 74
     0
 77
     1
 78
     8
140
4.66666666666667
147
2.66666666666667
172
     1
173
     1
176
     3
177
     3
178
     4
271
     2
340
198
  0
DIMSTYLE
105
1C8
102
{ACAD_REACTORS
330
1C9
102
}
330
A
100
AcDbSymbolTableRecord
100
AcDbDimStyleTableRecord
  2
ME10_DIM_14
 70
     0
  3
- GEZE TS 3000 V
 41
4.66666666666667
 42
0.0
 44
2.66666666666667
 73
     0
 74
     0
 77
     1
 78
     8
140
4.66666666666667
147
2.66666666666667
172
     1
173
     1
176
     3
177
     3
178
     4
271
     2
340
198
  0
DIMSTYLE
105
1D3
102
{ACAD_REACTORS
330
1D4
102
}
330
A
100
AcDbSymbolTableRecord
100
AcDbDimStyleTableRecord
  2
ME10_DIM_15
 70
     0
 41
4.66666666666667
 42
0.0
 44
2.66666666666667
 73
     0
 74
     0
 77
     1
 78
     8
140
4.66666666666667
147
2.66666666666667
172
     1
173
     1
176
     3
177
     3
178
     4
271
     2
340
198
  0
DIMSTYLE
105
1DE
102
{ACAD_REACTORS
330
1DF
102
}
330
A
100
AcDbSymbolTableRecord
100
AcDbDimStyleTableRecord
  2
ME10_DIM_16
 70
     0
 41
4.66666666666667
 42
0.0
 44
2.66666666666667
 47
0.2
 48
0.2
 71
     1
 73
     0
 74
     0
 77
     1
 78
     8
140
4.66666666666667
146
0.6
147
2.66666666666667
172
     1
173
     1
176
     3
177
     3
178
     4
271
     2
272
     1
340
198
  0
DIMSTYLE
105
5A3
102
{ACAD_REACTORS
330
5A4
102
}
330
A
100
AcDbSymbolTableRecord
100
AcDbDimStyleTableRecord
  2
ME10_DIM_17
 70
     0
 41
2.5
 42
0.0
 44
2.0
 73
     0
 74
     0
 77
     1
 78
     8
140
2.5
147
2.0
172
     1
173
     1
176
     3
177
     3
178
     3
271
     2
340
198
  0
DIMSTYLE
105
5AE
102
{ACAD_REACTORS
330
5AF
102
}
330
A
100
AcDbSymbolTableRecord
100
AcDbDimStyleTableRecord
  2
ME10_DIM_18
 70
     0
 41
2.5
 42
0.0
 44
2.0
 73
     0
 74
     0
 77
     1
 78
     8
140
2.5
147
2.0
172
     1
173
     1
176
     3
177
     3
178
     3
271
     2
340
198
  0
DIMSTYLE
105
5BA
102
{ACAD_REACTORS
330
5BB
102
}
330
A
100
AcDbSymbolTableRecord
100
AcDbDimStyleTableRecord
  2
ME10_DIM_19
 70
     0
 41
3.5
 42
0.0
 44
2.0
 73
     0
 74
     0
 77
     1
 78
     8
140
3.5
147
2.0
172
     1
173
     1
176
     3
177
     3
178
     4
271
     2
340
198
  0
DIMSTYLE
105
5C5
102
{ACAD_REACTORS
330
5C6
102
}
330
A
100
AcDbSymbolTableRecord
100
AcDbDimStyleTableRecord
  2
ME10_DIM_20
 70
     0
  3
ø<>
 41
3.5
 42
0.0
 44
2.0
 73
     0
 74
     0
 77
     1
 78
     8
140
3.5
147
2.0
172
     1
173
     1
176
     3
177
     3
178
     4
271
     2
340
198
  0
DIMSTYLE
105
5D1
102
{ACAD_REACTORS
330
5D2
102
}
330
A
100
AcDbSymbolTableRecord
100
AcDbDimStyleTableRecord
  2
ME10_DIM_21
 70
     0
 41
3.5
 42
0.0
 44
2.0
 73
     0
 74
     0
 77
     1
 78
     8
140
3.5
147
2.0
172
     1
173
     1
176
     3
177
     3
178
     4
271
     2
340
198
  0
DIMSTYLE
105
5DD
102
{ACAD_REACTORS
330
5DE
102
}
330
A
100
AcDbSymbolTableRecord
100
AcDbDimStyleTableRecord
  2
ME10_DIM_22
 70
     0
 41
3.5
 42
0.0
 44
2.0
 73
     0
 74
     0
 77
     1
 78
     8
140
3.5
147
2.0
172
     1
173
     1
176
     3
177
     3
178
     4
271
     2
340
198
  0
DIMSTYLE
105
5E8
102
{ACAD_REACTORS
330
5E9
102
}
330
A
100
AcDbSymbolTableRecord
100
AcDbDimStyleTableRecord
  2
ME10_DIM_23
 70
     0
  3
ø<>
 41
3.5
 42
0.0
 44
2.0
 73
     0
 74
     0
 77
     1
 78
     8
140
3.5
147
2.0
172
     1
173
     1
176
     3
177
     3
178
     4
271
     2
340
198
  0
DIMSTYLE
105
5F4
102
{ACAD_REACTORS
330
5F5
102
}
330
A
100
AcDbSymbolTableRecord
100
AcDbDimStyleTableRecord
  2
ME10_DIM_24
 70
     0
 41
3.5
 42
0.0
 44
2.0
 73
     0
 74
     0
 77
     1
 78
     8
140
3.5
147
2.0
172
     1
173
     1
176
     3
177
     3
178
     4
271
     2
340
198
  0
ENDTAB
  0
TABLE
  2
BLOCK_RECORD
  5
1
330
0
100
AcDbSymbolTable
 70
    21
  0
BLOCK_RECORD
  5
1F
330
1
100
AcDbSymbolTableRecord
100
AcDbBlockTableRecord
  2
*Model_Space
340
22
  0
BLOCK_RECORD
  5
1B
330
1
100
AcDbSymbolTableRecord
100
AcDbBlockTableRecord
  2
*Paper_Space
340
1E
  0
BLOCK_RECORD
  5
23
330
1
100
AcDbSymbolTableRecord
100
AcDbBlockTableRecord
  2
*Paper_Space0
340
26
  0
BLOCK_RECORD
  5
44
330
1
100
AcDbSymbolTableRecord
100
AcDbBlockTableRecord
  2
UEBERSICHT
340
0
102
{BLKREFS
331
54
102
}
  0
BLOCK_RECORD
  5
47
330
1
100
AcDbSymbolTableRecord
100
AcDbBlockTableRecord
  2
Top__1
340
0
102
{BLKREFS
331
55
102
}
  0
BLOCK_RECORD
  5
4A
330
1
100
AcDbSymbolTableRecord
100
AcDbBlockTableRecord
  2
Top__2
340
0
102
{BLKREFS
331
56
102
}
  0
BLOCK_RECORD
  5
4D
330
1
100
AcDbSymbolTableRecord
100
AcDbBlockTableRecord
  2
a2kl
340
0
102
{BLKREFS
331
51
102
}
  0
BLOCK_RECORD
  5
50
330
1
100
AcDbSymbolTableRecord
100
AcDbBlockTableRecord
  2
rahmen
340
0
102
{BLKREFS
331
57
102
}
  0
BLOCK_RECORD
  5
192
330
1
100
AcDbSymbolTableRecord
100
AcDbBlockTableRecord
  2
*D6
340
0
  0
BLOCK_RECORD
  5
19E
330
1
100
AcDbSymbolTableRecord
100
AcDbBlockTableRecord
  2
*D7
340
0
  0
BLOCK_RECORD
  5
1A9
330
1
100
AcDbSymbolTableRecord
100
AcDbBlockTableRecord
  2
*D8
340
0
  0
BLOCK_RECORD
  5
1B4
330
1
100
AcDbSymbolTableRecord
100
AcDbBlockTableRecord
  2
*D9
340
0
  0
BLOCK_RECORD
  5
1BF
330
1
100
AcDbSymbolTableRecord
100
AcDbBlockTableRecord
  2
*D10
340
0
  0
BLOCK_RECORD
  5
1CA
330
1
100
AcDbSymbolTableRecord
100
AcDbBlockTableRecord
  2
*D11
340
0
  0
BLOCK_RECORD
  5
1D5
330
1
100
AcDbSymbolTableRecord
100
AcDbBlockTableRecord
  2
*D12
340
0
  0
BLOCK_RECORD
  5
59A
330
1
100
AcDbSymbolTableRecord
100
AcDbBlockTableRecord
  2
*D13
340
0
  0
BLOCK_RECORD
  5
5A5
330
1
100
AcDbSymbolTableRecord
100
AcDbBlockTableRecord
  2
*D14
340
0
  0
BLOCK_RECORD
  5
5B0
330
1
100
AcDbSymbolTableRecord
100
AcDbBlockTableRecord
  2
*D15
340
0
  0
BLOCK_RECORD
  5
5BC
330
1
100
AcDbSymbolTableRecord
100
AcDbBlockTableRecord
  2
*D16
340
0
  0
BLOCK_RECORD
  5
5C7
330
1
100
AcDbSymbolTableRecord
100
AcDbBlockTableRecord
  2
*D17
340
0
  0
BLOCK_RECORD
  5
5D3
330
1
100
AcDbSymbolTableRecord
100
AcDbBlockTableRecord
  2
*D18
340
0
  0
BLOCK_RECORD
  5
5DF
330
1
100
AcDbSymbolTableRecord
100
AcDbBlockTableRecord
  2
*D19
340
0
  0
BLOCK_RECORD
  5
5EA
330
1
100
AcDbSymbolTableRecord
100
AcDbBlockTableRecord
  2
*D20
340
0
  0
ENDTAB
  0
ENDSEC
  0
SECTION
  2
BLOCKS
  0
BLOCK
  5
20
330
1F
100
AcDbEntity
  8
0
100
AcDbBlockBegin
  2
*Model_Space
 70
     0
 71
     0
 10
0.0
 20
0.0
 30
0.0
  3
*Model_Space
  1

  0
ENDBLK
  5
21
330
1F
100
AcDbEntity
  8
0
100
AcDbBlockEnd
  0
BLOCK
  5
1C
330
1B
100
AcDbEntity
 67
     1
  8
0
100
AcDbBlockBegin
  2
*Paper_Space
 70
     0
 71
     0
 10
0.0
 20
0.0
 30
0.0
  3
*Paper_Space
  1

  0
ENDBLK
  5
1D
330
1B
100
AcDbEntity
 67
     1
  8
0
100
AcDbBlockEnd
  0
BLOCK
  5
24
330
23
100
AcDbEntity
  8
0
100
AcDbBlockBegin
  2
*Paper_Space0
 70
     0
 71
     0
 10
0.0
 20
0.0
 30
0.0
  3
*Paper_Space0
  1

  0
ENDBLK
  5
25
330
23
100
AcDbEntity
  8
0
100
AcDbBlockEnd
  0
BLOCK
  5
45
330
44
100
AcDbEntity
  8
0
100
AcDbBlockBegin
  2
UEBERSICHT
 70
     0
 71
     0
 10
179.3950324555867
 20
-621.8998213333333
 30
0.0
  3
UEBERSICHT
  1

  0
LINE
  5
58
330
44
100
AcDbEntity
  8
1
  6
DASH_CENTER
 62
     3
100
AcDbLine
 10
544.333496
 20
-482.0998213333333
 30
0.0
 11
544.333496
 21
-461.6998213333333
 31
0.0
  0
LINE
  5
59
330
44
100
AcDbEntity
  8
1
  6
DASH_CENTER
 62
     3
100
AcDbLine
 10
534.1334959999998
 20
-471.8998213333333
 30
0.0
 11
554.5334959999997
 21
-471.8998213333333
 31
0.0
  0
LINE
  5
5A
330
44
100
AcDbEntity
  8
1
  6
DASH_CENTER
 62
     3
100
AcDbLine
 10
350.333496
 20
-497.8998213333333
 30
0.0
 11
576.3334959999999
 21
-497.8998213333333
 31
0.0
  0
LINE
  5
5B
330
44
100
AcDbEntity
  8
1
  6
DASH_CENTER
 62
     3
100
AcDbLine
 10
576.3334959999999
 20
-497.8998213333333
 30
0.0
 11
576.3334959999999
 21
-437.8998213333333
 31
0.0
  0
LINE
  5
5C
330
44
100
AcDbEntity
  8
0
  6
DASHED
 62
     3
100
AcDbLine
 10
550.1180013333333
 20
-467.529216
 30
0.0
 11
539.962972
 21
-477.6842453333334
 31
0.0
  0
LINE
  5
5D
330
44
100
AcDbEntity
  8
0
  6
DASHED
 62
     3
100
AcDbLine
 10
548.7038573333333
 20
-466.1149906666667
 30
0.0
 11
538.5487466666666
 21
-476.27002
 31
0.0
  0
LINE
  5
5E
330
44
100
AcDbEntity
  8
0
  6
Continuous
 62
     1
100
AcDbLine
 10
419.3296706666666
 20
-437.5013189028019
 30
0.0
 11
419.3296706666666
 21
-429.1642253333333
 31
0.0
  0
LINE
  5
5F
330
44
100
AcDbEntity
  8
1
  6
Continuous
 62
     1
100
AcDbLine
 10
637.3176916051102
 20
-437.5013189028019
 30
0.0
 11
350.3335609384437
 21
-437.5013189028019
 31
0.0
  0
LINE
  5
60
330
44
100
AcDbEntity
  8
1
  6
Continuous
 62
     1
100
AcDbLine
 10
637.3176916051102
 20
-437.5013189028019
 30
0.0
 11
637.3176916051102
 21
-497.7946441494629
 31
0.0
  0
LINE
  5
61
330
44
100
AcDbEntity
  8
1
  6
Continuous
 62
     1
100
AcDbLine
 10
350.3335609384437
 20
-497.7946441494629
 30
0.0
 11
350.3335609384437
 21
-437.5013189028019
 31
0.0
  0
LINE
  5
62
330
44
100
AcDbEntity
  8
1
  6
Continuous
 62
     1
100
AcDbLine
 10
637.3176916051102
 20
-497.7946441494629
 30
0.0
 11
350.3335609384437
 21
-497.7946441494629
 31
0.0
  0
LINE
  5
63
330
44
100
AcDbEntity
  8
0
  6
Continuous
 62
     4
100
AcDbLine
 10
607.1698306884193
 20
-488.1452867290341
 30
0.0
 11
607.1698306884193
 21
-483.5454010884594
 31
0.0
  0
LINE
  5
64
330
44
100
AcDbEntity
  8
0
  6
Continuous
 62
     4
100
AcDbLine
 10
613.9422521944916
 20
-488.1452867290341
 30
0.0
 11
607.1698306884193
 21
-488.1452867290341
 31
0.0
  0
LINE
  5
65
330
44
100
AcDbEntity
  8
0
  6
Continuous
 62
     4
100
AcDbLine
 10
613.9422521944916
 20
-487.8462922625017
 30
0.0
 11
613.9422521944916
 21
-488.1452867290341
 31
0.0
  0
LINE
  5
66
330
44
100
AcDbEntity
  8
0
  6
Continuous
 62
     4
100
AcDbLine
 10
608.3496354488711
 20
-487.8462922625017
 30
0.0
 11
613.9422521944916
 21
-487.8462922625017
 31
0.0
  0
LINE
  5
67
330
44
100
AcDbEntity
  8
0
  6
Continuous
 62
     4
100
AcDbLine
 10
608.3496354488711
 20
-485.9947706459111
 30
0.0
 11
608.3496354488711
 21
-487.8462922625017
 31
0.0
  0
LINE
  5
68
330
44
100
AcDbEntity
  8
0
  6
Continuous
 62
     4
100
AcDbLine
 10
613.9422521944916
 20
-485.9947706459111
 30
0.0
 11
608.3496354488711
 21
-485.9947706459111
 31
0.0
  0
LINE
  5
69
330
44
100
AcDbEntity
  8
0
  6
Continuous
 62
     4
100
AcDbLine
 10
613.9422521944916
 20
-485.6957761793786
 30
0.0
 11
613.9422521944916
 21
-485.9947706459111
 31
0.0
  0
LINE
  5
6A
330
44
100
AcDbEntity
  8
0
  6
Continuous
 62
     4
100
AcDbLine
 10
608.3496354488711
 20
-485.6957761793786
 30
0.0
 11
613.9422521944916
 21
-485.6957761793786
 31
0.0
  0
LINE
  5
6B
330
44
100
AcDbEntity
  8
0
  6
Continuous
 62
     4
100
AcDbLine
 10
608.3496354488711
 20
-483.8443965549364
 30
0.0
 11
608.3496354488711
 21
-485.6957761793786
 31
0.0
  0
LINE
  5
6C
330
44
100
AcDbEntity
  8
0
  6
Continuous
 62
     4
100
AcDbLine
 10
613.9422521944916
 20
-483.8443965549364
 30
0.0
 11
608.3496354488711
 21
-483.8443965549364
 31
0.0
  0
LINE
  5
6D
330
44
100
AcDbEntity
  8
0
  6
Continuous
 62
     4
100
AcDbLine
 10
613.9422521944916
 20
-483.5454010884594
 30
0.0
 11
613.9422521944916
 21
-483.8443965549364
 31
0.0
  0
LINE
  5
6E
330
44
100
AcDbEntity
  8
0
  6
Continuous
 62
     4
100
AcDbLine
 10
607.1698306884193
 20
-483.5454010884594
 30
0.0
 11
613.9422521944916
 21
-483.5454010884594
 31
0.0
  0
LINE
  5
6F
330
44
100
AcDbEntity
  8
0
  6
Continuous
 62
     4
100
AcDbLine
 10
599.2087379121864
 20
-483.8443965549364
 30
0.0
 11
599.2087379121864
 21
-483.5454010884594
 31
0.0
  0
LINE
  5
70
330
44
100
AcDbEntity
  8
0
  6
Continuous
 62
     4
100
AcDbLine
 10
605.3072506833234
 20
-483.8443965549364
 30
0.0
 11
599.2087379121864
 21
-483.8443965549364
 31
0.0
  0
LINE
  5
71
330
44
100
AcDbEntity
  8
0
  6
Continuous
 62
     4
100
AcDbLine
 10
599.2087379121864
 20
-487.6966545370042
 30
0.0
 11
605.3072506833234
 21
-483.8443965549364
 31
0.0
  0
LINE
  5
72
330
44
100
AcDbEntity
  8
0
  6
Continuous
 62
     4
100
AcDbLine
 10
599.2087379121864
 20
-488.1452867290341
 30
0.0
 11
599.2087379121864
 21
-487.6966545370042
 31
0.0
  0
LINE
  5
73
330
44
100
AcDbEntity
  8
0
  6
Continuous
 62
     4
100
AcDbLine
 10
605.9811564184242
 20
-488.1452867290341
 30
0.0
 11
599.2087379121864
 21
-488.1452867290341
 31
0.0
  0
LINE
  5
74
330
44
100
AcDbEntity
  8
0
  6
Continuous
 62
     4
100
AcDbLine
 10
605.9811564184242
 20
-487.8462922625017
 30
0.0
 11
605.9811564184242
 21
-488.1452867290341
 31
0.0
  0
LINE
  5
75
330
44
100
AcDbEntity
  8
0
  6
Continuous
 62
     4
100
AcDbLine
 10
599.8826476470656
 20
-487.8462922625017
 30
0.0
 11
605.9811564184242
 21
-487.8462922625017
 31
0.0
  0
LINE
  5
76
330
44
100
AcDbEntity
  8
0
  6
Continuous
 62
     4
100
AcDbLine
 10
605.9811564184242
 20
-483.9940342804335
 30
0.0
 11
599.8826476470656
 21
-487.8462922625017
 31
0.0
  0
LINE
  5
77
330
44
100
AcDbEntity
  8
0
  6
Continuous
 62
     4
100
AcDbLine
 10
605.9811564184242
 20
-483.5454010884594
 30
0.0
 11
605.9811564184242
 21
-483.9940342804335
 31
0.0
  0
LINE
  5
78
330
44
100
AcDbEntity
  8
0
  6
Continuous
 62
     4
100
AcDbLine
 10
599.2087379121864
 20
-483.5454010884594
 30
0.0
 11
605.9811564184242
 21
-483.5454010884594
 31
0.0
  0
LINE
  5
79
330
44
100
AcDbEntity
  8
0
  6
Continuous
 62
     4
100
AcDbLine
 10
591.2476381363399
 20
-488.1452867290341
 30
0.0
 11
591.2476381363399
 21
-483.5454010884594
 31
0.0
  0
LINE
  5
7A
330
44
100
AcDbEntity
  8
0
  6
Continuous
 62
     4
100
AcDbLine
 10
598.0200606423566
 20
-488.1452867290341
 30
0.0
 11
591.2476381363399
 21
-488.1452867290341
 31
0.0
  0
LINE
  5
7B
330
44
100
AcDbEntity
  8
0
  6
Continuous
 62
     4
100
AcDbLine
 10
598.0200606423566
 20
-487.8462922625017
 30
0.0
 11
598.0200606423566
 21
-488.1452867290341
 31
0.0
  0
LINE
  5
7C
330
44
100
AcDbEntity
  8
0
  6
Continuous
 62
     4
100
AcDbLine
 10
592.4274438967365
 20
-487.8462922625017
 30
0.0
 11
598.0200606423566
 21
-487.8462922625017
 31
0.0
  0
LINE
  5
7D
330
44
100
AcDbEntity
  8
0
  6
Continuous
 62
     4
100
AcDbLine
 10
592.4274438967365
 20
-485.9947706459111
 30
0.0
 11
592.4274438967365
 21
-487.8462922625017
 31
0.0
  0
LINE
  5
7E
330
44
100
AcDbEntity
  8
0
  6
Continuous
 62
     4
100
AcDbLine
 10
598.0200606423566
 20
-485.9947706459111
 30
0.0
 11
592.4274438967365
 21
-485.9947706459111
 31
0.0
  0
LINE
  5
7F
330
44
100
AcDbEntity
  8
0
  6
Continuous
 62
     4
100
AcDbLine
 10
598.0200606423566
 20
-485.6957761793786
 30
0.0
 11
598.0200606423566
 21
-485.9947706459111
 31
0.0
  0
LINE
  5
80
330
44
100
AcDbEntity
  8
0
  6
Continuous
 62
     4
100
AcDbLine
 10
592.4274438967365
 20
-485.6957761793786
 30
0.0
 11
598.0200606423566
 21
-485.6957761793786
 31
0.0
  0
LINE
  5
81
330
44
100
AcDbEntity
  8
0
  6
Continuous
 62
     4
100
AcDbLine
 10
592.4274438967365
 20
-483.8443965549364
 30
0.0
 11
592.4274438967365
 21
-485.6957761793786
 31
0.0
  0
LINE
  5
82
330
44
100
AcDbEntity
  8
0
  6
Continuous
 62
     4
100
AcDbLine
 10
598.0200606423566
 20
-483.8443965549364
 30
0.0
 11
592.4274438967365
 21
-483.8443965549364
 31
0.0
  0
LINE
  5
83
330
44
100
AcDbEntity
  8
0
  6
Continuous
 62
     4
100
AcDbLine
 10
598.0200606423566
 20
-483.5454010884594
 30
0.0
 11
598.0200606423566
 21
-483.8443965549364
 31
0.0
  0
LINE
  5
84
330
44
100
AcDbEntity
  8
0
  6
Continuous
 62
     4
100
AcDbLine
 10
591.2476381363399
 20
-483.5454010884594
 30
0.0
 11
598.0200606423566
 21
-483.5454010884594
 31
0.0
  0
LINE
  5
85
330
44
100
AcDbEntity
  8
0
  6
Continuous
 62
     4
100
AcDbLine
 10
582.8986568091414
 20
-484.1585151851492
 30
0.0
 11
582.7970834258348
 21
-484.2737968104324
 31
0.0
  0
LINE
  5
86
330
44
100
AcDbEntity
  8
0
  6
Continuous
 62
     4
100
AcDbLine
 10
583.026521738607
 20
-484.0351700057556
 30
0.0
 11
582.8986568091414
 21
-484.1585151851492
 31
0.0
  0
LINE
  5
87
330
44
100
AcDbEntity
  8
0
  6
Continuous
 62
     4
100
AcDbLine
 10
583.1641131302295
 20
-483.9240241517767
 30
0.0
 11
583.026521738607
 21
-484.0351700057556
 31
0.0
  0
LINE
  5
88
330
44
100
AcDbEntity
  8
0
  6
Continuous
 62
     4
100
AcDbLine
 10
583.3103830419562
 20
-483.8259265762689
 30
0.0
 11
583.1641131302295
 21
-483.9240241517767
 31
0.0
  0
LINE
  5
89
330
44
100
AcDbEntity
  8
0
  6
Continuous
 62
     4
100
AcDbLine
 10
583.4642165354408
 20
-483.7416232379823
 30
0.0
 11
583.3103830419562
 21
-483.8259265762689
 31
0.0
  0
LINE
  5
8A
330
44
100
AcDbEntity
  8
0
  6
Continuous
 62
     4
100
AcDbLine
 10
583.6244456752656
 20
-483.671754101529
 30
0.0
 11
583.4642165354408
 21
-483.7416232379823
 31
0.0
  0
LINE
  5
8B
330
44
100
AcDbEntity
  8
0
  6
Continuous
 62
     4
100
AcDbLine
 10
583.7898475290556
 20
-483.6168531373824
 30
0.0
 11
583.6244456752656
 21
-483.671754101529
 31
0.0
  0
LINE
  5
8C
330
44
100
AcDbEntity
  8
0
  6
Continuous
 62
     4
100
AcDbLine
 10
583.9591661662594
 20
-483.5773363225398
 30
0.0
 11
583.7898475290556
 21
-483.6168531373824
 31
0.0
  0
LINE
  5
8D
330
44
100
AcDbEntity
  8
0
  6
Continuous
 62
     4
100
AcDbLine
 10
584.1311116582067
 20
-483.5535056403027
 30
0.0
 11
583.9591661662594
 21
-483.5773363225398
 31
0.0
  0
LINE
  5
8E
330
44
100
AcDbEntity
  8
0
  6
Continuous
 62
     4
100
AcDbLine
 10
584.3043770771654
 20
-483.5454010884594
 30
0.0
 11
584.1311116582067
 21
-483.5535056403027
 31
0.0
  0
LINE
  5
8F
330
44
100
AcDbEntity
  8
0
  6
Continuous
 62
     4
100
AcDbLine
 10
582.7970834258348
 20
-487.4168910070608
 30
0.0
 11
582.7970834258348
 21
-484.2737968104324
 31
0.0
  0
LINE
  5
90
330
44
100
AcDbEntity
  8
0
  6
Continuous
 62
     4
100
AcDbLine
 10
584.1551113310993
 20
-488.1393790557102
 30
0.0
 11
584.3043770771654
 21
-488.1452867290341
 31
0.0
  0
LINE
  5
91
330
44
100
AcDbEntity
  8
0
  6
Continuous
 62
     4
100
AcDbLine
 10
583.9828918543026
 20
-488.1177422521583
 30
0.0
 11
584.1551113310993
 21
-488.1393790557102
 31
0.0
  0
LINE
  5
92
330
44
100
AcDbEntity
  8
0
  6
Continuous
 62
     4
100
AcDbLine
 10
583.8131202421467
 20
-488.080385317881
 30
0.0
 11
583.9828918543026
 21
-488.1177422521583
 31
0.0
  0
LINE
  5
93
330
44
100
AcDbEntity
  8
0
  6
Continuous
 62
     4
100
AcDbLine
 10
583.6470854233577
 20
-488.0275942370641
 30
0.0
 11
583.8131202421467
 21
-488.080385317881
 31
0.0
  0
LINE
  5
94
330
44
100
AcDbEntity
  8
0
  6
Continuous
 62
     4
100
AcDbLine
 10
583.4860543278785
 20
-487.9597699875351
 30
0.0
 11
583.6470854233577
 21
-488.0275942370641
 31
0.0
  0
LINE
  5
95
330
44
100
AcDbEntity
  8
0
  6
Continuous
 62
     4
100
AcDbLine
 10
583.3312508880289
 20
-487.8774295407067
 30
0.0
 11
583.4860543278785
 21
-487.9597699875351
 31
0.0
  0
LINE
  5
96
330
44
100
AcDbEntity
  8
0
  6
Continuous
 62
     4
100
AcDbLine
 10
583.1838530386733
 20
-487.7811988619651
 30
0.0
 11
583.3312508880289
 21
-487.8774295407067
 31
0.0
  0
LINE
  5
97
330
44
100
AcDbEntity
  8
0
  6
Continuous
 62
     4
100
AcDbLine
 10
583.0449837177172
 20
-487.6718099108353
 30
0.0
 11
583.1838530386733
 21
-487.7811988619651
 31
0.0
  0
LINE
  5
98
330
44
100
AcDbEntity
  8
0
  6
Continuous
 62
     4
100
AcDbLine
 10
582.9156998667133
 20
-487.5500956412571
 30
0.0
 11
583.0449837177172
 21
-487.6718099108353
 31
0.0
  0
LINE
  5
99
330
44
100
AcDbEntity
  8
0
  6
Continuous
 62
     4
100
AcDbLine
 10
582.7970834258348
 20
-487.4168910070608
 30
0.0
 11
582.9156998667133
 21
-487.5500956412571
 31
0.0
  0
LINE
  5
9A
330
44
100
AcDbEntity
  8
0
  6
Continuous
 62
     4
100
AcDbLine
 10
588.0622082807421
 20
-488.1452867290341
 30
0.0
 11
584.3043770771654
 21
-488.1452867290341
 31
0.0
  0
LINE
  5
9B
330
44
100
AcDbEntity
  8
0
  6
Continuous
 62
     4
100
AcDbLine
 10
589.4679305486557
 20
-487.5321726323441
 30
0.0
 11
589.5695039319619
 21
-487.4168910070608
 31
0.0
  0
LINE
  5
9C
330
44
100
AcDbEntity
  8
0
  6
Continuous
 62
     4
100
AcDbLine
 10
589.3400646192456
 20
-487.6555188116825
 30
0.0
 11
589.4679305486557
 21
-487.5321726323441
 31
0.0
  0
LINE
  5
9D
330
44
100
AcDbEntity
  8
0
  6
Continuous
 62
     4
100
AcDbLine
 10
589.2024742275677
 20
-487.7666636657164
 30
0.0
 11
589.3400646192456
 21
-487.6555188116825
 31
0.0
  0
LINE
  5
9E
330
44
100
AcDbEntity
  8
0
  6
Continuous
 62
     4
100
AcDbLine
 10
589.0562043158404
 20
-487.8647612412245
 30
0.0
 11
589.2024742275677
 21
-487.7666636657164
 31
0.0
  0
LINE
  5
9F
330
44
100
AcDbEntity
  8
0
  6
Continuous
 62
     4
100
AcDbLine
 10
588.9023698224116
 20
-487.9490655794557
 30
0.0
 11
589.0562043158404
 21
-487.8647612412245
 31
0.0
  0
LINE
  5
A0
330
44
100
AcDbEntity
  8
0
  6
Continuous
 62
     4
100
AcDbLine
 10
588.7421446823653
 20
-488.0189337159643
 30
0.0
 11
588.9023698224116
 21
-487.9490655794557
 31
0.0
  0
LINE
  5
A1
330
44
100
AcDbEntity
  8
0
  6
Continuous
 62
     4
100
AcDbLine
 10
588.576738828797
 20
-488.0738346801111
 30
0.0
 11
588.7421446823653
 21
-488.0189337159643
 31
0.0
  0
LINE
  5
A2
330
44
100
AcDbEntity
  8
0
  6
Continuous
 62
     4
100
AcDbLine
 10
588.4074211915373
 20
-488.1133514949536
 30
0.0
 11
588.576738828797
 21
-488.0738346801111
 31
0.0
  0
LINE
  5
A3
330
44
100
AcDbEntity
  8
0
  6
Continuous
 62
     4
100
AcDbLine
 10
588.2354736997013
 20
-488.1371831771353
 30
0.0
 11
588.4074211915373
 21
-488.1133514949536
 31
0.0
  0
LINE
  5
A4
330
44
100
AcDbEntity
  8
0
  6
Continuous
 62
     4
100
AcDbLine
 10
588.0622082807421
 20
-488.1452867290341
 30
0.0
 11
588.2354736997013
 21
-488.1371831771353
 31
0.0
  0
LINE
  5
A5
330
44
100
AcDbEntity
  8
0
  6
Continuous
 62
     4
100
AcDbLine
 10
589.5695039319619
 20
-485.6957761793786
 30
0.0
 11
589.5695039319619
 21
-487.4168910070608
 31
0.0
  0
LINE
  5
A6
330
44
100
AcDbEntity
  8
0
  6
Continuous
 62
     4
100
AcDbLine
 10
586.510915062451
 20
-485.6957761793786
 30
0.0
 11
589.5695039319619
 21
-485.6957761793786
 31
0.0
  0
LINE
  5
A7
330
44
100
AcDbEntity
  8
0
  6
Continuous
 62
     4
100
AcDbLine
 10
586.510915062451
 20
-485.9947706459111
 30
0.0
 11
586.510915062451
 21
-485.6957761793786
 31
0.0
  0
LINE
  5
A8
330
44
100
AcDbEntity
  8
0
  6
Continuous
 62
     4
100
AcDbLine
 10
588.389697171621
 20
-485.9947706459111
 30
0.0
 11
586.510915062451
 21
-485.9947706459111
 31
0.0
  0
LINE
  5
A9
330
44
100
AcDbEntity
  8
0
  6
Continuous
 62
     4
100
AcDbLine
 10
588.389697171621
 20
-487.8462922625017
 30
0.0
 11
588.389697171621
 21
-485.9947706459111
 31
0.0
  0
LINE
  5
AA
330
44
100
AcDbEntity
  8
0
  6
Continuous
 62
     4
100
AcDbLine
 10
583.9768901861761
 20
-487.8462922625017
 30
0.0
 11
588.389697171621
 21
-487.8462922625017
 31
0.0
  0
LINE
  5
AB
330
44
100
AcDbEntity
  8
0
  6
Continuous
 62
     4
100
AcDbLine
 10
583.9768901861761
 20
-483.8443965549364
 30
0.0
 11
583.9768901861761
 21
-487.8462922625017
 31
0.0
  0
LINE
  5
AC
330
44
100
AcDbEntity
  8
0
  6
Continuous
 62
     4
100
AcDbLine
 10
588.389697171621
 20
-483.8443965549364
 30
0.0
 11
583.9768901861761
 21
-483.8443965549364
 31
0.0
  0
LINE
  5
AD
330
44
100
AcDbEntity
  8
0
  6
Continuous
 62
     4
100
AcDbLine
 10
588.389697171621
 20
-484.4193647609757
 30
0.0
 11
588.389697171621
 21
-483.8443965549364
 31
0.0
  0
LINE
  5
AE
330
44
100
AcDbEntity
  8
0
  6
Continuous
 62
     4
100
AcDbLine
 10
589.5695039319619
 20
-484.4193647609757
 30
0.0
 11
588.389697171621
 21
-484.4193647609757
 31
0.0
  0
LINE
  5
AF
330
44
100
AcDbEntity
  8
0
  6
Continuous
 62
     4
100
AcDbLine
 10
589.5695039319619
 20
-484.2737968104324
 30
0.0
 11
589.5695039319619
 21
-484.4193647609757
 31
0.0
  0
LINE
  5
B0
330
44
100
AcDbEntity
  8
0
  6
Continuous
 62
     4
100
AcDbLine
 10
588.2114750267532
 20
-483.551309761728
 30
0.0
 11
588.0622082807421
 21
-483.5454010884594
 31
0.0
  0
LINE
  5
B1
330
44
100
AcDbEntity
  8
0
  6
Continuous
 62
     4
100
AcDbLine
 10
588.38369450355
 20
-483.572945565335
 30
0.0
 11
588.2114750267532
 21
-483.551309761728
 31
0.0
  0
LINE
  5
B2
330
44
100
AcDbEntity
  8
0
  6
Continuous
 62
     4
100
AcDbLine
 10
588.553468115595
 20
-483.6103034995571
 30
0.0
 11
588.38369450355
 21
-483.572945565335
 31
0.0
  0
LINE
  5
B3
330
44
100
AcDbEntity
  8
0
  6
Continuous
 62
     4
100
AcDbLine
 10
588.7194999345502
 20
-483.6630935804291
 30
0.0
 11
588.553468115595
 21
-483.6103034995571
 31
0.0
  0
LINE
  5
B4
330
44
100
AcDbEntity
  8
0
  6
Continuous
 62
     4
100
AcDbLine
 10
588.8805340298637
 20
-483.7309168300135
 30
0.0
 11
588.7194999345502
 21
-483.6630935804291
 31
0.0
  0
LINE
  5
B5
330
44
100
AcDbEntity
  8
0
  6
Continuous
 62
     4
100
AcDbLine
 10
589.0353354698236
 20
-483.8132582767865
 30
0.0
 11
588.8805340298637
 21
-483.7309168300135
 31
0.0
  0
LINE
  5
B6
330
44
100
AcDbEntity
  8
0
  6
Continuous
 62
     4
100
AcDbLine
 10
589.1827343191235
 20
-483.909489955473
 30
0.0
 11
589.0353354698236
 21
-483.8132582767865
 31
0.0
  0
LINE
  5
B7
330
44
100
AcDbEntity
  8
0
  6
Continuous
 62
     4
100
AcDbLine
 10
589.3216046400252
 20
-484.0188789066028
 30
0.0
 11
589.1827343191235
 21
-483.909489955473
 31
0.0
  0
LINE
  5
B8
330
44
100
AcDbEntity
  8
0
  6
Continuous
 62
     4
100
AcDbLine
 10
589.4508894909736
 20
-484.1405931761808
 30
0.0
 11
589.3216046400252
 21
-484.0188789066028
 31
0.0
  0
LINE
  5
B9
330
44
100
AcDbEntity
  8
0
  6
Continuous
 62
     4
100
AcDbLine
 10
589.5695039319619
 20
-484.2737968104324
 30
0.0
 11
589.4508894909736
 21
-484.1405931761808
 31
0.0
  0
LINE
  5
BA
330
44
100
AcDbEntity
  8
0
  6
Continuous
 62
     4
100
AcDbLine
 10
584.3043770771654
 20
-483.5454010884594
 30
0.0
 11
588.0622082807421
 21
-483.5454010884594
 31
0.0
  0
LINE
  5
BB
330
44
100
AcDbEntity
  8
0
  6
Continuous
 62
     4
100
AcDbLine
 10
579.5151949041028
 20
-482.3718339830844
 30
0.0
 11
579.4581180602753
 21
-482.4355124618619
 31
0.0
  0
LINE
  5
BC
330
44
100
AcDbEntity
  8
0
  6
Continuous
 62
     4
100
AcDbLine
 10
579.6338143448152
 20
-482.2558763951797
 30
0.0
 11
579.5151949041028
 21
-482.3718339830844
 31
0.0
  0
LINE
  5
BD
330
44
100
AcDbEntity
  8
0
  6
Continuous
 62
     4
100
AcDbLine
 10
579.7614552866662
 20
-482.1513891729995
 30
0.0
 11
579.6338143448152
 21
-482.2558763951797
 31
0.0
  0
LINE
  5
BE
330
44
100
AcDbEntity
  8
0
  6
Continuous
 62
     4
100
AcDbLine
 10
579.8971467833471
 20
-482.0591682725296
 30
0.0
 11
579.7614552866662
 21
-482.1513891729995
 31
0.0
  0
LINE
  5
BF
330
44
100
AcDbEntity
  8
0
  6
Continuous
 62
     4
100
AcDbLine
 10
580.0398568919202
 20
-481.9799136550644
 30
0.0
 11
579.8971467833471
 21
-482.0591682725296
 31
0.0
  0
LINE
  5
C0
330
44
100
AcDbEntity
  8
0
  6
Continuous
 62
     4
100
AcDbLine
 10
580.1884986724904
 20
-481.9142302871512
 30
0.0
 11
580.0398568919202
 21
-481.9799136550644
 31
0.0
  0
LINE
  5
C1
330
44
100
AcDbEntity
  8
0
  6
Continuous
 62
     4
100
AcDbLine
 10
580.3419401876498
 20
-481.8626171411983
 30
0.0
 11
580.1884986724904
 21
-481.9142302871512
 31
0.0
  0
LINE
  5
C2
330
44
100
AcDbEntity
  8
0
  6
Continuous
 62
     4
100
AcDbLine
 10
580.4990145019269
 20
-481.8254671954752
 30
0.0
 11
580.3419401876498
 21
-481.8626171411983
 31
0.0
  0
LINE
  5
C3
330
44
100
AcDbEntity
  8
0
  6
Continuous
 62
     4
100
AcDbLine
 10
580.6585266813972
 20
-481.8030654342231
 30
0.0
 11
580.4990145019269
 21
-481.8254671954752
 31
0.0
  0
LINE
  5
C4
330
44
100
AcDbEntity
  8
0
  6
Continuous
 62
     4
100
AcDbLine
 10
580.8192617932436
 20
-481.7955038523552
 30
0.0
 11
580.6585266813972
 21
-481.8030654342231
 31
0.0
  0
LINE
  5
C5
330
44
100
AcDbEntity
  8
0
  6
Continuous
 62
     4
100
AcDbLine
 10
579.4207621259427
 20
-489.1103433643918
 30
0.0
 11
579.4207621259427
 21
-482.5376498139827
 31
0.0
  0
LINE
  5
C6
330
44
100
AcDbEntity
  8
0
  6
Continuous
 62
     4
100
AcDbLine
 10
580.6805484636614
 20
-489.7895128084257
 30
0.0
 11
580.8192617932436
 21
-489.7950865002178
 31
0.0
  0
LINE
  5
C7
330
44
100
AcDbEntity
  8
0
  6
Continuous
 62
     4
100
AcDbLine
 10
580.5208022971293
 20
-489.7691509343742
 30
0.0
 11
580.6805484636614
 21
-489.7895128084257
 31
0.0
  0
LINE
  5
C8
330
44
100
AcDbEntity
  8
0
  6
Continuous
 62
     4
100
AcDbLine
 10
580.3633260050802
 20
-489.7340118774553
 30
0.0
 11
580.5208022971293
 21
-489.7691509343742
 31
0.0
  0
LINE
  5
C9
330
44
100
AcDbEntity
  8
0
  6
Continuous
 62
     4
100
AcDbLine
 10
580.2093205211066
 20
-489.6843656227393
 30
0.0
 11
580.3633260050802
 21
-489.7340118774553
 31
0.0
  0
LINE
  5
CA
330
44
100
AcDbEntity
  8
0
  6
Continuous
 62
     4
100
AcDbLine
 10
580.0599567804588
 20
-489.6205881494361
 30
0.0
 11
580.2093205211066
 21
-489.6843656227393
 31
0.0
  0
LINE
  5
CB
330
44
100
AcDbEntity
  8
0
  6
Continuous
 62
     4
100
AcDbLine
 10
579.9163717202678
 20
-489.5431654306725
 30
0.0
 11
580.0599567804588
 21
-489.6205881494361
 31
0.0
  0
LINE
  5
CC
330
44
100
AcDbEntity
  8
0
  6
Continuous
 62
     4
100
AcDbLine
 10
579.7796582800976
 20
-489.4526874338254
 30
0.0
 11
579.9163717202678
 21
-489.5431654306725
 31
0.0
  0
LINE
  5
CD
330
44
100
AcDbEntity
  8
0
  6
Continuous
 62
     4
100
AcDbLine
 10
579.650856402442
 20
-489.3498421208525
 30
0.0
 11
579.7796582800976
 21
-489.4526874338254
 31
0.0
  0
LINE
  5
CE
330
44
100
AcDbEntity
  8
0
  6
Continuous
 62
     4
100
AcDbLine
 10
579.530947033059
 20
-489.2354124484591
 30
0.0
 11
579.650856402442
 21
-489.3498421208525
 31
0.0
  0
LINE
  5
CF
330
44
100
AcDbEntity
  8
0
  6
Continuous
 62
     4
100
AcDbLine
 10
579.4207621259427
 20
-489.1103433643918
 30
0.0
 11
579.530947033059
 21
-489.2354124484591
 31
0.0
  0
LINE
  5
D0
330
44
100
AcDbEntity
  8
0
  6
Continuous
 62
     4
100
AcDbLine
 10
615.9202928149733
 20
-489.7950865002178
 30
0.0
 11
580.8192617932436
 21
-489.7950865002178
 31
0.0
  0
LINE
  5
D1
330
44
100
AcDbEntity
  8
0
  6
Continuous
 62
     4
100
AcDbLine
 10
617.2244047016259
 20
-489.2189293599228
 30
0.0
 11
617.3187974819975
 21
-489.1103433643918
 31
0.0
  0
LINE
  5
D2
330
44
100
AcDbEntity
  8
0
  6
Continuous
 62
     4
100
AcDbLine
 10
617.1057742615219
 20
-489.3348899476615
 30
0.0
 11
617.2244047016259
 21
-489.2189293599228
 31
0.0
  0
LINE
  5
D3
330
44
100
AcDbEntity
  8
0
  6
Continuous
 62
     4
100
AcDbLine
 10
616.9781263200574
 20
-489.4393791697312
 30
0.0
 11
617.1057742615219
 21
-489.3348899476615
 31
0.0
  0
LINE
  5
D4
330
44
100
AcDbEntity
  8
0
  6
Continuous
 62
     4
100
AcDbLine
 10
616.8424368232666
 20
-489.53160406998
 30
0.0
 11
616.9781263200574
 21
-489.4393791697312
 31
0.0
  0
LINE
  5
D5
330
44
100
AcDbEntity
  8
0
  6
Continuous
 62
     4
100
AcDbLine
 10
616.69972171497
 20
-489.6108596873898
 30
0.0
 11
616.8424368232666
 21
-489.53160406998
 31
0.0
  0
LINE
  5
D6
330
44
100
AcDbEntity
  8
0
  6
Continuous
 62
     4
100
AcDbLine
 10
616.5510789344548
 20
-489.6765450551925
 30
0.0
 11
616.69972171497
 21
-489.6108596873898
 31
0.0
  0
LINE
  5
D7
330
44
100
AcDbEntity
  8
0
  6
Continuous
 62
     4
100
AcDbLine
 10
616.3976374192954
 20
-489.7281592010901
 30
0.0
 11
616.5510789344548
 21
-489.6765450551925
 31
0.0
  0
LINE
  5
D8
330
44
100
AcDbEntity
  8
0
  6
Continuous
 62
     4
100
AcDbLine
 10
616.2405491057923
 20
-489.7653091468133
 30
0.0
 11
616.3976374192954
 21
-489.7281592010901
 31
0.0
  0
LINE
  5
D9
330
44
100
AcDbEntity
  8
0
  6
Continuous
 62
     4
100
AcDbLine
 10
616.0810349264324
 20
-489.7877139078993
 30
0.0
 11
616.2405491057923
 21
-489.7653091468133
 31
0.0
  0
LINE
  5
DA
330
44
100
AcDbEntity
  8
0
  6
Continuous
 62
     4
100
AcDbLine
 10
615.9202928149733
 20
-489.7950865002178
 30
0.0
 11
616.0810349264324
 21
-489.7877139078993
 31
0.0
  0
LINE
  5
DB
330
44
100
AcDbEntity
  8
0
  6
Continuous
 62
     4
100
AcDbLine
 10
617.3187974819975
 20
-482.480243988347
 30
0.0
 11
617.3187974819975
 21
-489.1103433643918
 31
0.0
  0
LINE
  5
DC
330
44
100
AcDbEntity
  8
0
  6
Continuous
 62
     4
100
AcDbLine
 10
616.0589261489795
 20
-481.8010675447001
 30
0.0
 11
615.9202928149733
 21
-481.7954998525762
 31
0.0
  0
LINE
  5
DD
330
44
100
AcDbEntity
  8
0
  6
Continuous
 62
     4
100
AcDbLine
 10
616.2186843148475
 20
-481.8214234190834
 30
0.0
 11
616.0589261489795
 21
-481.8010675447001
 31
0.0
  0
LINE
  5
DE
330
44
100
AcDbEntity
  8
0
  6
Continuous
 62
     4
100
AcDbLine
 10
616.3761766060122
 20
-481.8565544764448
 30
0.0
 11
616.2186843148475
 21
-481.8214234190834
 31
0.0
  0
LINE
  5
DF
330
44
100
AcDbEntity
  8
0
  6
Continuous
 62
     4
100
AcDbLine
 10
616.5301910894881
 20
-481.9061987312713
 30
0.0
 11
616.3761766060122
 21
-481.8565544764448
 31
0.0
  0
LINE
  5
E0
330
44
100
AcDbEntity
  8
0
  6
Continuous
 62
     4
100
AcDbLine
 10
616.6795658295281
 20
-481.9699702049064
 30
0.0
 11
616.5301910894881
 21
-481.9061987312713
 31
0.0
  0
LINE
  5
E1
330
44
100
AcDbEntity
  8
0
  6
Continuous
 62
     4
100
AcDbLine
 10
616.823165888889
 20
-482.0473909237805
 30
0.0
 11
616.6795658295281
 21
-481.9699702049064
 31
0.0
  0
LINE
  5
E2
330
44
100
AcDbEntity
  8
0
  6
Continuous
 62
     4
100
AcDbLine
 10
616.9598853287278
 20
-482.1378679206828
 30
0.0
 11
616.823165888889
 21
-482.0473909237805
 31
0.0
  0
LINE
  5
E3
330
44
100
AcDbEntity
  8
0
  6
Continuous
 62
     4
100
AcDbLine
 10
617.0887082052222
 20
-482.2407142336002
 30
0.0
 11
616.9598853287278
 21
-482.1378679206828
 31
0.0
  0
LINE
  5
E4
330
44
100
AcDbEntity
  8
0
  6
Continuous
 62
     4
100
AcDbLine
 10
617.2086275740521
 20
-482.3551439059939
 30
0.0
 11
617.0887082052222
 21
-482.2407142336002
 31
0.0
  0
LINE
  5
E5
330
44
100
AcDbEntity
  8
0
  6
Continuous
 62
     4
100
AcDbLine
 10
617.3187974819975
 20
-482.480243988347
 30
0.0
 11
617.2086275740521
 21
-482.3551439059939
 31
0.0
  0
LINE
  5
E6
330
44
100
AcDbEntity
  8
0
  6
Continuous
 62
     4
100
AcDbLine
 10
580.8192617932436
 20
-481.7955038523552
 30
0.0
 11
615.9202928149733
 21
-481.7954998525762
 31
0.0
  0
LINE
  5
E7
330
44
100
AcDbEntity
  8
0
  6
Continuous
 62
     4
100
AcDbLine
 10
581.1201051575376
 20
-482.9414384857201
 30
0.0
 11
581.1189482215129
 21
-482.9697079225078
 31
0.0
  0
LINE
  5
E8
330
44
100
AcDbEntity
  8
0
  6
Continuous
 62
     4
100
AcDbLine
 10
581.123566966111
 20
-482.9133840370442
 30
0.0
 11
581.1201051575376
 21
-482.9414384857201
 31
0.0
  0
LINE
  5
E9
330
44
100
AcDbEntity
  8
0
  6
Continuous
 62
     4
100
AcDbLine
 10
581.1293076486688
 20
-482.8857585646472
 30
0.0
 11
581.123566966111
 21
-482.9133840370442
 31
0.0
  0
LINE
  5
EA
330
44
100
AcDbEntity
  8
0
  6
Continuous
 62
     4
100
AcDbLine
 10
581.1372842075896
 20
-482.8587710569728
 30
0.0
 11
581.1293076486688
 21
-482.8857585646472
 31
0.0
  0
LINE
  5
EB
330
44
100
AcDbEntity
  8
0
  6
Continuous
 62
     4
100
AcDbLine
 10
581.1474346463017
 20
-482.8326285025751
 30
0.0
 11
581.1372842075896
 21
-482.8587710569728
 31
0.0
  0
LINE
  5
EC
330
44
100
AcDbEntity
  8
0
  6
Continuous
 62
     4
100
AcDbLine
 10
581.1596819690626
 20
-482.8075288905059
 30
0.0
 11
581.1474346463017
 21
-482.8326285025751
 31
0.0
  0
LINE
  5
ED
330
44
100
AcDbEntity
  8
0
  6
Continuous
 62
     4
100
AcDbLine
 10
581.173933181015
 20
-482.7836632102042
 30
0.0
 11
581.1596819690626
 21
-482.8075288905059
 31
0.0
  0
LINE
  5
EE
330
44
100
AcDbEntity
  8
0
  6
Continuous
 62
     4
100
AcDbLine
 10
581.1900802881299
 20
-482.7612154514954
 30
0.0
 11
581.173933181015
 21
-482.7836632102042
 31
0.0
  0
LINE
  5
EF
330
44
100
AcDbEntity
  8
0
  6
Continuous
 62
     4
100
AcDbLine
 10
581.2080002972091
 20
-482.7403536050911
 30
0.0
 11
581.1900802881299
 21
-482.7612154514954
 31
0.0
  0
LINE
  5
F0
330
44
100
AcDbEntity
  8
0
  6
Continuous
 62
     4
100
AcDbLine
 10
581.227556215827
 20
-482.721235662254
 30
0.0
 11
581.2080002972091
 21
-482.7403536050911
 31
0.0
  0
LINE
  5
F1
330
44
100
AcDbEntity
  8
0
  6
Continuous
 62
     4
100
AcDbLine
 10
581.2485990522234
 20
-482.7040086148565
 30
0.0
 11
581.227556215827
 21
-482.721235662254
 31
0.0
  0
LINE
  5
F2
330
44
100
AcDbEntity
  8
0
  6
Continuous
 62
     4
100
AcDbLine
 10
581.2709698151898
 20
-482.688805455544
 30
0.0
 11
581.2485990522234
 21
-482.7040086148565
 31
0.0
  0
LINE
  5
F3
330
44
100
AcDbEntity
  8
0
  6
Continuous
 62
     4
100
AcDbLine
 10
581.2944965142361
 20
-482.6757401780135
 30
0.0
 11
581.2709698151898
 21
-482.688805455544
 31
0.0
  0
LINE
  5
F4
330
44
100
AcDbEntity
  8
0
  6
Continuous
 62
     4
100
AcDbLine
 10
581.3190021591498
 20
-482.6649107768457
 30
0.0
 11
581.2944965142361
 21
-482.6757401780135
 31
0.0
  0
LINE
  5
F5
330
44
100
AcDbEntity
  8
0
  6
Continuous
 62
     4
100
AcDbLine
 10
581.3442987603262
 20
-482.6564022473411
 30
0.0
 11
581.3190021591498
 21
-482.6649107768457
 31
0.0
  0
LINE
  5
F6
330
44
100
AcDbEntity
  8
0
  6
Continuous
 62
     4
100
AcDbLine
 10
581.3701943283816
 20
-482.6502775860159
 30
0.0
 11
581.3442987603262
 21
-482.6564022473411
 31
0.0
  0
LINE
  5
F7
330
44
100
AcDbEntity
  8
0
  6
Continuous
 62
     4
100
AcDbLine
 10
581.3964918742088
 20
-482.6465837902713
 30
0.0
 11
581.3701943283816
 21
-482.6502775860159
 31
0.0
  0
LINE
  5
F8
330
44
100
AcDbEntity
  8
0
  6
Continuous
 62
     4
100
AcDbLine
 10
581.4229914088664
 20
-482.6454798513157
 30
0.0
 11
581.3964918742088
 21
-482.6465837902713
 31
0.0
  0
LINE
  5
F9
330
44
100
AcDbEntity
  8
0
  6
Continuous
 62
     4
100
AcDbLine
 10
581.1189482215129
 20
-488.6210154227111
 30
0.0
 11
581.1189482215129
 21
-482.9697079225078
 31
0.0
  0
LINE
  5
FA
330
44
100
AcDbEntity
  8
0
  6
Continuous
 62
     4
100
AcDbLine
 10
581.3965028736006
 20
-488.944008562191
 30
0.0
 11
581.4229914088664
 21
-488.9452424939586
 31
0.0
  0
LINE
  5
FB
330
44
100
AcDbEntity
  8
0
  6
Continuous
 62
     4
100
AcDbLine
 10
581.3702163271653
 20
-488.9403157663913
 30
0.0
 11
581.3965028736006
 21
-488.944008562191
 31
0.0
  0
LINE
  5
FC
330
44
100
AcDbEntity
  8
0
  6
Continuous
 62
     4
100
AcDbLine
 10
581.3443307585568
 20
-488.9341941049003
 30
0.0
 11
581.3702163271653
 21
-488.9403157663913
 31
0.0
  0
LINE
  5
FD
330
44
100
AcDbEntity
  8
0
  6
Continuous
 62
     4
100
AcDbLine
 10
581.3190451567723
 20
-488.9256885752296
 30
0.0
 11
581.3443307585568
 21
-488.9341941049003
 31
0.0
  0
LINE
  5
FE
330
44
100
AcDbEntity
  8
0
  6
Continuous
 62
     4
100
AcDbLine
 10
581.2945495113051
 20
-488.9148641737855
 30
0.0
 11
581.3190451567723
 21
-488.9256885752296
 31
0.0
  0
LINE
  5
FF
330
44
100
AcDbEntity
  8
0
  6
Continuous
 62
     4
100
AcDbLine
 10
581.2710318117618
 20
-488.9018038959783
 30
0.0
 11
581.2945495113051
 21
-488.9148641737855
 31
0.0
  0
LINE
  5
100
330
44
100
AcDbEntity
  8
0
  6
Continuous
 62
     4
100
AcDbLine
 10
581.248670048298
 20
-488.8866057363896
 30
0.0
 11
581.2710318117618
 21
-488.9018038959783
 31
0.0
  0
LINE
  5
101
330
44
100
AcDbEntity
  8
0
  6
Continuous
 62
     4
100
AcDbLine
 10
581.2276352114592
 20
-488.8693876884944
 30
0.0
 11
581.248670048298
 21
-488.8866057363896
 31
0.0
  0
LINE
  5
102
330
44
100
AcDbEntity
  8
0
  6
Continuous
 62
     4
100
AcDbLine
 10
581.2080872923984
 20
-488.850277745215
 30
0.0
 11
581.2276352114592
 21
-488.8693876884944
 31
0.0
  0
LINE
  5
103
330
44
100
AcDbEntity
  8
0
  6
Continuous
 62
     4
100
AcDbLine
 10
581.1901752828769
 20
-488.8294238983681
 30
0.0
 11
581.2080872923984
 21
-488.850277745215
 31
0.0
  0
LINE
  5
104
330
44
100
AcDbEntity
  8
0
  6
Continuous
 62
     4
100
AcDbLine
 10
581.1740351753748
 20
-488.8069841392171
 30
0.0
 11
581.1901752828769
 21
-488.8294238983681
 31
0.0
  0
LINE
  5
105
330
44
100
AcDbEntity
  8
0
  6
Continuous
 62
     4
100
AcDbLine
 10
581.1597889631461
 20
-488.7831284583625
 30
0.0
 11
581.1740351753748
 21
-488.8069841392171
 31
0.0
  0
LINE
  5
106
330
44
100
AcDbEntity
  8
0
  6
Continuous
 62
     4
100
AcDbLine
 10
581.1475466401084
 20
-488.7580388457404
 30
0.0
 11
581.1597889631461
 21
-488.7831284583625
 31
0.0
  0
LINE
  5
107
330
44
100
AcDbEntity
  8
0
  6
Continuous
 62
     4
100
AcDbLine
 10
581.1374002011752
 20
-488.7319072907344
 30
0.0
 11
581.1475466401084
 21
-488.7580388457404
 31
0.0
  0
LINE
  5
108
330
44
100
AcDbEntity
  8
0
  6
Continuous
 62
     4
100
AcDbLine
 10
581.1294276420333
 20
-488.7049307824516
 30
0.0
 11
581.1374002011752
 21
-488.7319072907344
 31
0.0
  0
LINE
  5
109
330
44
100
AcDbEntity
  8
0
  6
Continuous
 62
     4
100
AcDbLine
 10
581.1236889593645
 20
-488.6773163094465
 30
0.0
 11
581.1294276420333
 21
-488.7049307824516
 31
0.0
  0
LINE
  5
10A
330
44
100
AcDbEntity
  8
0
  6
Continuous
 62
     4
100
AcDbLine
 10
581.1202281507367
 20
-488.6492728601623
 30
0.0
 11
581.1236889593645
 21
-488.6773163094465
 31
0.0
  0
LINE
  5
10B
330
44
100
AcDbEntity
  8
0
  6
Continuous
 62
     4
100
AcDbLine
 10
581.1189482215129
 20
-488.6210154227111
 30
0.0
 11
581.1202281507367
 21
-488.6492728601623
 31
0.0
  0
LINE
  5
10C
330
44
100
AcDbEntity
  8
0
  6
Continuous
 62
     4
100
AcDbLine
 10
615.3165661991848
 20
-488.9452424939586
 30
0.0
 11
581.4229914088664
 21
-488.9452424939586
 31
0.0
  0
LINE
  5
10D
330
44
100
AcDbEntity
  8
0
  6
Continuous
 62
     4
100
AcDbLine
 10
615.6194514505687
 20
-488.6492848594989
 30
0.0
 11
615.6206113864281
 21
-488.6210154227111
 31
0.0
  0
LINE
  5
10E
330
44
100
AcDbEntity
  8
0
  6
Continuous
 62
     4
100
AcDbLine
 10
615.6159876421066
 20
-488.6773393081747
 30
0.0
 11
615.6194514505687
 21
-488.6492848594989
 31
0.0
  0
LINE
  5
10F
330
44
100
AcDbEntity
  8
0
  6
Continuous
 62
     4
100
AcDbLine
 10
615.6102439597144
 20
-488.7049647805717
 30
0.0
 11
615.6159876421066
 21
-488.6773393081747
 31
0.0
  0
LINE
  5
110
330
44
100
AcDbEntity
  8
0
  6
Continuous
 62
     4
100
AcDbLine
 10
615.6022714005725
 20
-488.7319522882461
 30
0.0
 11
615.6102439597144
 21
-488.7049647805717
 31
0.0
  0
LINE
  5
111
330
44
100
AcDbEntity
  8
0
  6
Continuous
 62
     4
100
AcDbLine
 10
615.5921249616392
 20
-488.7580948426438
 30
0.0
 11
615.6022714005725
 21
-488.7319522882461
 31
0.0
  0
LINE
  5
112
330
44
100
AcDbEntity
  8
0
  6
Continuous
 62
     4
100
AcDbLine
 10
615.5798726391544
 20
-488.783194454713
 30
0.0
 11
615.5921249616392
 21
-488.7580948426438
 31
0.0
  0
LINE
  5
113
330
44
100
AcDbEntity
  8
0
  6
Continuous
 62
     4
100
AcDbLine
 10
615.5656214272022
 20
-488.8070601350149
 30
0.0
 11
615.5798726391544
 21
-488.783194454713
 31
0.0
  0
LINE
  5
114
330
44
100
AcDbEntity
  8
0
  6
Continuous
 62
     4
100
AcDbLine
 10
615.5494713202528
 20
-488.8295088936682
 30
0.0
 11
615.5656214272022
 21
-488.8070601350149
 31
0.0
  0
LINE
  5
115
330
44
100
AcDbEntity
  8
0
  6
Continuous
 62
     4
100
AcDbLine
 10
615.5315583107867
 20
-488.8503717400175
 30
0.0
 11
615.5494713202528
 21
-488.8295088936682
 31
0.0
  0
LINE
  5
116
330
44
100
AcDbEntity
  8
0
  6
Continuous
 62
     4
100
AcDbLine
 10
615.5120053920031
 20
-488.8694886829096
 30
0.0
 11
615.5315583107867
 21
-488.8503717400175
 31
0.0
  0
LINE
  5
117
330
44
100
AcDbEntity
  8
0
  6
Continuous
 62
     4
100
AcDbLine
 10
615.4909645554958
 20
-488.8867147303625
 30
0.0
 11
615.5120053920031
 21
-488.8694886829096
 31
0.0
  0
LINE
  5
118
330
44
100
AcDbEntity
  8
0
  6
Continuous
 62
     4
100
AcDbLine
 10
615.468588792806
 20
-488.9019178896749
 30
0.0
 11
615.4909645554958
 21
-488.8867147303625
 31
0.0
  0
LINE
  5
119
330
44
100
AcDbEntity
  8
0
  6
Continuous
 62
     4
100
AcDbLine
 10
615.4450530942572
 20
-488.9149841671504
 30
0.0
 11
615.468588792806
 21
-488.9019178896749
 31
0.0
  0
LINE
  5
11A
330
44
100
AcDbEntity
  8
0
  6
Continuous
 62
     4
100
AcDbLine
 10
615.4205494492335
 20
-488.9258125683733
 30
0.0
 11
615.4450530942572
 21
-488.9149841671504
 31
0.0
  0
LINE
  5
11B
330
44
100
AcDbEntity
  8
0
  6
Continuous
 62
     4
100
AcDbLine
 10
615.395258847725
 20
-488.9343220978226
 30
0.0
 11
615.4205494492335
 21
-488.9258125683733
 31
0.0
  0
LINE
  5
11C
330
44
100
AcDbEntity
  8
0
  6
Continuous
 62
     4
100
AcDbLine
 10
615.3693662795035
 20
-488.9404467591478
 30
0.0
 11
615.395258847725
 21
-488.9343220978226
 31
0.0
  0
LINE
  5
11D
330
44
100
AcDbEntity
  8
0
  6
Continuous
 62
     4
100
AcDbLine
 10
615.3430617340636
 20
-488.9441395549477
 30
0.0
 11
615.3693662795035
 21
-488.9404467591478
 31
0.0
  0
LINE
  5
11E
330
44
100
AcDbEntity
  8
0
  6
Continuous
 62
     4
100
AcDbLine
 10
615.3165661991848
 20
-488.9452424939586
 30
0.0
 11
615.3430617340636
 21
-488.9441395549477
 31
0.0
  0
LINE
  5
11F
330
44
100
AcDbEntity
  8
0
  6
Continuous
 62
     4
100
AcDbLine
 10
615.6206113864281
 20
-482.969703922729
 30
0.0
 11
615.6206113864281
 21
-488.6210154227111
 31
0.0
  0
LINE
  5
120
330
44
100
AcDbEntity
  8
0
  6
Continuous
 62
     4
100
AcDbLine
 10
615.3430537345062
 20
-482.6467127831384
 30
0.0
 11
615.3165661991848
 21
-482.6454778514263
 31
0.0
  0
LINE
  5
121
330
44
100
AcDbEntity
  8
0
  6
Continuous
 62
     4
100
AcDbLine
 10
615.3693432807755
 20
-482.6504045789935
 30
0.0
 11
615.3430537345062
 21
-482.6467127831384
 31
0.0
  0
LINE
  5
122
330
44
100
AcDbEntity
  8
0
  6
Continuous
 62
     4
100
AcDbLine
 10
615.3952288493837
 20
-482.6565262404845
 30
0.0
 11
615.3693432807755
 21
-482.6504045789935
 31
0.0
  0
LINE
  5
123
330
44
100
AcDbEntity
  8
0
  6
Continuous
 62
     4
100
AcDbLine
 10
615.4205114513345
 20
-482.6650327700999
 30
0.0
 11
615.3952288493837
 21
-482.6565262404845
 31
0.0
  0
LINE
  5
124
330
44
100
AcDbEntity
  8
0
  6
Continuous
 62
     4
100
AcDbLine
 10
615.445007096801
 20
-482.6758561715993
 30
0.0
 11
615.4205114513345
 21
-482.6650327700999
 31
0.0
  0
LINE
  5
125
330
44
100
AcDbEntity
  8
0
  6
Continuous
 62
     4
100
AcDbLine
 10
615.4685277961792
 20
-482.6889164494062
 30
0.0
 11
615.445007096801
 21
-482.6758561715993
 31
0.0
  0
LINE
  5
126
330
44
100
AcDbEntity
  8
0
  6
Continuous
 62
     4
100
AcDbLine
 10
615.4908805601402
 20
-482.7041136090505
 30
0.0
 11
615.4685277961792
 21
-482.6889164494062
 31
0.0
  0
LINE
  5
127
330
44
100
AcDbEntity
  8
0
  6
Continuous
 62
     4
100
AcDbLine
 10
615.5119213966475
 20
-482.7213346567798
 30
0.0
 11
615.4908805601402
 21
-482.7041136090505
 31
0.0
  0
LINE
  5
128
330
44
100
AcDbEntity
  8
0
  6
Continuous
 62
     4
100
AcDbLine
 10
615.531466315874
 20
-482.7404426001699
 30
0.0
 11
615.5119213966475
 21
-482.7213346567798
 31
0.0
  0
LINE
  5
129
330
44
100
AcDbEntity
  8
0
  6
Continuous
 62
     4
100
AcDbLine
 10
615.5493793253402
 20
-482.7612954470721
 30
0.0
 11
615.531466315874
 21
-482.7404426001699
 31
0.0
  0
LINE
  5
12A
330
44
100
AcDbEntity
  8
0
  6
Continuous
 62
     4
100
AcDbLine
 10
615.5655304322336
 20
-482.7837362061674
 30
0.0
 11
615.5493793253402
 21
-482.7612954470721
 31
0.0
  0
LINE
  5
12B
330
44
100
AcDbEntity
  8
0
  6
Continuous
 62
     4
100
AcDbLine
 10
615.5797656450704
 20
-482.8075918870223
 30
0.0
 11
615.5655304322336
 21
-482.7837362061674
 31
0.0
  0
LINE
  5
12C
330
44
100
AcDbEntity
  8
0
  6
Continuous
 62
     4
100
AcDbLine
 10
615.5920029683846
 20
-482.8326814996445
 30
0.0
 11
615.5797656450704
 21
-482.8075918870223
 31
0.0
  0
LINE
  5
12D
330
44
100
AcDbEntity
  8
0
  6
Continuous
 62
     4
100
AcDbLine
 10
615.6021564069309
 20
-482.8588130546505
 30
0.0
 11
615.5920029683846
 21
-482.8326814996445
 31
0.0
  0
LINE
  5
12E
330
44
100
AcDbEntity
  8
0
  6
Continuous
 62
     4
100
AcDbLine
 10
615.6101289660735
 20
-482.885789562933
 30
0.0
 11
615.6021564069309
 21
-482.8588130546505
 31
0.0
  0
LINE
  5
12F
330
44
100
AcDbEntity
  8
0
  6
Continuous
 62
     4
100
AcDbLine
 10
615.6158656488522
 20
-482.9134040359382
 30
0.0
 11
615.6101289660735
 21
-482.885789562933
 31
0.0
  0
LINE
  5
130
330
44
100
AcDbEntity
  8
0
  6
Continuous
 62
     4
100
AcDbLine
 10
615.6193294573145
 20
-482.9414464852778
 30
0.0
 11
615.6158656488522
 21
-482.9134040359382
 31
0.0
  0
LINE
  5
131
330
44
100
AcDbEntity
  8
0
  6
Continuous
 62
     4
100
AcDbLine
 10
615.6206113864281
 20
-482.969703922729
 30
0.0
 11
615.6193294573145
 21
-482.9414464852778
 31
0.0
  0
LINE
  5
132
330
44
100
AcDbEntity
  8
0
  6
Continuous
 62
     4
100
AcDbLine
 10
581.4229914088664
 20
-482.6454798513157
 30
0.0
 11
615.3165661991848
 21
-482.6454778514263
 31
0.0
  0
LINE
  5
133
330
44
100
AcDbEntity
  8
0
  6
Continuous
 62
     4
100
AcDbLine
 10
579.4207621259427
 20
-482.5376498139827
 30
0.0
 11
579.4581180602753
 21
-482.4355124618619
 31
0.0
  0
LINE
  5
134
330
44
100
AcDbEntity
  8
0
  6
DASH_CENTER
 62
     3
100
AcDbLine
 10
592.0001626666666
 20
-471.8998213333333
 30
0.0
 11
618.6668293333332
 21
-471.8998213333333
 31
0.0
  0
LINE
  5
135
330
44
100
AcDbEntity
  8
0
  6
DASH_CENTER
 62
     3
100
AcDbLine
 10
605.333496
 20
-485.2331546666664
 30
0.0
 11
605.333496
 21
-458.566488
 31
0.0
  0
LINE
  5
136
330
44
100
AcDbEntity
  8
0
  6
DASH_CENTER
 62
     3
100
AcDbLine
 10
369.0001626666666
 20
-471.8998213333333
 30
0.0
 11
395.6668293333333
 21
-471.8998213333333
 31
0.0
  0
LINE
  5
137
330
44
100
AcDbEntity
  8
0
  6
DASH_CENTER
 62
     3
100
AcDbLine
 10
382.333496
 20
-458.566488
 30
0.0
 11
382.333496
 21
-485.2331546666665
 31
0.0
  0
LINE
  5
138
330
44
100
AcDbEntity
  8
0
  6
Continuous
 62
     1
100
AcDbLine
 10
252.3333333333333
 20
-603.8998213333333
 30
0.0
 11
310.3333333333333
 21
-603.8998213333333
 31
0.0
  0
LINE
  5
139
330
44
100
AcDbEntity
  8
0
  6
Continuous
 62
     1
100
AcDbLine
 10
233.3333333333333
 20
-531.8998213333333
 30
0.0
 11
310.3333333333333
 21
-531.8998213333333
 31
0.0
  0
LINE
  5
13A
330
44
100
AcDbEntity
  8
0
  6
Continuous
 62
     1
100
AcDbLine
 10
262.3333333333333
 20
-603.8998213333333
 30
0.0
 11
262.3333333333333
 21
-621.8998213333333
 31
0.0
  0
LINE
  5
13B
330
44
100
AcDbEntity
  8
0
  6
Continuous
 62
     1
100
AcDbLine
 10
262.3333333333333
 20
-430.8998213333333
 30
0.0
 11
262.3333333333333
 21
-531.8998213333333
 31
0.0
  0
LINE
  5
13C
330
44
100
AcDbEntity
  8
0
  6
Continuous
 62
     1
100
AcDbLine
 10
258.833292
 20
-603.8996586666666
 30
0.0
 11
258.8333333333333
 21
-621.8998213333333
 31
0.0
  0
LINE
  5
13D
330
44
100
AcDbEntity
  8
0
  6
Continuous
 62
     1
100
AcDbLine
 10
258.8333333333333
 20
-427.3998213333333
 30
0.0
 11
258.833292
 21
-531.8998213333333
 31
0.0
  0
LINE
  5
13E
330
44
100
AcDbEntity
  8
0
  6
Continuous
 62
     1
100
AcDbLine
 10
200.1676426666667
 20
-368.7331546666667
 30
0.0
 11
200.1676426666667
 21
-621.8998213333333
 31
0.0
  0
LINE
  5
13F
330
44
100
AcDbEntity
  8
0
  6
Continuous
 62
     1
100
AcDbLine
 10
200.1676426666667
 20
-368.7331546666667
 30
0.0
 11
834.333496
 21
-368.7331546666667
 31
0.0
  0
LINE
  5
140
330
44
100
AcDbEntity
  8
0
  6
Continuous
 62
     1
100
AcDbLine
 10
258.8333333333333
 20
-427.3998213333333
 30
0.0
 11
200.1676426666667
 21
-368.7331546666667
 31
0.0
  0
LINE
  5
141
330
44
100
AcDbEntity
  8
0
  6
Continuous
 62
     1
100
AcDbLine
 10
771.3110346666667
 20
-427.3998213333333
 30
0.0
 11
834.333496
 21
-427.3998213333333
 31
0.0
  0
LINE
  5
142
330
44
100
AcDbEntity
  8
0
  6
Continuous
 62
     1
100
AcDbLine
 10
258.8333333333333
 20
-427.3998213333333
 30
0.0
 11
419.3296706666666
 21
-427.3998213333333
 31
0.0
  0
LINE
  5
143
330
44
100
AcDbEntity
  8
0
  6
Continuous
 62
     1
100
AcDbLine
 10
441.3286946666666
 20
-430.8998213333333
 30
0.0
 11
834.333496
 21
-430.8998213333333
 31
0.0
  0
LINE
  5
144
330
44
100
AcDbEntity
  8
0
  6
Continuous
 62
     1
100
AcDbLine
 10
262.3333333333333
 20
-430.8998213333333
 30
0.0
 11
419.3296706666666
 21
-430.8998213333333
 31
0.0
  0
LINE
  5
145
330
44
100
AcDbEntity
  8
0
  6
DASHED
 62
     3
100
AcDbLine
 10
388.1180013333333
 20
-467.529216
 30
0.0
 11
377.962972
 21
-477.6842453333334
 31
0.0
  0
LINE
  5
146
330
44
100
AcDbEntity
  8
0
  6
DASHED
 62
     3
100
AcDbLine
 10
386.7038573333333
 20
-466.1149906666667
 30
0.0
 11
376.5487466666667
 21
-476.27002
 31
0.0
  0
LINE
  5
147
330
44
100
AcDbEntity
  8
0
  6
DASHED
 62
     3
100
AcDbLine
 10
611.1179199999999
 20
-467.529216
 30
0.0
 11
600.9628093333333
 21
-477.6842453333334
 31
0.0
  0
LINE
  5
148
330
44
100
AcDbEntity
  8
0
  6
DASHED
 62
     3
100
AcDbLine
 10
609.7036946666666
 20
-466.1149906666667
 30
0.0
 11
599.5487466666666
 21
-476.2699386666666
 31
0.0
  0
LINE
  5
149
330
44
100
AcDbEntity
  8
0
  6
Continuous
 62
     1
100
AcDbLine
 10
798.8279626666667
 20
-397.6022133333333
 30
0.0
 11
798.8278
 21
-416.6031093333334
 31
0.0
  0
LINE
  5
14A
330
44
100
AcDbEntity
  8
0
  6
Continuous
 62
     1
100
AcDbLine
 10
796.8282879999999
 20
-397.6022133333333
 30
0.0
 11
796.8282879999999
 21
-418.1017253333333
 31
0.0
  0
LINE
  5
14B
330
44
100
AcDbEntity
  8
0
  6
DASH_CENTER
 62
     3
100
AcDbLine
 10
292.3333333333333
 20
-579.8998213333333
 30
0.0
 11
292.3333333333333
 21
-599.8998213333333
 31
0.0
  0
LINE
  5
14C
330
44
100
AcDbEntity
  8
0
  6
DASH_CENTER
 62
     3
100
AcDbLine
 10
282.3333333333333
 20
-589.8998213333333
 30
0.0
 11
302.333456
 21
-589.8998213333333
 31
0.0
  0
LINE
  5
14D
330
44
100
AcDbEntity
  8
0
  6
DASH_CENTER
 62
     3
100
AcDbLine
 10
282.3333333333333
 20
-545.89974
 30
0.0
 11
302.333456
 21
-545.89974
 31
0.0
  0
LINE
  5
14E
330
44
100
AcDbEntity
  8
0
  6
DASH_CENTER
 62
     3
100
AcDbLine
 10
292.3333333333333
 20
-535.89974
 30
0.0
 11
292.3333333333333
 21
-555.8998213333333
 31
0.0
  0
LINE
  5
14F
330
44
100
AcDbEntity
  8
0
  6
Continuous
 62
     1
100
AcDbLine
 10
296.3286946666666
 20
-586.8935546666667
 30
0.0
 11
289.3272293333333
 21
-593.8951826666666
 31
0.0
  0
LINE
  5
150
330
44
100
AcDbEntity
  8
0
  6
Continuous
 62
     1
100
AcDbLine
 10
295.3385826666666
 20
-585.9037266666667
 30
0.0
 11
288.33724
 21
-592.904948
 31
0.0
  0
LINE
  5
151
330
44
100
AcDbEntity
  8
0
  6
Continuous
 62
     1
100
AcDbLine
 10
296.3284506666666
 20
-542.8930666666666
 30
0.0
 11
289.32662
 21
-549.894776
 31
0.0
  0
LINE
  5
152
330
44
100
AcDbEntity
  8
0
  6
Continuous
 62
     1
100
AcDbLine
 10
295.3380946666666
 20
-541.9034013333332
 30
0.0
 11
288.336996
 21
-548.9045413333333
 31
0.0
  0
LINE
  5
153
330
44
100
AcDbEntity
  8
0
  6
Continuous
 62
     1
100
AcDbLine
 10
264.3333333333333
 20
-603.8998213333333
 30
0.0
 11
264.3333333333333
 21
-531.8998213333333
 31
0.0
  0
LINE
  5
154
330
44
100
AcDbEntity
  8
0
  6
Continuous
 62
     1
100
AcDbLine
 10
233.3333333333333
 20
-607.8998213333333
 30
0.0
 11
233.3333333333333
 21
-527.89974
 31
0.0
  0
LINE
  5
155
330
44
100
AcDbEntity
  8
0
  6
Continuous
 62
     1
100
AcDbLine
 10
247.3333333333333
 20
-607.8998213333333
 30
0.0
 11
247.3333333333333
 21
-527.89974
 31
0.0
  0
LINE
  5
156
330
44
100
AcDbEntity
  8
0
  6
Continuous
 62
     1
100
AcDbLine
 10
247.3333333333333
 20
-603.8998213333333
 30
0.0
 11
233.3333333333333
 21
-603.8998213333333
 31
0.0
  0
LINE
  5
157
330
44
100
AcDbEntity
  8
0
  6
Continuous
 62
     1
100
AcDbLine
 10
252.3333333333333
 20
-567.8998213333333
 30
0.0
 11
233.3333333333333
 21
-567.8998213333333
 31
0.0
  0
LINE
  5
158
330
44
100
AcDbEntity
  8
0
  6
Continuous
 62
     1
100
AcDbLine
 10
252.3333333333333
 20
-603.8998213333333
 30
0.0
 11
252.3333333333333
 21
-567.8998213333333
 31
0.0
  0
LINE
  5
159
330
44
100
AcDbEntity
  8
0
  6
Continuous
 62
     1
100
AcDbLine
 10
310.3333333333333
 20
-531.8998213333333
 30
0.0
 11
310.3333333333333
 21
-603.8998213333333
 31
0.0
  0
LINE
  5
15A
330
44
100
AcDbEntity
  8
0
  6
Continuous
 62
     1
100
AcDbLine
 10
247.3333333333333
 20
-527.89974
 30
0.0
 11
233.3333333333333
 21
-527.89974
 31
0.0
  0
LINE
  5
15B
330
44
100
AcDbEntity
  8
0
  6
Continuous
 62
     1
100
AcDbLine
 10
233.3333333333333
 20
-607.8998213333333
 30
0.0
 11
247.3333333333333
 21
-607.8998213333333
 31
0.0
  0
LINE
  5
15C
330
44
100
AcDbEntity
  8
0
  6
DASH_CENTER
 62
     3
100
AcDbLine
 10
360.3330079999999
 20
-400.9017746666667
 30
0.0
 11
360.3330079999999
 21
-414.901204
 31
0.0
  0
LINE
  5
15D
330
44
100
AcDbEntity
  8
0
  6
DASH_CENTER
 62
     3
100
AcDbLine
 10
353.332764
 20
-407.9016933333333
 30
0.0
 11
367.33252
 21
-407.9016933333333
 31
0.0
  0
LINE
  5
15E
330
44
100
AcDbEntity
  8
0
  6
Continuous
 62
     1
100
AcDbLine
 10
441.3286946666666
 20
-429.1642253333333
 30
0.0
 11
441.3286946666666
 21
-437.5013189028019
 31
0.0
  0
LINE
  5
15F
330
44
100
AcDbEntity
  8
0
  6
Continuous
 62
     1
100
AcDbLine
 10
419.3296706666666
 20
-427.4005533333333
 30
0.0
 11
419.3296706666666
 21
-421.40096
 31
0.0
  0
LINE
  5
160
330
44
100
AcDbEntity
  8
0
  6
DASH_CENTER
 62
     3
100
AcDbLine
 10
788.8221026666666
 20
-400.9017746666667
 30
0.0
 11
788.8221026666666
 21
-414.901204
 31
0.0
  0
LINE
  5
161
330
44
100
AcDbEntity
  8
0
  6
DASH_CENTER
 62
     3
100
AcDbLine
 10
781.8225906666667
 20
-407.9016933333333
 30
0.0
 11
795.8216146666666
 21
-407.9016933333333
 31
0.0
  0
LINE
  5
162
330
44
100
AcDbEntity
  8
0
  6
Continuous
 62
     1
100
AcDbLine
 10
771.3110346666667
 20
-421.40096
 30
0.0
 11
771.3110346666667
 21
-427.4005533333333
 31
0.0
  0
LINE
  5
163
330
44
100
AcDbEntity
  8
0
  6
Continuous
 62
     4
100
AcDbLine
 10
755.311524
 20
-421.40096
 30
0.0
 11
755.311524
 21
-418.1009933333333
 31
0.0
  0
LINE
  5
164
330
44
100
AcDbEntity
  8
0
  6
Continuous
 62
     4
100
AcDbLine
 10
765.3110346666667
 20
-421.40096
 30
0.0
 11
765.3110346666667
 21
-418.1009933333333
 31
0.0
  0
LINE
  5
165
330
44
100
AcDbEntity
  8
0
  6
Continuous
 62
     1
100
AcDbLine
 10
350.333496
 20
-416.6009933333333
 30
0.0
 11
350.333496
 21
-397.6022133333333
 31
0.0
  0
LINE
  5
166
330
44
100
AcDbEntity
  8
0
  6
Continuous
 62
     4
100
AcDbLine
 10
414.079508
 20
-498.2312494827962
 30
0.0
 11
414.079508
 21
-497.7946441494629
 31
0.0
  0
LINE
  5
167
330
44
100
AcDbEntity
  8
0
  6
Continuous
 62
     4
100
AcDbLine
 10
446.5782066666666
 20
-498.2312494827962
 30
0.0
 11
446.5782066666666
 21
-497.7946441494629
 31
0.0
  0
LINE
  5
168
330
44
100
AcDbEntity
  8
0
  6
Continuous
 62
     4
100
AcDbLine
 10
422.32902
 20
-502.994596149463
 30
0.0
 11
414.079508
 21
-498.2312494827962
 31
0.0
  0
LINE
  5
169
330
44
100
AcDbEntity
  8
0
  6
Continuous
 62
     4
100
AcDbLine
 10
438.3286946666666
 20
-502.994596149463
 30
0.0
 11
446.5782066666666
 21
-498.2312494827962
 31
0.0
  0
LINE
  5
16A
330
44
100
AcDbEntity
  8
0
  6
Continuous
 62
     4
100
AcDbLine
 10
422.32902
 20
-502.994596149463
 30
0.0
 11
438.3286946666666
 21
-502.994596149463
 31
0.0
  0
LINE
  5
16B
330
44
100
AcDbEntity
  8
0
  6
Continuous
 62
     1
100
AcDbLine
 10
771.3110346666667
 20
-427.4005533333333
 30
0.0
 11
419.3296706666666
 21
-427.4005533333333
 31
0.0
  0
LINE
  5
16C
330
44
100
AcDbEntity
  8
0
  6
Continuous
 62
     4
100
AcDbLine
 10
756.0613613333333
 20
-428.400472
 30
0.0
 11
755.0618493333333
 21
-427.4005533333333
 31
0.0
  0
LINE
  5
16D
330
44
100
AcDbEntity
  8
0
  6
Continuous
 62
     4
100
AcDbLine
 10
764.5613613333333
 20
-428.400472
 30
0.0
 11
765.560872
 21
-427.4005533333333
 31
0.0
  0
LINE
  5
16E
330
44
100
AcDbEntity
  8
0
  6
Continuous
 62
     4
100
AcDbLine
 10
756.0613613333333
 20
-428.400472
 30
0.0
 11
764.5613613333333
 21
-428.400472
 31
0.0
  0
LINE
  5
16F
330
44
100
AcDbEntity
  8
0
  6
DASH_CENTER
 62
     3
100
AcDbLine
 10
760.3113613333333
 20
-431.4000653333333
 30
0.0
 11
760.3113613333333
 21
-411.4010413333333
 31
0.0
  0
LINE
  5
170
330
44
100
AcDbEntity
  8
0
  6
Continuous
 62
     1
100
AcDbLine
 10
419.3296706666666
 20
-421.40096
 30
0.0
 11
771.3110346666667
 21
-421.40096
 31
0.0
  0
LINE
  5
171
330
44
100
AcDbEntity
  8
0
  6
Continuous
 62
     4
100
AcDbLine
 10
361.9588213333333
 20
-406.275472
 30
0.0
 11
358.70638
 21
-409.5279133333333
 31
0.0
  0
LINE
  5
172
330
44
100
AcDbEntity
  8
0
  6
Continuous
 62
     4
100
AcDbLine
 10
358.70638
 20
-406.275472
 30
0.0
 11
361.9588213333333
 21
-409.5279133333333
 31
0.0
  0
LINE
  5
173
330
44
100
AcDbEntity
  8
0
  6
Continuous
 62
     1
100
AcDbLine
 10
351.8330893333333
 20
-418.1009933333333
 30
0.0
 11
352.333252
 21
-418.1009933333333
 31
0.0
  0
LINE
  5
174
330
44
100
AcDbEntity
  8
0
  6
Continuous
 62
     1
100
AcDbLine
 10
352.333252
 20
-397.6022133333333
 30
0.0
 11
350.333496
 21
-397.6022133333333
 31
0.0
  0
LINE
  5
175
330
44
100
AcDbEntity
  8
0
  6
Continuous
 62
     4
100
AcDbLine
 10
790.4477533333334
 20
-406.275472
 30
0.0
 11
787.195312
 21
-409.5276693333333
 31
0.0
  0
LINE
  5
176
330
44
100
AcDbEntity
  8
0
  6
Continuous
 62
     4
100
AcDbLine
 10
787.195312
 20
-406.275472
 30
0.0
 11
790.4477533333334
 21
-409.5276693333333
 31
0.0
  0
LINE
  5
177
330
44
100
AcDbEntity
  8
0
  6
Continuous
 62
     1
100
AcDbLine
 10
796.8282879999999
 20
-397.6022133333333
 30
0.0
 11
798.8279626666667
 21
-397.6022133333333
 31
0.0
  0
LINE
  5
178
330
44
100
AcDbEntity
  8
0
  6
Continuous
 62
     1
100
AcDbLine
 10
352.333252
 20
-418.1009933333333
 30
0.0
 11
797.407546614803
 21
-418.1009933333333
 31
0.0
  0
LINE
  5
179
330
44
100
AcDbEntity
  8
0
  6
Continuous
 62
     1
100
AcDbLine
 10
352.333252
 20
-397.6022133333333
 30
0.0
 11
352.333252
 21
-418.1009933333333
 31
0.0
  0
LINE
  5
17A
330
44
100
AcDbEntity
  8
0
  6
Continuous
 62
     1
100
AcDbLine
 10
796.8282879999999
 20
-397.6022133333333
 30
0.0
 11
352.333252
 21
-397.6022133333333
 31
0.0
  0
LINE
  5
17B
330
44
100
AcDbEntity
  8
0
  6
DASH_CENTER
 62
     3
100
AcDbLine
 10
430.3286946666666
 20
-418.4005533333333
 30
0.0
 11
430.3286946666666
 21
-510.1440426666666
 31
0.0
  0
LINE
  5
17C
330
44
100
AcDbEntity
  8
0
  6
Continuous
 62
     4
100
AcDbLine
 10
419.3296706666666
 20
-429.1642253333333
 30
0.0
 11
441.3286946666666
 21
-429.1642253333333
 31
0.0
  0
LINE
  5
17D
330
44
100
AcDbEntity
  8
0
  6
Continuous
 62
     4
100
AcDbLine
 10
441.3286946666666
 20
-429.1642253333333
 30
0.0
 11
440.310384
 21
-427.4005533333333
 31
0.0
  0
LINE
  5
17E
330
44
100
AcDbEntity
  8
0
  6
Continuous
 62
     4
100
AcDbLine
 10
420.3480626666667
 20
-427.4005533333333
 30
0.0
 11
419.3296706666666
 21
-429.1642253333333
 31
0.0
  0
LINE
  5
17F
330
44
100
AcDbEntity
  8
0
  6
DASH_CENTER
 62
     3
100
AcDbLine
 10
240.3333333333333
 20
-494.1499026666667
 30
0.0
 11
240.3333333333333
 21
-621.89974
 31
0.0
  0
LINE
  5
180
330
44
100
AcDbEntity
  8
0
  6
DASH_CENTER
 62
     3
100
AcDbLine
 10
834.3341466666667
 20
-621.89974
 30
0.0
 11
184.6666666666667
 21
-621.89974
 31
0.0
  0
LINE
  5
181
330
44
100
AcDbEntity
  8
0
  6
DASH_CENTER
 62
     3
100
AcDbLine
 10
834.3341466666667
 20
-364.9331866666666
 30
0.0
 11
834.3341466666667
 21
-621.89974
 31
0.0
  0
ARC
  5
182
330
44
100
AcDbEntity
  8
0
  6
Continuous
 62
     1
100
AcDbCircle
 10
797.3278
 20
-416.6031093333334
 30
0.0
 40
1.500005333333248
100
AcDbArc
 50
-86.95247776981199
 51
0.0
  0
ARC
  5
183
330
44
100
AcDbEntity
  8
0
  6
Continuous
 62
     1
100
AcDbCircle
 10
292.3333333333336
 20
-545.8997400000003
 30
0.0
 40
5.000063999999868
100
AcDbArc
 50
-126.9655760000049
 51
36.96464300000528
  0
ARC
  5
184
330
44
100
AcDbEntity
  8
0
  6
Continuous
 62
     1
100
AcDbCircle
 10
292.3333333333336
 20
-545.8997400000003
 30
0.0
 40
4.999954666666654
100
AcDbArc
 50
-143.0609070000055
 51
-126.9655760000065
  0
ARC
  5
185
330
44
100
AcDbEntity
  8
0
  6
Continuous
 62
     1
100
AcDbCircle
 10
292.3333333333336
 20
-545.8997400000003
 30
0.0
 40
4.9999306666668
100
AcDbArc
 50
53.06127900000448
 51
-143.0609070000036
  0
ARC
  5
186
330
44
100
AcDbEntity
  8
0
  6
Continuous
 62
     1
100
AcDbCircle
 10
292.3333333333336
 20
-545.8997400000003
 30
0.0
 40
5.000103999999932
100
AcDbArc
 50
36.96464300000531
 51
53.06127900000546
  0
ARC
  5
187
330
44
100
AcDbEntity
  8
0
  6
Continuous
 62
     1
100
AcDbCircle
 10
292.3333333333331
 20
-589.8998213333333
 30
0.0
 40
4.999957333333184
100
AcDbArc
 50
-126.9577449999975
 51
36.95923499999869
  0
ARC
  5
188
330
44
100
AcDbEntity
  8
0
  6
Continuous
 62
     1
100
AcDbCircle
 10
292.3333333333331
 20
-589.8998213333333
 30
0.0
 40
4.999954666666539
100
AcDbArc
 50
-143.0562439999971
 51
-126.9577449999987
  0
ARC
  5
189
330
44
100
AcDbEntity
  8
0
  6
Continuous
 62
     1
100
AcDbCircle
 10
292.3333333333331
 20
-589.8998213333333
 30
0.0
 40
5.000029333333464
100
AcDbArc
 50
53.05512599999814
 51
-143.0562439999986
  0
ARC
  5
18A
330
44
100
AcDbEntity
  8
0
  6
Continuous
 62
     1
100
AcDbCircle
 10
292.3333333333331
 20
-589.8998213333333
 30
0.0
 40
5.000054666666665
100
AcDbArc
 50
36.9592349999984
 51
53.05512599999793
  0
ARC
  5
18B
330
44
100
AcDbEntity
  8
0
  6
Continuous
 62
     1
100
AcDbCircle
 10
351.8330893333333
 20
-416.6009933333333
 30
0.0
 40
1.49959333333328
100
AcDbArc
 50
180.0
 51
-90.0
  0
ARC
  5
18C
330
44
100
AcDbEntity
  8
0
  6
Continuous
 62
     1
100
AcDbCircle
 10
797.3278
 20
-416.6031093333334
 30
0.0
 40
1.500005333333264
100
AcDbArc
 50
-90.161641000001
 51
-86.95247776981199
  0
CIRCLE
  5
18D
330
44
100
AcDbEntity
  8
0
  6
DASHED
 62
     3
100
AcDbCircle
 10
544.333496
 20
-471.8998213333333
 30
0.0
 40
7.25
  0
CIRCLE
  5
18E
330
44
100
AcDbEntity
  8
0
  6
DASHED
 62
     3
100
AcDbCircle
 10
605.333496
 20
-471.8998213333333
 30
0.0
 40
7.25
  0
CIRCLE
  5
18F
330
44
100
AcDbEntity
  8
0
  6
DASHED
 62
     3
100
AcDbCircle
 10
382.333496
 20
-471.8998213333333
 30
0.0
 40
7.25
  0
CIRCLE
  5
190
330
44
100
AcDbEntity
  8
0
  6
Continuous
 62
     4
100
AcDbCircle
 10
788.8221026666666
 20
-407.9016933333333
 30
0.0
 40
5.199715999999967
  0
CIRCLE
  5
191
330
44
100
AcDbEntity
  8
0
  6
Continuous
 62
     4
100
AcDbCircle
 10
360.3330079999999
 20
-407.9016933333333
 30
0.0
 40
5.19971600000008
  0
DIMENSION
  5
19D
330
44
100
AcDbEntity
  8
1
100
AcDbDimension
  2
*D6
 10
382.333496
 20
-535.437589752457
 30
0.0
 11
500.943010759888
 21
-530.437589752457
 31
0.0
 70
    32
  1
<>
 71
     5
 42
-1.0
 53
0.00013888888889
  3
ME10_DIM_10
100
AcDbAlignedDimension
 13
605.333496
 23
-485.2331546666664
 33
0.0
 14
382.333496
 24
-485.2331546666665
 34
0.0
100
AcDbRotatedDimension
  0
DIMENSION
  5
1A8
330
44
100
AcDbEntity
  8
1
100
AcDbDimension
  2
*D7
 10
240.3333333333333
 20
-512.1914805967373
 30
0.0
 11
292.7917014055546
 21
-507.1914805967373
 31
0.0
 70
    32
  1
110
 71
     5
 42
-1.0
 53
0.00013888888889
  3
ME10_DIM_11
100
AcDbAlignedDimension
 13
350.3335609384437
 23
-497.7946441494629
 33
0.0
 14
240.3333333333333
 24
-494.1499026666667
 34
0.0
100
AcDbRotatedDimension
  0
DIMENSION
  5
1B3
330
44
100
AcDbEntity
  8
1
100
AcDbDimension
  2
*D8
 10
186.72836578892
 20
-430.8998213333334
 30
0.0
 11
181.72836578892
 21
-419.665466833176
 31
0.0
 70
    32
  1
23
 71
     5
 42
-1.0
 53
90.0
  3
ME10_DIM_12
100
AcDbAlignedDimension
 13
353.332764
 23
-407.9016933333333
 33
0.0
 14
262.3333333333333
 24
-430.8998213333333
 34
0.0
 50
90.0
100
AcDbRotatedDimension
  0
DIMENSION
  5
1BE
330
44
100
AcDbEntity
  8
1
100
AcDbDimension
  2
*D9
 10
240.3333333333333
 20
-523.281168303824
 30
0.0
 11
303.738840593174
 21
-518.281168303824
 31
0.0
 70
    32
  1
<>
 71
     5
 42
-1.0
 53
0.00013888888889
  3
ME10_DIM_13
100
AcDbAlignedDimension
 13
382.333496
 23
-485.2331546666665
 33
0.0
 14
240.3333333333333
 24
-494.1499026666667
 34
0.0
100
AcDbRotatedDimension
  0
DIMENSION
  5
1C9
330
44
100
AcDbEntity
  8
1
100
AcDbDimension
  2
*D10
 10
382.333496
 20
-523.281168303824
 30
0.0
 11
463.333496
 21
-518.281168303824
 31
0.0
 70
    32
  1
<>
 71
     5
 42
-1.0
 53
0.00013888888889
  3
ME10_DIM_14
100
AcDbAlignedDimension
 13
544.333496
 23
-482.0998213333333
 33
0.0
 14
382.333496
 24
-485.2331546666665
 34
0.0
100
AcDbRotatedDimension
  0
DIMENSION
  5
1D4
330
44
100
AcDbEntity
  8
1
100
AcDbDimension
  2
*D11
 10
240.3333333333334
 20
-355.2665601716906
 30
0.0
 11
304.4583383041867
 21
-350.2665601716906
 31
0.0
 70
    32
  1
120
 71
     5
 42
-1.0
 53
0.00013888888889
  3
ME10_DIM_15
100
AcDbAlignedDimension
 13
360.3330079999999
 23
-400.9017746666667
 33
0.0
 14
240.3333333333333
 24
-494.1499026666667
 34
0.0
100
AcDbRotatedDimension
  0
DIMENSION
  5
1DF
330
44
100
AcDbEntity
  8
1
100
AcDbDimension
  2
*D12
 10
360.3330079999999
 20
-355.2665601716906
 30
0.0
 11
573.5734355239026
 21
-350.2082268383573
 31
0.0
 70
    32
  1
428.5
 71
     5
 42
-1.0
 53
0.00013888888889
  3
ME10_DIM_16
100
AcDbAlignedDimension
 13
788.8221026666666
 23
-400.9017746666667
 33
0.0
 14
360.3330079999999
 24
-400.9017746666667
 34
0.0
100
AcDbRotatedDimension
  0
ENDBLK
  5
46
330
44
100
AcDbEntity
  8
0
100
AcDbBlockEnd
  0
BLOCK
  5
48
330
47
100
AcDbEntity
  8
0
100
AcDbBlockBegin
  2
Top__1
 70
     0
 71
     0
 10
324.726228546284
 20
-413.573457
 30
0.0
  3
Top__1
  1

  0
LINE
  5
1E0
330
47
100
AcDbEntity
  8
1
  6
Continuous
 62
     2
100
AcDbLine
 10
251.800336
 20
-569.699707
 30
0.0
 11
252.0003359999999
 21
-569.699707
 31
0.0
  0
LINE
  5
1E1
330
47
100
AcDbEntity
  8
1
  6
Continuous
 62
     2
100
AcDbLine
 10
251.800336
 20
-546.699707
 30
0.0
 11
251.800336
 21
-569.699707
 31
0.0
  0
LINE
  5
1E2
330
47
100
AcDbEntity
  8
1
  6
Continuous
 62
     2
100
AcDbLine
 10
252.0003359999999
 20
-546.699707
 30
0.0
 11
251.800336
 21
-546.699707
 31
0.0
  0
LINE
  5
1E3
330
47
100
AcDbEntity
  8
1
  6
Continuous
 62
     2
100
AcDbLine
 10
252.0003359999999
 20
-569.699707
 30
0.0
 11
252.0003359999999
 21
-546.699707
 31
0.0
  0
LINE
  5
1E4
330
47
100
AcDbEntity
  8
1
  6
Continuous
 62
     2
100
AcDbLine
 10
251.800336
 20
-601.699707
 30
0.0
 11
252.0003359999999
 21
-601.699707
 31
0.0
  0
LINE
  5
1E5
330
47
100
AcDbEntity
  8
1
  6
Continuous
 62
     2
100
AcDbLine
 10
252.0003359999999
 20
-601.699707
 30
0.0
 11
252.0003359999999
 21
-586.699707
 31
0.0
  0
LINE
  5
1E6
330
47
100
AcDbEntity
  8
1
  6
Continuous
 62
     2
100
AcDbLine
 10
251.800336
 20
-586.699707
 30
0.0
 11
252.0003359999999
 21
-586.699707
 31
0.0
  0
LINE
  5
1E7
330
47
100
AcDbEntity
  8
1
  6
Continuous
 62
     2
100
AcDbLine
 10
251.800336
 20
-586.699707
 30
0.0
 11
251.800336
 21
-601.699707
 31
0.0
  0
LINE
  5
1E8
330
47
100
AcDbEntity
  8
1
  6
Continuous
 62
     1
100
AcDbLine
 10
251.300336
 20
-582.199951
 30
0.0
 11
251.300336
 21
-582.699707
 31
0.0
  0
LINE
  5
1E9
330
47
100
AcDbEntity
  8
1
  6
Continuous
 62
     1
100
AcDbLine
 10
252.500336
 20
-574.199951
 30
0.0
 11
252.5003359999999
 21
-570.199707
 31
0.0
  0
LINE
  5
1EA
102
{ACAD_REACTORS
330
200
330
200
102
}
330
47
100
AcDbEntity
  8
1
  6
Continuous
 62
     1
100
AcDbLine
 10
243.300336
 20
-604.199707
 30
0.0
 11
251.300336
 21
-604.199707
 31
0.0
  0
LINE
  5
1EB
102
{ACAD_REACTORS
330
1FF
330
1FF
102
}
330
47
100
AcDbEntity
  8
1
  6
Continuous
 62
     1
100
AcDbLine
 10
251.300336
 20
-544.199707
 30
0.0
 11
243.300336
 21
-544.199707
 31
0.0
  0
LINE
  5
1EC
102
{ACAD_REACTORS
330
1FF
330
1FF
102
}
330
47
100
AcDbEntity
  8
1
  6
Continuous
 62
     1
100
AcDbLine
 10
243.300336
 20
-544.199707
 30
0.0
 11
243.300336
 21
-569.999707
 31
0.0
  0
LINE
  5
1ED
102
{ACAD_REACTORS
330
200
330
200
102
}
330
47
100
AcDbEntity
  8
1
  6
Continuous
 62
     1
100
AcDbLine
 10
243.300336
 20
-586.3997069999999
 30
0.0
 11
243.300336
 21
-604.199707
 31
0.0
  0
LINE
  5
1EE
102
{ACAD_REACTORS
330
1FF
330
1FF
102
}
330
47
100
AcDbEntity
  8
1
  6
Continuous
 62
     1
100
AcDbLine
 10
247.0003359999999
 20
-573.699707
 30
0.0
 11
243.300336
 21
-569.999707
 31
0.0
  0
LINE
  5
1EF
102
{ACAD_REACTORS
330
1FF
330
1FF
102
}
330
47
100
AcDbEntity
  8
1
  6
Continuous
 62
     1
100
AcDbLine
 10
251.300336
 20
-573.699707
 30
0.0
 11
247.0003359999999
 21
-573.699707
 31
0.0
  0
LINE
  5
1F0
102
{ACAD_REACTORS
330
200
330
200
102
}
330
47
100
AcDbEntity
  8
1
  6
Continuous
 62
     1
100
AcDbLine
 10
247.0003359999999
 20
-582.699707
 30
0.0
 11
243.300336
 21
-586.3997069999999
 31
0.0
  0
LINE
  5
1F1
102
{ACAD_REACTORS
330
200
330
200
102
}
330
47
100
AcDbEntity
  8
1
  6
Continuous
 62
     1
100
AcDbLine
 10
251.300336
 20
-582.699707
 30
0.0
 11
247.0003359999999
 21
-582.699707
 31
0.0
  0
LINE
  5
1F2
330
47
100
AcDbEntity
  8
1
  6
Continuous
 62
     1
100
AcDbLine
 10
243.300336
 20
-569.999707
 30
0.0
 11
243.300336
 21
-586.3997069999999
 31
0.0
  0
LINE
  5
1F3
330
47
100
AcDbEntity
  8
1
  6
Continuous
 62
     1
100
AcDbLine
 10
251.300336
 20
-602.199707
 30
0.0
 11
252.5003359999999
 21
-602.199707
 31
0.0
  0
LINE
  5
1F4
330
47
100
AcDbEntity
  8
1
  6
Continuous
 62
     1
100
AcDbLine
 10
252.5003359999999
 20
-546.199707
 30
0.0
 11
251.300336
 21
-546.199707
 31
0.0
  0
LINE
  5
1F5
330
47
100
AcDbEntity
  8
1
  6
Continuous
 62
     1
100
AcDbLine
 10
252.5003359999999
 20
-570.199707
 30
0.0
 11
252.5003359999999
 21
-546.199707
 31
0.0
  0
LINE
  5
1F6
330
47
100
AcDbEntity
  8
1
  6
Continuous
 62
     1
100
AcDbLine
 10
251.300336
 20
-570.199707
 30
0.0
 11
252.5003359999999
 21
-570.199707
 31
0.0
  0
LINE
  5
1F7
330
47
100
AcDbEntity
  8
1
  6
Continuous
 62
     1
100
AcDbLine
 10
251.300336
 20
-586.199707
 30
0.0
 11
252.5003359999999
 21
-586.199707
 31
0.0
  0
LINE
  5
1F8
102
{ACAD_REACTORS
330
1FF
330
1FF
102
}
330
47
100
AcDbEntity
  8
1
  6
Continuous
 62
     1
100
AcDbLine
 10
251.300336
 20
-544.199707
 30
0.0
 11
251.300336
 21
-573.699707
 31
0.0
  0
LINE
  5
1F9
102
{ACAD_REACTORS
330
200
330
200
102
}
330
47
100
AcDbEntity
  8
1
  6
Continuous
 62
     1
100
AcDbLine
 10
251.300336
 20
-582.699707
 30
0.0
 11
251.300336
 21
-604.199707
 31
0.0
  0
LINE
  5
1FA
330
47
100
AcDbEntity
  8
1
  6
Continuous
 62
     1
100
AcDbLine
 10
251.300336
 20
-573.699707
 30
0.0
 11
251.300336
 21
-574.199951
 31
0.0
  0
LINE
  5
1FB
330
47
100
AcDbEntity
  8
1
  6
Continuous
 62
     1
100
AcDbLine
 10
251.300336
 20
-586.199707
 30
0.0
 11
251.300336
 21
-602.199707
 31
0.0
  0
LINE
  5
1FC
330
47
100
AcDbEntity
  8
1
  6
Continuous
 62
     1
100
AcDbLine
 10
251.300336
 20
-546.199707
 30
0.0
 11
251.300336
 21
-570.199707
 31
0.0
  0
LINE
  5
1FD
330
47
100
AcDbEntity
  8
1
  6
Continuous
 62
     1
100
AcDbLine
 10
252.5003359999999
 20
-586.199707
 30
0.0
 11
252.500336
 21
-582.199951
 31
0.0
  0
LINE
  5
1FE
330
47
100
AcDbEntity
  8
1
  6
Continuous
 62
     1
100
AcDbLine
 10
252.5003359999999
 20
-602.199707
 30
0.0
 11
252.5003359999999
 21
-586.199707
 31
0.0
  0
HATCH
  5
1FF
330
47
100
AcDbEntity
  8
1
  6
Continuous
 62
     3
100
AcDbHatch
 10
0.0
 20
0.0
 30
0.0
210
0.0
220
0.0
230
1.0
  2
_USER
 70
     0
 71
     1
 91
        1
 92
        1
 93
        5
 72
     1
 10
251.300336
 20
-544.199707
 11
251.300336
 21
-573.699707
 72
     1
 10
251.300336
 20
-573.699707
 11
247.0003359999999
 21
-573.699707
 72
     1
 10
247.0003359999999
 20
-573.699707
 11
243.300336
 21
-569.999707
 72
     1
 10
243.300336
 20
-569.999707
 11
243.300336
 21
-544.199707
 72
     1
 10
243.300336
 20
-544.199707
 11
251.300336
 21
-544.199707
 97
        5
330
1F8
330
1EF
330
1EE
330
1EC
330
1EB
 75
     1
 76
     0
 52
-45.0
 41
5.0
 77
     0
 78
     1
 53
-45.0
 43
0.0
 44
0.0
 45
3.535533905932737
 46
3.535533905932738
 79
     0
 98
        1
 10
0.0
 20
0.0
  0
HATCH
  5
200
330
47
100
AcDbEntity
  8
1
  6
Continuous
 62
     3
100
AcDbHatch
 10
0.0
 20
0.0
 30
0.0
210
0.0
220
0.0
230
1.0
  2
_USER
 70
     0
 71
     1
 91
        1
 92
        1
 93
        5
 72
     1
 10
243.300336
 20
-586.3997069999999
 11
243.300336
 21
-604.199707
 72
     1
 10
243.300336
 20
-604.199707
 11
251.300336
 21
-604.199707
 72
     1
 10
251.300336
 20
-604.199707
 11
251.300336
 21
-582.699707
 72
     1
 10
251.300336
 20
-582.699707
 11
247.0003359999999
 21
-582.699707
 72
     1
 10
247.0003359999999
 20
-582.699707
 11
243.300336
 21
-586.3997069999999
 97
        5
330
1F1
330
1F9
330
1EA
330
1ED
330
1F0
 75
     1
 76
     0
 52
-45.0
 41
5.0
 77
     0
 78
     1
 53
-45.0
 43
0.0
 44
0.0
 45
3.535533905932737
 46
3.535533905932738
 79
     0
 98
        1
 10
0.0
 20
0.0
  0
ENDBLK
  5
49
330
47
100
AcDbEntity
  8
0
100
AcDbBlockEnd
  0
BLOCK
  5
4B
330
4A
100
AcDbEntity
  8
0
100
AcDbBlockBegin
  2
Top__2
 70
     0
 71
     0
 10
694.3650197564
 20
-294.098228567975
 30
0.0
  3
Top__2
  1

  0
POINT
  5
201
330
4A
100
AcDbEntity
  8
1
 62
     3
 60
     1
100
AcDbPoint
 10
443.299878
 20
-586.3995849999999
 30
0.0
  0
POINT
  5
202
330
4A
100
AcDbEntity
  8
1
 62
     3
 60
     1
100
AcDbPoint
 10
443.299878
 20
-569.9995849999999
 30
0.0
  0
LINE
  5
203
330
4A
100
AcDbEntity
  8
1
  6
Continuous
 62
     1
100
AcDbLine
 10
452.499878
 20
-602.199585
 30
0.0
 11
452.499878
 21
-586.199585
 31
0.0
  0
LINE
  5
204
330
4A
100
AcDbEntity
  8
1
  6
Continuous
 62
     1
100
AcDbLine
 10
452.499878
 20
-586.199585
 30
0.0
 11
452.499878
 21
-582.199829
 31
0.0
  0
LINE
  5
205
330
4A
100
AcDbEntity
  8
1
  6
Continuous
 62
     1
100
AcDbLine
 10
451.299878
 20
-546.199585
 30
0.0
 11
451.299878
 21
-570.199585
 31
0.0
  0
LINE
  5
206
330
4A
100
AcDbEntity
  8
1
  6
Continuous
 62
     1
100
AcDbLine
 10
451.299878
 20
-586.199585
 30
0.0
 11
451.299878
 21
-602.199585
 31
0.0
  0
LINE
  5
207
330
4A
100
AcDbEntity
  8
1
  6
Continuous
 62
     1
100
AcDbLine
 10
451.299878
 20
-573.699585
 30
0.0
 11
451.299878
 21
-574.199829
 31
0.0
  0
LINE
  5
208
102
{ACAD_REACTORS
330
222
330
222
102
}
330
4A
100
AcDbEntity
  8
1
  6
Continuous
 62
     1
100
AcDbLine
 10
451.299878
 20
-582.699585
 30
0.0
 11
451.299878
 21
-604.199585
 31
0.0
  0
LINE
  5
209
102
{ACAD_REACTORS
330
223
330
223
102
}
330
4A
100
AcDbEntity
  8
1
  6
Continuous
 62
     1
100
AcDbLine
 10
451.299878
 20
-544.199585
 30
0.0
 11
451.299878
 21
-573.699585
 31
0.0
  0
LINE
  5
20A
330
4A
100
AcDbEntity
  8
1
  6
Continuous
 62
     1
100
AcDbLine
 10
451.299878
 20
-586.199585
 30
0.0
 11
452.499878
 21
-586.199585
 31
0.0
  0
LINE
  5
20B
330
4A
100
AcDbEntity
  8
1
  6
Continuous
 62
     1
100
AcDbLine
 10
451.299878
 20
-570.199585
 30
0.0
 11
452.499878
 21
-570.199585
 31
0.0
  0
LINE
  5
20C
330
4A
100
AcDbEntity
  8
1
  6
Continuous
 62
     1
100
AcDbLine
 10
452.499878
 20
-570.199585
 30
0.0
 11
452.499878
 21
-546.199585
 31
0.0
  0
LINE
  5
20D
330
4A
100
AcDbEntity
  8
1
  6
Continuous
 62
     1
100
AcDbLine
 10
452.499878
 20
-546.199585
 30
0.0
 11
451.299878
 21
-546.199585
 31
0.0
  0
LINE
  5
20E
330
4A
100
AcDbEntity
  8
1
  6
Continuous
 62
     1
100
AcDbLine
 10
451.299878
 20
-602.199585
 30
0.0
 11
452.499878
 21
-602.199585
 31
0.0
  0
LINE
  5
20F
330
4A
100
AcDbEntity
  8
1
  6
Continuous
 62
     1
100
AcDbLine
 10
443.299878
 20
-569.9995849999999
 30
0.0
 11
443.299878
 21
-586.3995849999999
 31
0.0
  0
LINE
  5
210
102
{ACAD_REACTORS
330
222
330
222
102
}
330
4A
100
AcDbEntity
  8
1
  6
Continuous
 62
     1
100
AcDbLine
 10
451.299878
 20
-582.699585
 30
0.0
 11
446.999878
 21
-582.699585
 31
0.0
  0
LINE
  5
211
102
{ACAD_REACTORS
330
222
330
222
102
}
330
4A
100
AcDbEntity
  8
1
  6
Continuous
 62
     1
100
AcDbLine
 10
446.999878
 20
-582.699585
 30
0.0
 11
443.299878
 21
-586.3995849999999
 31
0.0
  0
LINE
  5
212
102
{ACAD_REACTORS
330
223
330
223
102
}
330
4A
100
AcDbEntity
  8
1
  6
Continuous
 62
     1
100
AcDbLine
 10
451.299878
 20
-573.699585
 30
0.0
 11
446.999878
 21
-573.699585
 31
0.0
  0
LINE
  5
213
102
{ACAD_REACTORS
330
223
330
223
102
}
330
4A
100
AcDbEntity
  8
1
  6
Continuous
 62
     1
100
AcDbLine
 10
446.999878
 20
-573.699585
 30
0.0
 11
443.299878
 21
-569.9995849999999
 31
0.0
  0
LINE
  5
214
102
{ACAD_REACTORS
330
222
330
222
102
}
330
4A
100
AcDbEntity
  8
1
  6
Continuous
 62
     1
100
AcDbLine
 10
443.299878
 20
-586.3995849999999
 30
0.0
 11
443.299878
 21
-604.199585
 31
0.0
  0
LINE
  5
215
102
{ACAD_REACTORS
330
223
330
223
102
}
330
4A
100
AcDbEntity
  8
1
  6
Continuous
 62
     1
100
AcDbLine
 10
443.299878
 20
-544.199585
 30
0.0
 11
443.299878
 21
-569.9995849999999
 31
0.0
  0
LINE
  5
216
102
{ACAD_REACTORS
330
223
330
223
102
}
330
4A
100
AcDbEntity
  8
1
  6
Continuous
 62
     1
100
AcDbLine
 10
451.299878
 20
-544.199585
 30
0.0
 11
443.299878
 21
-544.199585
 31
0.0
  0
LINE
  5
217
102
{ACAD_REACTORS
330
222
330
222
102
}
330
4A
100
AcDbEntity
  8
1
  6
Continuous
 62
     1
100
AcDbLine
 10
443.299878
 20
-604.199585
 30
0.0
 11
451.299878
 21
-604.199585
 31
0.0
  0
LINE
  5
218
330
4A
100
AcDbEntity
  8
1
  6
Continuous
 62
     2
100
AcDbLine
 10
451.799878
 20
-546.699585
 30
0.0
 11
451.799878
 21
-569.699585
 31
0.0
  0
LINE
  5
219
330
4A
100
AcDbEntity
  8
1
  6
Continuous
 62
     1
100
AcDbLine
 10
451.999878
 20
-546.699585
 30
0.0
 11
451.799878
 21
-546.699585
 31
0.0
  0
LINE
  5
21A
330
4A
100
AcDbEntity
  8
1
  6
Continuous
 62
     2
100
AcDbLine
 10
451.999878
 20
-569.699585
 30
0.0
 11
451.999878
 21
-546.699585
 31
0.0
  0
LINE
  5
21B
330
4A
100
AcDbEntity
  8
1
  6
Continuous
 62
     1
100
AcDbLine
 10
451.799878
 20
-569.699585
 30
0.0
 11
451.999878
 21
-569.699585
 31
0.0
  0
LINE
  5
21C
330
4A
100
AcDbEntity
  8
1
  6
Continuous
 62
     2
100
AcDbLine
 10
451.799878
 20
-586.699585
 30
0.0
 11
451.799878
 21
-601.699585
 31
0.0
  0
LINE
  5
21D
330
4A
100
AcDbEntity
  8
1
  6
Continuous
 62
     2
100
AcDbLine
 10
451.799878
 20
-601.699585
 30
0.0
 11
451.999878
 21
-601.699585
 31
0.0
  0
LINE
  5
21E
330
4A
100
AcDbEntity
  8
1
  6
Continuous
 62
     2
100
AcDbLine
 10
451.999878
 20
-601.699585
 30
0.0
 11
451.999878
 21
-586.699585
 31
0.0
  0
LINE
  5
21F
330
4A
100
AcDbEntity
  8
1
  6
Continuous
 62
     1
100
AcDbLine
 10
451.799878
 20
-586.699585
 30
0.0
 11
451.999878
 21
-586.699585
 31
0.0
  0
LINE
  5
220
330
4A
100
AcDbEntity
  8
1
  6
Continuous
 62
     1
100
AcDbLine
 10
452.499878
 20
-574.199829
 30
0.0
 11
452.499878
 21
-570.199585
 31
0.0
  0
LINE
  5
221
330
4A
100
AcDbEntity
  8
1
  6
Continuous
 62
     1
100
AcDbLine
 10
451.299878
 20
-582.199829
 30
0.0
 11
451.299878
 21
-582.699585
 31
0.0
  0
HATCH
  5
222
330
4A
100
AcDbEntity
  8
1
  6
Continuous
 62
     3
100
AcDbHatch
 10
0.0
 20
0.0
 30
0.0
210
0.0
220
0.0
230
1.0
  2
_USER
 70
     0
 71
     1
 91
        1
 92
        1
 93
        5
 72
     1
 10
446.999878
 20
-582.699585
 11
443.299878
 21
-586.3995849999999
 72
     1
 10
443.299878
 20
-586.3995849999999
 11
443.299878
 21
-604.199585
 72
     1
 10
443.299878
 20
-604.199585
 11
451.299878
 21
-604.199585
 72
     1
 10
451.299878
 20
-604.199585
 11
451.299878
 21
-582.699585
 72
     1
 10
451.299878
 20
-582.699585
 11
446.999878
 21
-582.699585
 97
        5
330
211
330
214
330
217
330
208
330
210
 75
     1
 76
     0
 52
45.0
 41
5.0
 77
     0
 78
     1
 53
45.0
 43
0.0
 44
0.0
 45
-3.535533905932737
 46
3.535533905932738
 79
     0
 98
        1
 10
0.0
 20
0.0
  0
HATCH
  5
223
330
4A
100
AcDbEntity
  8
1
  6
Continuous
 62
     3
100
AcDbHatch
 10
0.0
 20
0.0
 30
0.0
210
0.0
220
0.0
230
1.0
  2
_USER
 70
     0
 71
     1
 91
        1
 92
        1
 93
        5
 72
     1
 10
443.299878
 20
-569.9995849999999
 11
446.999878
 21
-573.699585
 72
     1
 10
446.999878
 20
-573.699585
 11
451.299878
 21
-573.699585
 72
     1
 10
451.299878
 20
-573.699585
 11
451.299878
 21
-544.199585
 72
     1
 10
451.299878
 20
-544.199585
 11
443.299878
 21
-544.199585
 72
     1
 10
443.299878
 20
-544.199585
 11
443.299878
 21
-569.9995849999999
 97
        5
330
216
330
209
330
212
330
213
330
215
 75
     1
 76
     0
 52
45.0
 41
5.0
 77
     0
 78
     1
 53
45.0
 43
0.0
 44
0.0
 45
-3.535533905932737
 46
3.535533905932738
 79
     0
 98
        1
 10
0.0
 20
0.0
  0
ENDBLK
  5
4C
330
4A
100
AcDbEntity
  8
0
100
AcDbBlockEnd
  0
BLOCK
  5
4E
330
4D
100
AcDbEntity
  8
0
100
AcDbBlockBegin
  2
a2kl
 70
     0
 71
     0
 10
83.7784353741496
 20
-650.245869367347
 30
0.0
  3
a2kl
  1

  0
LINE
  5
224
330
4D
100
AcDbEntity
  8
1
  6
Continuous
 62
     1
100
AcDbLine
 10
484.7784353741496
 20
-650.245869367347
 30
0.0
 11
484.7784353741496
 21
-607.245869367347
 31
0.0
  0
LINE
  5
225
330
4D
100
AcDbEntity
  8
0
  6
Continuous
 62
     2
100
AcDbLine
 10
667.7784353741496
 20
-650.245869367347
 30
0.0
 11
484.7784353741496
 21
-650.245869367347
 31
0.0
  0
LINE
  5
226
330
4D
100
AcDbEntity
  8
0
  6
Continuous
 62
     1
100
AcDbLine
 10
623.7784353741496
 20
-607.245869367347
 30
0.0
 11
579.7784353741496
 21
-607.245869367347
 31
0.0
  0
LINE
  5
227
330
4D
100
AcDbEntity
  8
0
  6
Continuous
 62
     1
100
AcDbLine
 10
568.7784353741496
 20
-650.245869367347
 30
0.0
 11
568.7784353741496
 21
-641.245869367347
 31
0.0
  0
LINE
  5
228
330
4D
100
AcDbEntity
  8
0
  6
Continuous
 62
     1
100
AcDbLine
 10
617.7784353741496
 20
-650.245869367347
 30
0.0
 11
617.7784353741496
 21
-624.245869367347
 31
0.0
  0
LINE
  5
229
330
4D
100
AcDbEntity
  8
0
  6
Continuous
 62
     1
100
AcDbLine
 10
535.7784353741496
 20
-607.245869367347
 30
0.0
 11
535.7784353741496
 21
-650.245869367347
 31
0.0
  0
LINE
  5
22A
330
4D
100
AcDbEntity
  8
0
  6
Continuous
 62
     1
100
AcDbLine
 10
667.7784353741496
 20
-637.245869367347
 30
0.0
 11
617.7784353741496
 21
-637.245869367347
 31
0.0
  0
LINE
  5
22B
330
4D
100
AcDbEntity
  8
1
  6
Continuous
 62
     1
100
AcDbLine
 10
579.7784353741496
 20
-607.245869367347
 30
0.0
 11
579.7784353741496
 21
-624.245869367347
 31
0.0
  0
LINE
  5
22C
330
4D
100
AcDbEntity
  8
0
  6
Continuous
 62
     1
100
AcDbLine
 10
579.7784353741496
 20
-624.245869367347
 30
0.0
 11
667.7784353741496
 21
-624.245869367347
 31
0.0
  0
LINE
  5
22D
330
4D
100
AcDbEntity
  8
0
  6
Continuous
 62
     1
100
AcDbLine
 10
579.7784353741496
 20
-607.245869367347
 30
0.0
 11
484.7784353741496
 21
-607.245869367347
 31
0.0
  0
LINE
  5
22E
330
4D
100
AcDbEntity
  8
0
  6
Continuous
 62
     3
100
AcDbLine
 10
535.7784353741496
 20
-615.745869367347
 30
0.0
 11
579.7784353741496
 21
-615.745869367347
 31
0.0
  0
LINE
  5
22F
330
4D
100
AcDbEntity
  8
0
  6
Continuous
 62
     1
100
AcDbLine
 10
535.7784353741496
 20
-620.245869367347
 30
0.0
 11
535.7784353741496
 21
-620.1452804883855
 31
0.0
  0
LINE
  5
230
330
4D
100
AcDbEntity
  8
1
  6
Continuous
 62
     1
100
AcDbLine
 10
579.7784353741496
 20
-624.245869367347
 30
0.0
 11
535.7784353741496
 21
-624.245869367347
 31
0.0
  0
LINE
  5
231
330
4D
100
AcDbEntity
  8
1
  6
Continuous
 62
     1
100
AcDbLine
 10
623.7784353741496
 20
-607.245869367347
 30
0.0
 11
667.7784353741496
 21
-607.245869367347
 31
0.0
  0
LINE
  5
232
330
4D
100
AcDbEntity
  8
0
  6
Continuous
 62
     2
100
AcDbLine
 10
667.7784353741496
 20
-607.245869367347
 30
0.0
 11
667.7784353741496
 21
-650.245869367347
 31
0.0
  0
LINE
  5
233
330
4D
100
AcDbEntity
  8
0
  6
Continuous
 62
     1
100
AcDbLine
 10
617.7784353741496
 20
-641.245869367347
 30
0.0
 11
599.7784353741496
 21
-641.245869367347
 31
0.0
  0
LINE
  5
234
330
4D
100
AcDbEntity
  8
0
  6
Continuous
 62
     3
100
AcDbLine
 10
560.9375262832405
 20
-641.245869367347
 30
0.0
 11
560.9375262832405
 21
-624.2458631344206
 31
0.0
  0
LINE
  5
235
330
4D
100
AcDbEntity
  8
0
  6
Continuous
 62
     3
100
AcDbLine
 10
546.8670661468768
 20
-641.245869367347
 30
0.0
 11
546.8670661468768
 21
-624.245869367347
 31
0.0
  0
LINE
  5
236
330
4D
100
AcDbEntity
  8
0
  6
Continuous
 62
     3
100
AcDbLine
 10
535.7784353741496
 20
-628.2695311059409
 30
0.0
 11
573.051162646877
 21
-628.2695311059409
 31
0.0
  0
LINE
  5
237
330
4D
100
AcDbEntity
  8
0
  6
Continuous
 62
     3
100
AcDbLine
 10
573.051162646877
 20
-632.5949771930763
 30
0.0
 11
535.7784353741496
 21
-632.5949771930763
 31
0.0
  0
LINE
  5
238
330
4D
100
AcDbEntity
  8
0
  6
Continuous
 62
     3
100
AcDbLine
 10
535.7784353741496
 20
-636.9204232802117
 30
0.0
 11
573.051162646877
 21
-636.9204232802117
 31
0.0
  0
LINE
  5
239
330
4D
100
AcDbEntity
  8
0
  6
Continuous
 62
     1
100
AcDbLine
 10
573.051162646877
 20
-641.245869367347
 30
0.0
 11
573.051162646877
 21
-624.2458670921268
 31
0.0
  0
LINE
  5
23A
330
4D
100
AcDbEntity
  8
0
  6
Continuous
 62
     3
100
AcDbLine
 10
518.7784353741496
 20
-650.245869367347
 30
0.0
 11
518.7784353741496
 21
-607.245869367347
 31
0.0
  0
LINE
  5
23B
330
4D
100
AcDbEntity
  8
0
  6
Continuous
 62
     3
100
AcDbLine
 10
507.7784353741496
 20
-650.245869367347
 30
0.0
 11
507.7784353741496
 21
-607.245869367347
 31
0.0
  0
LINE
  5
23C
330
4D
100
AcDbEntity
  8
0
  6
Continuous
 62
     3
100
AcDbLine
 10
494.7784353741497
 20
-650.245869367347
 30
0.0
 11
494.7784353741497
 21
-607.245869367347
 31
0.0
  0
LINE
  5
23D
330
4D
100
AcDbEntity
  8
0
  6
Continuous
 62
     3
100
AcDbLine
 10
484.7784353741496
 20
-611.545872367347
 30
0.0
 11
535.7784353741496
 21
-611.545872367347
 31
0.0
  0
LINE
  5
23E
330
4D
100
AcDbEntity
  8
0
  6
Continuous
 62
     3
100
AcDbLine
 10
535.7784353741496
 20
-615.845875367347
 30
0.0
 11
484.7784353741496
 21
-615.845875367347
 31
0.0
  0
LINE
  5
23F
330
4D
100
AcDbEntity
  8
0
  6
Continuous
 62
     3
100
AcDbLine
 10
484.7784353741496
 20
-620.145878367347
 30
0.0
 11
535.7784353741496
 21
-620.145878367347
 31
0.0
  0
LINE
  5
240
330
4D
100
AcDbEntity
  8
0
  6
Continuous
 62
     3
100
AcDbLine
 10
535.7784353741496
 20
-624.445881367347
 30
0.0
 11
484.7784353741496
 21
-624.445881367347
 31
0.0
  0
LINE
  5
241
330
4D
100
AcDbEntity
  8
0
  6
Continuous
 62
     3
100
AcDbLine
 10
484.7784353741496
 20
-628.745869367347
 30
0.0
 11
535.7784353741496
 21
-628.745869367347
 31
0.0
  0
LINE
  5
242
330
4D
100
AcDbEntity
  8
0
  6
Continuous
 62
     3
100
AcDbLine
 10
535.7784353741496
 20
-633.045872367347
 30
0.0
 11
484.7784353741496
 21
-633.045872367347
 31
0.0
  0
LINE
  5
243
330
4D
100
AcDbEntity
  8
0
  6
Continuous
 62
     3
100
AcDbLine
 10
484.7784353741496
 20
-637.345875367347
 30
0.0
 11
535.7784353741496
 21
-637.345875367347
 31
0.0
  0
LINE
  5
244
330
4D
100
AcDbEntity
  8
0
  6
Continuous
 62
     3
100
AcDbLine
 10
535.7784353741496
 20
-641.645878367347
 30
0.0
 11
484.7784353741496
 21
-641.645878367347
 31
0.0
  0
LINE
  5
245
330
4D
100
AcDbEntity
  8
0
  6
Continuous
 62
     4
100
AcDbLine
 10
484.7784353741496
 20
-645.9458663673471
 30
0.0
 11
535.7784353741496
 21
-645.9458663673471
 31
0.0
  0
LINE
  5
246
330
4D
100
AcDbEntity
  8
1
  6
Continuous
 62
     1
100
AcDbLine
 10
599.7784353741496
 20
-641.245869367347
 30
0.0
 11
599.7784353741496
 21
-650.245869367347
 31
0.0
  0
LINE
  5
247
330
4D
100
AcDbEntity
  8
0
  6
Continuous
 62
     1
100
AcDbLine
 10
599.7784353741496
 20
-641.245869367347
 30
0.0
 11
535.7784353741496
 21
-641.245869367347
 31
0.0
  0
LINE
  5
248
330
4D
100
AcDbEntity
  8
1
  6
Continuous
 62
     3
100
AcDbLine
 10
586.7628001129732
 20
-627.9402582744657
 30
0.0
 11
586.7628001129732
 21
-627.6412427211591
 31
0.0
  0
LINE
  5
249
330
4D
100
AcDbEntity
  8
EBENE_1
  6
Continuous
 62
     3
100
AcDbLine
 10
588.0871568987798
 20
-629.1533309036993
 30
0.0
 11
588.0871568987798
 21
-628.8506513902252
 31
0.0
  0
LINE
  5
24A
330
4D
100
AcDbEntity
  8
EBENE_1
  6
Continuous
 62
     3
100
AcDbLine
 10
588.1448624140644
 20
-627.9405495767377
 30
0.0
 11
590.459471236284
 21
-627.9405495767377
 31
0.0
  0
LINE
  5
24B
330
4D
100
AcDbEntity
  8
EBENE_1
  6
Continuous
 62
     3
100
AcDbLine
 10
590.459471236284
 20
-627.9405495767377
 30
0.0
 11
590.459471236284
 21
-627.5020511459
 31
0.0
  0
LINE
  5
24C
330
4D
100
AcDbEntity
  8
EBENE_1
  6
Continuous
 62
     3
100
AcDbLine
 10
590.459471236284
 20
-627.5020511459
 30
0.0
 11
587.3802478039072
 21
-627.5020511459
 31
0.0
  0
LINE
  5
24D
330
4D
100
AcDbEntity
  8
EBENE_1
  6
Continuous
 62
     3
100
AcDbLine
 10
587.2425640051191
 20
-627.6397349446881
 30
0.0
 11
587.2425640051191
 21
-629.5381313303985
 31
0.0
  0
LINE
  5
24E
330
4D
100
AcDbEntity
  8
EBENE_1
  6
Continuous
 62
     3
100
AcDbLine
 10
587.3802478039072
 20
-629.6758151291866
 30
0.0
 11
590.459471236284
 21
-629.6758151291866
 31
0.0
  0
LINE
  5
24F
330
4D
100
AcDbEntity
  8
EBENE_1
  6
Continuous
 62
     3
100
AcDbLine
 10
590.459471236284
 20
-629.6758151291866
 30
0.0
 11
590.459471236284
 21
-629.2096741297162
 31
0.0
  0
LINE
  5
250
330
4D
100
AcDbEntity
  8
EBENE_1
  6
Continuous
 62
     3
100
AcDbLine
 10
590.459471236284
 20
-629.2096741297162
 30
0.0
 11
588.1448624140644
 21
-629.2096741297162
 31
0.0
  0
LINE
  5
251
330
4D
100
AcDbEntity
  8
EBENE_1
  6
Continuous
 62
     3
100
AcDbLine
 10
588.1448624140644
 20
-628.7943081642081
 30
0.0
 11
590.459471236284
 21
-628.7943081642081
 31
0.0
  0
LINE
  5
252
330
4D
100
AcDbEntity
  8
EBENE_1
  6
Continuous
 62
     3
100
AcDbLine
 10
590.459471236284
 20
-628.7943081642081
 30
0.0
 11
590.459471236284
 21
-628.3512864039579
 31
0.0
  0
LINE
  5
253
330
4D
100
AcDbEntity
  8
EBENE_1
  6
Continuous
 62
     3
100
AcDbLine
 10
590.459471236284
 20
-628.3512864039579
 30
0.0
 11
588.1448624140644
 21
-628.3512864039579
 31
0.0
  0
LINE
  5
254
330
4D
100
AcDbEntity
  8
EBENE_1
  6
Continuous
 62
     3
100
AcDbLine
 10
588.0871568987798
 20
-628.2949431779409
 30
0.0
 11
588.0871568987798
 21
-627.9968928027547
 31
0.0
  0
LINE
  5
255
330
4D
100
AcDbEntity
  8
EBENE_1
  6
Continuous
 62
     3
100
AcDbLine
 10
580.674650019647
 20
-629.1533309036993
 30
0.0
 11
580.674650019647
 21
-628.8506513902252
 31
0.0
  0
LINE
  5
256
330
4D
100
AcDbEntity
  8
1
  6
Continuous
 62
     3
100
AcDbLine
 10
576.7352004323062
 20
-629.6804574935837
 30
0.0
 11
578.7122392644713
 21
-629.6804574935837
 31
0.0
  0
LINE
  5
257
330
4D
100
AcDbEntity
  8
1
  6
Continuous
 62
     3
100
AcDbLine
 10
576.1267994001975
 20
-627.9715251249377
 30
0.0
 11
576.1267994001975
 21
-629.2109835145462
 31
0.0
  0
LINE
  5
258
330
4D
100
AcDbEntity
  8
1
  6
Continuous
 62
     3
100
AcDbLine
 10
576.9709293800295
 20
-628.0797808303248
 30
0.0
 11
576.9709293800295
 21
-629.063114241464
 31
0.0
  0
LINE
  5
259
330
4D
100
AcDbEntity
  8
1
  6
Continuous
 62
     3
100
AcDbLine
 10
577.11313650823
 20
-629.2011022407681
 30
0.0
 11
578.3914796594561
 21
-629.2011022407681
 31
0.0
  0
LINE
  5
25A
330
4D
100
AcDbEntity
  8
1
  6
Continuous
 62
     3
100
AcDbLine
 10
577.11313650823
 20
-627.9417928310206
 30
0.0
 11
578.3884641065143
 21
-627.9417928310206
 31
0.0
  0
LINE
  5
25B
330
4D
100
AcDbEntity
  8
1
  6
Continuous
 62
     3
100
AcDbLine
 10
591.1504825476655
 20
-630.0404721912794
 30
0.0
 11
575.4358013149255
 21
-630.0404721912794
 31
0.0
  0
LINE
  5
25C
330
4D
100
AcDbEntity
  8
EBENE_1
  6
Continuous
 62
     3
100
AcDbLine
 10
575.0500750605687
 20
-626.7174386583397
 30
0.0
 11
591.5362088020223
 21
-626.7174386583397
 31
0.0
  0
LINE
  5
25D
330
4D
100
AcDbEntity
  8
EBENE_1
  6
Continuous
 62
     3
100
AcDbLine
 10
592.1454430790227
 20
-627.1882220222072
 30
0.0
 11
592.1454430790227
 21
-629.9942866172767
 31
0.0
  0
LINE
  5
25E
330
4D
100
AcDbEntity
  8
EBENE_1
  6
Continuous
 62
     3
100
AcDbLine
 10
591.5362088020223
 20
-630.4650699811442
 30
0.0
 11
575.0500750605687
 21
-630.4650699811442
 31
0.0
  0
LINE
  5
25F
330
4D
100
AcDbEntity
  8
EBENE_1
  6
Continuous
 62
     3
100
AcDbLine
 10
574.4408407835682
 20
-629.9942866172767
 30
0.0
 11
574.4408407835682
 21
-627.1882220222072
 31
0.0
  0
LINE
  5
260
330
4D
100
AcDbEntity
  8
EBENE_1
  6
Continuous
 62
     3
100
AcDbLine
 10
591.2870024488269
 20
-629.9039522901179
 30
0.0
 11
591.2870024488269
 21
-627.2785563493659
 31
0.0
  0
LINE
  5
261
330
4D
100
AcDbEntity
  8
EBENE_1
  6
Continuous
 62
     3
100
AcDbLine
 10
591.1504825476655
 20
-627.1420364482045
 30
0.0
 11
575.4358013149255
 21
-627.1420364482045
 31
0.0
  0
LINE
  5
262
330
4D
100
AcDbEntity
  8
EBENE_1
  6
Continuous
 62
     3
100
AcDbLine
 10
575.2992814137641
 20
-627.2785563493659
 30
0.0
 11
575.2992814137641
 21
-629.9039522901179
 31
0.0
  0
LINE
  5
263
330
4D
100
AcDbEntity
  8
EBENE_1
  6
Continuous
 62
     3
100
AcDbLine
 10
577.7145012501413
 20
-628.7943081642081
 30
0.0
 11
578.4681381895017
 21
-628.7943081642081
 31
0.0
  0
LINE
  5
264
330
4D
100
AcDbEntity
  8
EBENE_1
  6
Continuous
 62
     3
100
AcDbLine
 10
578.5267695324438
 20
-628.0791988815115
 30
0.0
 11
578.5267695324438
 21
-628.159243295562
 31
0.0
  0
LINE
  5
265
330
4D
100
AcDbEntity
  8
EBENE_1
  6
Continuous
 62
     3
100
AcDbLine
 10
578.5267695324438
 20
-628.159243295562
 30
0.0
 11
579.3206402965799
 21
-628.159243295562
 31
0.0
  0
LINE
  5
266
330
4D
100
AcDbEntity
  8
EBENE_1
  6
Continuous
 62
     3
100
AcDbLine
 10
579.3206402965799
 20
-628.159243295562
 30
0.0
 11
579.3206402965799
 21
-627.9715251249377
 31
0.0
  0
LINE
  5
267
330
4D
100
AcDbEntity
  8
EBENE_1
  6
Continuous
 62
     3
100
AcDbLine
 10
578.7122392644713
 20
-627.5020511459
 30
0.0
 11
576.7352004323062
 21
-627.5020511459
 31
0.0
  0
LINE
  5
268
330
4D
100
AcDbEntity
  8
EBENE_1
  6
Continuous
 62
     3
100
AcDbLine
 10
579.3206402965799
 20
-629.2109835145462
 30
0.0
 11
579.3206402965799
 21
-628.3512864039579
 31
0.0
  0
LINE
  5
269
330
4D
100
AcDbEntity
  8
EBENE_1
  6
Continuous
 62
     3
100
AcDbLine
 10
579.3206402965799
 20
-628.3512864039579
 30
0.0
 11
577.7145012501413
 21
-628.3512864039579
 31
0.0
  0
LINE
  5
26A
330
4D
100
AcDbEntity
  8
EBENE_1
  6
Continuous
 62
     3
100
AcDbLine
 10
577.7145012501413
 20
-628.3512864039579
 30
0.0
 11
577.7145012501413
 21
-628.7943081642081
 31
0.0
  0
LINE
  5
26B
330
4D
100
AcDbEntity
  8
EBENE_1
  6
Continuous
 62
     3
100
AcDbLine
 10
580.7323555349315
 20
-627.9405495767377
 30
0.0
 11
583.0469643571512
 21
-627.9405495767377
 31
0.0
  0
LINE
  5
26C
330
4D
100
AcDbEntity
  8
EBENE_1
  6
Continuous
 62
     3
100
AcDbLine
 10
583.0469643571512
 20
-627.9405495767377
 30
0.0
 11
583.0469643571512
 21
-627.5020511459
 31
0.0
  0
LINE
  5
26D
330
4D
100
AcDbEntity
  8
EBENE_1
  6
Continuous
 62
     3
100
AcDbLine
 10
583.0469643571512
 20
-627.5020511459
 30
0.0
 11
579.9677409247744
 21
-627.5020511459
 31
0.0
  0
LINE
  5
26E
330
4D
100
AcDbEntity
  8
EBENE_1
  6
Continuous
 62
     3
100
AcDbLine
 10
579.8300571259863
 20
-627.6397349446881
 30
0.0
 11
579.8300571259863
 21
-629.5381313303985
 31
0.0
  0
LINE
  5
26F
330
4D
100
AcDbEntity
  8
EBENE_1
  6
Continuous
 62
     3
100
AcDbLine
 10
579.9677409247744
 20
-629.6758151291866
 30
0.0
 11
583.0469643571512
 21
-629.6758151291866
 31
0.0
  0
LINE
  5
270
330
4D
100
AcDbEntity
  8
EBENE_1
  6
Continuous
 62
     3
100
AcDbLine
 10
583.0469643571512
 20
-629.6758151291866
 30
0.0
 11
583.0469643571512
 21
-629.2096741297162
 31
0.0
  0
LINE
  5
271
330
4D
100
AcDbEntity
  8
EBENE_1
  6
Continuous
 62
     3
100
AcDbLine
 10
583.0469643571512
 20
-629.2096741297162
 30
0.0
 11
580.7323555349315
 21
-629.2096741297162
 31
0.0
  0
LINE
  5
272
330
4D
100
AcDbEntity
  8
EBENE_1
  6
Continuous
 62
     3
100
AcDbLine
 10
580.7323555349315
 20
-628.7943081642081
 30
0.0
 11
583.0469643571512
 21
-628.7943081642081
 31
0.0
  0
LINE
  5
273
330
4D
100
AcDbEntity
  8
EBENE_1
  6
Continuous
 62
     3
100
AcDbLine
 10
583.0469643571512
 20
-628.7943081642081
 30
0.0
 11
583.0469643571512
 21
-628.3512864039579
 31
0.0
  0
LINE
  5
274
330
4D
100
AcDbEntity
  8
EBENE_1
  6
Continuous
 62
     3
100
AcDbLine
 10
583.0469643571512
 20
-628.3512864039579
 30
0.0
 11
580.7323555349315
 21
-628.3512864039579
 31
0.0
  0
LINE
  5
275
330
4D
100
AcDbEntity
  8
EBENE_1
  6
Continuous
 62
     3
100
AcDbLine
 10
580.674650019647
 20
-628.2949431779409
 30
0.0
 11
580.674650019647
 21
-627.9968928027547
 31
0.0
  0
LINE
  5
276
330
4D
100
AcDbEntity
  8
EBENE_1
  6
Continuous
 62
     3
100
AcDbLine
 10
583.568522754981
 20
-627.5597434350752
 30
0.0
 11
583.568522754981
 21
-627.8828572875625
 31
0.0
  0
LINE
  5
277
330
4D
100
AcDbEntity
  8
EBENE_1
  6
Continuous
 62
     3
100
AcDbLine
 10
583.6262150441562
 20
-627.9405495767377
 30
0.0
 11
585.5069810260449
 21
-627.9405495767377
 31
0.0
  0
LINE
  5
278
330
4D
100
AcDbEntity
  8
EBENE_1
  6
Continuous
 62
     3
100
AcDbLine
 10
585.5069810260449
 20
-627.9405495767377
 30
0.0
 11
583.568522754981
 21
-629.2096741297162
 31
0.0
  0
LINE
  5
279
330
4D
100
AcDbEntity
  8
EBENE_1
  6
Continuous
 62
     3
100
AcDbLine
 10
583.568522754981
 20
-629.2096741297162
 30
0.0
 11
583.568522754981
 21
-629.6189031804656
 31
0.0
  0
LINE
  5
27A
330
4D
100
AcDbEntity
  8
EBENE_1
  6
Continuous
 62
     3
100
AcDbLine
 10
583.6262150441562
 20
-629.6764499824375
 30
0.0
 11
586.7051078237981
 21
-629.6764499824375
 31
0.0
  0
LINE
  5
27B
330
4D
100
AcDbEntity
  8
EBENE_1
  6
Continuous
 62
     3
100
AcDbLine
 10
586.7628001129732
 20
-629.6189031804656
 30
0.0
 11
586.7628001129732
 21
-629.267220931688
 31
0.0
  0
LINE
  5
27C
330
4D
100
AcDbEntity
  8
EBENE_1
  6
Continuous
 62
     3
100
AcDbLine
 10
586.7051078237981
 20
-629.2096741297162
 30
0.0
 11
584.8608194516172
 21
-629.2096741297162
 31
0.0
  0
LINE
  5
27D
330
4D
100
AcDbEntity
  8
EBENE_1
  6
Continuous
 62
     3
100
AcDbLine
 10
584.8608194516172
 20
-629.2096741297162
 30
0.0
 11
586.7628001129732
 21
-627.9402582744657
 31
0.0
  0
LINE
  5
27E
330
4D
100
AcDbEntity
  8
EBENE_1
  6
Continuous
 62
     3
100
AcDbLine
 10
586.6276689532982
 20
-627.5020511459
 30
0.0
 11
583.6262150441562
 21
-627.5020511459
 31
0.0
  0
LINE
  5
27F
330
4D
100
AcDbEntity
  8
1
  6
Continuous
 62
     3
100
AcDbLine
 10
578.5276027773357
 20
-628.8524260652422
 30
0.0
 11
578.5276027773357
 21
-629.064159104106
 31
0.0
  0
LINE
  5
280
330
4D
100
AcDbEntity
  8
0
  6
Continuous
 62
     2
100
AcDbLine
 10
443.7784353741496
 20
-650.245869367347
 30
0.0
 11
83.7784353741496
 21
-650.245869367347
 31
0.0
  0
LINE
  5
281
330
4D
100
AcDbEntity
  8
0
  6
Continuous
 62
     3
100
AcDbLine
 10
443.7784353741496
 20
-645.245869367347
 30
0.0
 11
167.7576230932706
 21
-645.245869367347
 31
0.0
  0
LINE
  5
282
330
4D
100
AcDbEntity
  8
1
  6
Continuous
 62
     3
100
AcDbLine
 10
443.7784353741496
 20
-645.245869367347
 30
0.0
 11
443.7784353741496
 21
-650.245869367347
 31
0.0
  0
LINE
  5
283
330
4D
100
AcDbEntity
  8
0
  6
Continuous
 62
     2
100
AcDbLine
 10
484.7784353741496
 20
-650.245869367347
 30
0.0
 11
443.7784353741496
 21
-650.245869367347
 31
0.0
  0
LINE
  5
284
330
4D
100
AcDbEntity
  8
0
  6
Continuous
 62
     2
100
AcDbLine
 10
667.7784353741496
 20
-580.245869367347
 30
0.0
 11
667.7784353741496
 21
-650.245869367347
 31
0.0
  0
LINE
  5
285
330
4D
100
AcDbEntity
  8
0
  6
Continuous
 62
     3
100
AcDbLine
 10
662.7784353741496
 20
-580.245869367347
 30
0.0
 11
662.7784353741496
 21
-245.245869367347
 31
0.0
  0
LINE
  5
286
330
4D
100
AcDbEntity
  8
1
  6
Continuous
 62
     3
100
AcDbLine
 10
662.7784353741496
 20
-580.245869367347
 30
0.0
 11
667.7784353741496
 21
-580.245869367347
 31
0.0
  0
LINE
  5
287
330
4D
100
AcDbEntity
  8
0
  6
Continuous
 62
     3
100
AcDbLine
 10
484.7784353741496
 20
-645.245869367347
 30
0.0
 11
443.7784353741496
 21
-645.245869367347
 31
0.0
  0
LINE
  5
288
330
4D
100
AcDbEntity
  8
0
  6
Continuous
 62
     3
100
AcDbLine
 10
83.7784353741496
 20
-308.245869367347
 30
0.0
 11
88.7784353741496
 21
-308.245869367347
 31
0.0
  0
LINE
  5
289
330
4D
100
AcDbEntity
  8
0
  6
Continuous
 62
     3
100
AcDbLine
 10
88.7784353741496
 20
-376.245869367347
 30
0.0
 11
83.7784353741496
 21
-376.245869367347
 31
0.0
  0
LINE
  5
28A
330
4D
100
AcDbEntity
  8
0
  6
Continuous
 62
     3
100
AcDbLine
 10
83.7784353741496
 20
-444.245869367347
 30
0.0
 11
88.7784353741496
 21
-444.245869367347
 31
0.0
  0
LINE
  5
28B
330
4D
100
AcDbEntity
  8
0
  6
Continuous
 62
     3
100
AcDbLine
 10
88.7784353741496
 20
-512.245869367347
 30
0.0
 11
83.7784353741496
 21
-512.245869367347
 31
0.0
  0
LINE
  5
28C
330
4D
100
AcDbEntity
  8
0
  6
Continuous
 62
     3
100
AcDbLine
 10
83.7784353741496
 20
-580.245869367347
 30
0.0
 11
88.7784353741496
 21
-580.245869367347
 31
0.0
  0
LINE
  5
28D
330
4D
100
AcDbEntity
  8
0
  6
Continuous
 62
     3
100
AcDbLine
 10
662.7784353741496
 20
-308.245869367347
 30
0.0
 11
667.7784353741496
 21
-308.245869367347
 31
0.0
  0
LINE
  5
28E
330
4D
100
AcDbEntity
  8
0
  6
Continuous
 62
     3
100
AcDbLine
 10
662.7784353741496
 20
-376.245869367347
 30
0.0
 11
667.7784353741496
 21
-376.245869367347
 31
0.0
  0
LINE
  5
28F
330
4D
100
AcDbEntity
  8
0
  6
Continuous
 62
     3
100
AcDbLine
 10
662.7784353741496
 20
-444.245869367347
 30
0.0
 11
667.7784353741496
 21
-444.245869367347
 31
0.0
  0
LINE
  5
290
330
4D
100
AcDbEntity
  8
0
  6
Continuous
 62
     3
100
AcDbLine
 10
662.7784353741496
 20
-512.245869367347
 30
0.0
 11
667.7784353741496
 21
-512.245869367347
 31
0.0
  0
LINE
  5
291
330
4D
100
AcDbEntity
  8
0
  6
Continuous
 62
     3
100
AcDbLine
 10
156.7784353741496
 20
-240.245869367347
 30
0.0
 11
151.7784353741496
 21
-240.245869367347
 31
0.0
  0
LINE
  5
292
330
4D
100
AcDbEntity
  8
0
  6
Continuous
 62
     3
100
AcDbLine
 10
151.7784353741496
 20
-240.245869367347
 30
0.0
 11
151.7784353741496
 21
-245.245869367347
 31
0.0
  0
LINE
  5
293
330
4D
100
AcDbEntity
  8
0
  6
Continuous
 62
     3
100
AcDbLine
 10
224.7784353741496
 20
-245.245869367347
 30
0.0
 11
224.7784353741496
 21
-240.245869367347
 31
0.0
  0
LINE
  5
294
330
4D
100
AcDbEntity
  8
0
  6
Continuous
 62
     3
100
AcDbLine
 10
297.7784353741496
 20
-240.245869367347
 30
0.0
 11
297.7784353741496
 21
-245.245869367347
 31
0.0
  0
LINE
  5
295
330
4D
100
AcDbEntity
  8
0
  6
Continuous
 62
     3
100
AcDbLine
 10
370.7784353741496
 20
-245.245869367347
 30
0.0
 11
370.7784353741496
 21
-240.245869367347
 31
0.0
  0
LINE
  5
296
330
4D
100
AcDbEntity
  8
0
  6
Continuous
 62
     3
100
AcDbLine
 10
443.7784353741496
 20
-240.245869367347
 30
0.0
 11
443.7784353741496
 21
-245.245869367347
 31
0.0
  0
LINE
  5
297
330
4D
100
AcDbEntity
  8
0
  6
Continuous
 62
     3
100
AcDbLine
 10
516.7784353741496
 20
-245.245869367347
 30
0.0
 11
516.7784353741496
 21
-240.245869367347
 31
0.0
  0
LINE
  5
298
330
4D
100
AcDbEntity
  8
0
  6
Continuous
 62
     3
100
AcDbLine
 10
589.7784353741496
 20
-240.245869367347
 30
0.0
 11
589.7784353741496
 21
-245.245869367347
 31
0.0
  0
LINE
  5
299
330
4D
100
AcDbEntity
  8
0
  6
Continuous
 62
     3
100
AcDbLine
 10
224.7784353741496
 20
-645.245869367347
 30
0.0
 11
224.7784353741496
 21
-650.245869367347
 31
0.0
  0
LINE
  5
29A
330
4D
100
AcDbEntity
  8
0
  6
Continuous
 62
     3
100
AcDbLine
 10
297.7784353741496
 20
-645.245869367347
 30
0.0
 11
297.7784353741496
 21
-650.245869367347
 31
0.0
  0
LINE
  5
29B
330
4D
100
AcDbEntity
  8
0
  6
Continuous
 62
     3
100
AcDbLine
 10
370.7784353741496
 20
-645.245869367347
 30
0.0
 11
370.7784353741496
 21
-650.245869367347
 31
0.0
  0
LINE
  5
29C
330
4D
100
AcDbEntity
  8
0
  6
Continuous
 62
     2
100
AcDbLine
 10
83.7784353741496
 20
-650.245869367347
 30
0.0
 11
83.7784353741496
 21
-240.245869367347
 31
0.0
  0
LINE
  5
29D
330
4D
100
AcDbEntity
  8
0
  6
Continuous
 62
     2
100
AcDbLine
 10
83.7784353741496
 20
-240.245869367347
 30
0.0
 11
667.7784353741496
 21
-240.245869367347
 31
0.0
  0
LINE
  5
29E
330
4D
100
AcDbEntity
  8
0
  6
Continuous
 62
     2
100
AcDbLine
 10
667.7784353741496
 20
-240.245869367347
 30
0.0
 11
667.7784353741496
 21
-580.245869367347
 31
0.0
  0
LINE
  5
29F
330
4D
100
AcDbEntity
  8
0
  6
Continuous
 62
     3
100
AcDbLine
 10
662.7784353741496
 20
-607.245869367347
 30
0.0
 11
662.7784353741496
 21
-580.245869367347
 31
0.0
  0
LINE
  5
2A0
330
4D
100
AcDbEntity
  8
0
  6
Continuous
 62
     3
100
AcDbLine
 10
662.7784353741496
 20
-245.245869367347
 30
0.0
 11
88.7784353741496
 21
-245.245869367347
 31
0.0
  0
LINE
  5
2A1
330
4D
100
AcDbEntity
  8
0
  6
Continuous
 62
     3
100
AcDbLine
 10
88.7784353741496
 20
-245.245869367347
 30
0.0
 11
88.7784353741496
 21
-629.245869367347
 31
0.0
  0
LINE
  5
2A2
330
4D
100
AcDbEntity
  8
0
  6
Continuous
 62
     3
100
AcDbLine
 10
98.7784353741496
 20
-629.245869367347
 30
0.0
 11
98.7784353741496
 21
-358.245869367347
 31
0.0
  0
LINE
  5
2A3
330
4D
100
AcDbEntity
  8
0
  6
Continuous
 62
     3
100
AcDbLine
 10
98.7784353741496
 20
-358.245869367347
 30
0.0
 11
88.7784353741496
 21
-358.245869367347
 31
0.0
  0
ARC
  5
2A4
330
4D
100
AcDbEntity
  8
1
  6
Continuous
 62
     3
100
AcDbCircle
 10
586.7051805673998
 20
-629.2672936752897
 30
0.0
 40
0.0576195914921042
100
AcDbArc
 50
0.07233481461991
 51
90.07233481461977
  0
ARC
  5
2A5
330
4D
100
AcDbEntity
  8
1
  6
Continuous
 62
     3
100
AcDbCircle
 10
586.7051805673998
 20
-629.618830436864
 30
0.0
 40
0.0576195914922179
100
AcDbArc
 50
-90.07233481461977
 51
-0.07233481461991
  0
ARC
  5
2A6
330
4D
100
AcDbEntity
  8
1
  6
Continuous
 62
     3
100
AcDbCircle
 10
583.6261423005545
 20
-629.618830436864
 30
0.0
 40
0.0576195914922179
100
AcDbArc
 50
-179.9276651853802
 51
-89.92766518538023
  0
ARC
  5
2A7
330
4D
100
AcDbEntity
  8
1
  6
Continuous
 62
     3
100
AcDbCircle
 10
583.6262150441562
 20
-627.8828572875625
 30
0.0
 40
0.0576922891751792
100
AcDbArc
 50
180.0
 51
-90.0
  0
ARC
  5
2A8
330
4D
100
AcDbEntity
  8
1
  6
Continuous
 62
     3
100
AcDbCircle
 10
583.6262150441562
 20
-627.5597434350752
 30
0.0
 40
0.0576922891751792
100
AcDbArc
 50
90.0
 51
180.0
  0
ARC
  5
2A9
330
4D
100
AcDbEntity
  8
1
  6
Continuous
 62
     3
100
AcDbCircle
 10
588.1440559015911
 20
-629.1527781580993
 30
0.0
 40
0.0569016875726698
100
AcDbArc
 50
-179.4434174191885
 51
-89.1878745572224
  0
ARC
  5
2AA
330
4D
100
AcDbEntity
  8
1
  6
Continuous
 62
     3
100
AcDbCircle
 10
588.1440559015911
 20
-628.8512041358251
 30
0.0
 40
0.0569016875726161
100
AcDbArc
 50
89.18787455722402
 51
179.4434174191885
  0
ARC
  5
2AB
330
4D
100
AcDbEntity
  8
1
  6
Continuous
 62
     3
100
AcDbCircle
 10
588.1440559015911
 20
-627.9974455483546
 30
0.0
 40
0.0569016875725025
100
AcDbArc
 50
89.1878745572224
 51
179.443417419303
  0
ARC
  5
2AC
330
4D
100
AcDbEntity
  8
1
  6
Continuous
 62
     3
100
AcDbCircle
 10
588.1440559015911
 20
-628.2943904323411
 30
0.0
 40
0.0569016875726687
100
AcDbArc
 50
-179.443417419303
 51
-89.1878745572224
  0
ARC
  5
2AD
330
4D
100
AcDbEntity
  8
1
  6
Continuous
 62
     3
100
AcDbCircle
 10
580.7315490224581
 20
-629.1527781580993
 30
0.0
 40
0.0569016875725561
100
AcDbArc
 50
-179.4434174191875
 51
-89.1878745572224
  0
ARC
  5
2AE
330
4D
100
AcDbEntity
  8
1
  6
Continuous
 62
     3
100
AcDbCircle
 10
580.7315490224581
 20
-628.8512041358251
 30
0.0
 40
0.0569016875726161
100
AcDbArc
 50
89.18787455722402
 51
179.4434174191875
  0
ARC
  5
2AF
330
4D
100
AcDbEntity
  8
1
  6
Continuous
 62
     3
100
AcDbCircle
 10
580.7315490224581
 20
-627.9974455483546
 30
0.0
 40
0.0569016875725025
100
AcDbArc
 50
89.1878745572224
 51
179.4434174193019
  0
ARC
  5
2B0
330
4D
100
AcDbEntity
  8
1
  6
Continuous
 62
     3
100
AcDbCircle
 10
580.7315490224581
 20
-628.2943904323411
 30
0.0
 40
0.056901687572555
100
AcDbArc
 50
-179.4434174193019
 51
-89.1878745572224
  0
ARC
  5
2B1
330
4D
100
AcDbEntity
  8
1
  6
Continuous
 62
     3
100
AcDbCircle
 10
578.4681381895017
 20
-628.8537883545097
 30
0.0
 40
0.0594801903015968
100
AcDbArc
 50
1.31237392904474
 51
90.0
  0
ARC
  5
2B2
330
4D
100
AcDbEntity
  8
1
  6
Continuous
 62
     3
100
AcDbCircle
 10
591.1504825476655
 20
-629.9039522901179
 30
0.0
 40
0.1365199011614777
100
AcDbArc
 50
-90.0
 51
0.0
  0
ARC
  5
2B3
330
4D
100
AcDbEntity
  8
1
  6
Continuous
 62
     3
100
AcDbCircle
 10
591.1504825476655
 20
-627.2785563493659
 30
0.0
 40
0.136519901161364
100
AcDbArc
 50
0.0
 51
90.0
  0
ARC
  5
2B4
330
4D
100
AcDbEntity
  8
1
  6
Continuous
 62
     3
100
AcDbCircle
 10
575.4358013149255
 20
-629.9039522901179
 30
0.0
 40
0.136519901161364
100
AcDbArc
 50
180.0
 51
-90.0
  0
ARC
  5
2B5
330
4D
100
AcDbEntity
  8
1
  6
Continuous
 62
     3
100
AcDbCircle
 10
575.4358013149255
 20
-627.2785563493659
 30
0.0
 40
0.136519901161364
100
AcDbArc
 50
90.0
 51
180.0
  0
SPLINE
  5
2B6
330
4D
100
AcDbEntity
  8
1
  6
Continuous
 62
     3
100
AcDbSpline
210
0.0
220
0.0
230
1.0
 70
     8
 71
     3
 72
    13
 73
     9
 74
     7
 42
0.0000000001
 43
0.0000000001
 44
0.00000001
 40
0.0
 40
0.0
 40
0.0
 40
0.0
 40
0.0353323702702965
 40
0.0704203827951193
 40
0.1027084056750169
 40
0.1352293371688045
 40
0.174011121577016
 40
0.212528743876936
 40
0.212528743876936
 40
0.212528743876936
 40
0.212528743876936
 10
586.7628001129732
 20
-627.6412427211591
 30
0.0
 10
586.7619139188265
 20
-627.629420815756
 30
0.0
 10
586.7601476594285
 20
-627.6058587649372
 30
0.0
 10
586.7456915267537
 20
-627.574092281531
 30
0.0
 10
586.7250038003717
 20
-627.5477208726057
 30
0.0
 10
586.6987462427144
 20
-627.5252119371637
 30
0.0
 10
586.6664528134052
 20
-627.5062437572606
 30
0.0
 10
586.6405674198513
 20
-627.5034454954377
 30
0.0
 10
586.6276689532982
 20
-627.5020511459
 30
0.0
 11
586.7628001129732
 21
-627.6412427211591
 31
0.0
 11
586.7580910344333
 21
-627.6062255686732
 31
0.0
 11
586.7440851681812
 21
-627.5740540854392
 31
0.0
 11
586.7243059112628
 21
-627.5485335561099
 31
0.0
 11
586.6997312522195
 21
-627.5272333890183
 31
0.0
 11
586.6655809924056
 21
-627.5088544185214
 31
0.0
 11
586.6276689532982
 21
-627.5020511459
 31
0.0
  0
SPLINE
  5
2B7
330
4D
100
AcDbEntity
  8
1
  6
Continuous
 62
     3
100
AcDbSpline
210
0.0
220
0.0
230
1.0
 70
     8
 71
     3
 72
    13
 73
     9
 74
     7
 42
0.0000000001
 43
0.0000000001
 44
0.00000001
 40
0.0
 40
0.0
 40
0.0
 40
0.0
 40
0.0381152522464984
 40
0.0763355512009477
 40
0.1127548768761978
 40
0.1486421571413645
 40
0.1827729054943233
 40
0.2174479487763286
 40
0.2174479487763286
 40
0.2174479487763286
 40
0.2174479487763286
 10
587.3802478039072
 20
-629.6758151291866
 30
0.0
 10
587.3674958854668
 20
-629.6748469560142
 30
0.0
 10
587.3419569039395
 20
-629.6729079413565
 30
0.0
 10
587.307081570282
 20
-629.6571469038513
 30
0.0
 10
587.2775316715525
 20
-629.6347882732907
 30
0.0
 10
587.2552279502465
 20
-629.6064298581556
 30
0.0
 10
587.2439293249845
 20
-629.5726995526638
 30
0.0
 10
587.2430215055391
 20
-629.549714679182
 30
0.0
 10
587.2425640051191
 20
-629.5381313303985
 30
0.0
 11
587.3802478039072
 21
-629.6758151291866
 31
0.0
 11
587.3424727792973
 21
-629.670733793778
 31
0.0
 11
587.3073454889292
 21
-629.65567176458
 31
0.0
 11
587.2784498168733
 21
-629.6335040533974
 31
0.0
 11
587.2567291682798
 21
-629.6049364089458
 31
0.0
 11
587.2455918380589
 21
-629.5726739251809
 31
0.0
 11
587.2425640051191
 21
-629.5381313303985
 31
0.0
  0
SPLINE
  5
2B8
330
4D
100
AcDbEntity
  8
1
  6
Continuous
 62
     3
100
AcDbSpline
210
0.0
220
0.0
230
1.0
 70
     8
 71
     3
 72
    13
 73
     9
 74
     7
 42
0.0000000001
 43
0.0000000001
 44
0.00000001
 40
0.0
 40
0.0
 40
0.0
 40
0.0
 40
0.0381152522464833
 40
0.0763355512009325
 40
0.1127548768762518
 40
0.1486421571414185
 40
0.1827729054945922
 40
0.2174479487763711
 40
0.2174479487763711
 40
0.2174479487763711
 40
0.2174479487763711
 10
587.3802478039072
 20
-627.5020511459
 30
0.0
 10
587.3674958854667
 20
-627.5030193190726
 30
0.0
 10
587.3419569039397
 20
-627.5049583337302
 30
0.0
 10
587.3070815702819
 20
-627.520719371235
 30
0.0
 10
587.2775316715525
 20
-627.5430780017962
 30
0.0
 10
587.2552279502464
 20
-627.571436416931
 30
0.0
 10
587.2439293249845
 20
-627.6051667224231
 30
0.0
 10
587.243021505539
 20
-627.6281515959049
 30
0.0
 10
587.2425640051191
 20
-627.6397349446881
 30
0.0
 11
587.3802478039072
 21
-627.5020511459
 31
0.0
 11
587.3424727792973
 21
-627.5071324813085
 31
0.0
 11
587.3073454889292
 21
-627.5221945105066
 31
0.0
 11
587.2784498168733
 21
-627.5443622216893
 31
0.0
 11
587.2567291682798
 21
-627.5729298661408
 31
0.0
 11
587.2455918380589
 21
-627.605192349906
 31
0.0
 11
587.2425640051191
 21
-627.6397349446881
 31
0.0
  0
SPLINE
  5
2B9
330
4D
100
AcDbEntity
  8
1
  6
Continuous
 62
     3
100
AcDbSpline
210
0.0
220
0.0
230
1.0
 70
     8
 71
     3
 72
    13
 73
     9
 74
     7
 42
0.0000000001
 43
0.0000000001
 44
0.00000001
 40
0.0
 40
0.0
 40
0.0
 40
0.0
 40
0.0381152522464984
 40
0.0763355512009477
 40
0.1127548768761076
 40
0.1486421571414119
 40
0.1827729054942965
 40
0.2174479487763117
 40
0.2174479487763117
 40
0.2174479487763117
 40
0.2174479487763117
 10
579.9677409247744
 20
-629.6758151291866
 30
0.0
 10
579.954989006334
 20
-629.6748469560142
 30
0.0
 10
579.9294500248067
 20
-629.6729079413565
 30
0.0
 10
579.8945746911493
 20
-629.6571469038515
 30
0.0
 10
579.8650247924197
 20
-629.6347882732906
 30
0.0
 10
579.8427210711135
 20
-629.6064298581557
 30
0.0
 10
579.8314224458518
 20
-629.5726995526636
 30
0.0
 10
579.830514626406
 20
-629.5497146791816
 30
0.0
 10
579.8300571259863
 20
-629.5381313303985
 30
0.0
 11
579.9677409247744
 21
-629.6758151291866
 31
0.0
 11
579.9299659001645
 21
-629.670733793778
 31
0.0
 11
579.8948386097964
 21
-629.65567176458
 31
0.0
 11
579.8659429377406
 21
-629.6335040533974
 31
0.0
 11
579.8442222891468
 21
-629.6049364089458
 31
0.0
 11
579.8330849589262
 21
-629.5726739251809
 31
0.0
 11
579.8300571259863
 21
-629.5381313303985
 31
0.0
  0
SPLINE
  5
2BA
330
4D
100
AcDbEntity
  8
1
  6
Continuous
 62
     3
100
AcDbSpline
210
0.0
220
0.0
230
1.0
 70
     8
 71
     3
 72
    13
 73
     9
 74
     7
 42
0.0000000001
 43
0.0000000001
 44
0.00000001
 40
0.0
 40
0.0
 40
0.0
 40
0.0
 40
0.0381152522464833
 40
0.0763355512009325
 40
0.1127548768761616
 40
0.1486421571414659
 40
0.1827729054945655
 40
0.2174479487763542
 40
0.2174479487763542
 40
0.2174479487763542
 40
0.2174479487763542
 10
579.9677409247744
 20
-627.5020511459
 30
0.0
 10
579.954989006334
 20
-627.5030193190726
 30
0.0
 10
579.9294500248069
 20
-627.5049583337302
 30
0.0
 10
579.894574691149
 20
-627.520719371235
 30
0.0
 10
579.86502479242
 20
-627.5430780017964
 30
0.0
 10
579.8427210711134
 20
-627.5714364169307
 30
0.0
 10
579.831422445852
 20
-627.6051667224232
 30
0.0
 10
579.8305146264063
 20
-627.628151595905
 30
0.0
 10
579.8300571259863
 20
-627.6397349446881
 30
0.0
 11
579.9677409247744
 21
-627.5020511459
 31
0.0
 11
579.9299659001645
 21
-627.5071324813085
 31
0.0
 11
579.8948386097964
 21
-627.5221945105066
 31
0.0
 11
579.8659429377406
 21
-627.5443622216893
 31
0.0
 11
579.8442222891468
 21
-627.5729298661408
 31
0.0
 11
579.8330849589262
 21
-627.605192349906
 31
0.0
 11
579.8300571259863
 21
-627.6397349446881
 31
0.0
  0
SPLINE
  5
2BB
330
4D
100
AcDbEntity
  8
1
  6
Continuous
 62
     3
100
AcDbSpline
210
0.0
220
0.0
230
1.0
 70
     8
 71
     3
 72
    13
 73
     9
 74
     7
 42
0.0000000001
 43
0.0000000001
 44
0.00000001
 40
0.0
 40
0.0
 40
0.0
 40
0.0
 40
0.0303249383642202
 40
0.060441785117612
 40
0.0959479298119443
 40
0.1315593707300917
 40
0.1736623627999451
 40
0.2160932553485836
 40
0.2160932553485836
 40
0.2160932553485836
 40
0.2160932553485836
 10
578.5267695324438
 20
-628.0791988815115
 30
0.0
 10
578.5260963533128
 20
-628.0690596927816
 30
0.0
 10
578.5247546144475
 20
-628.0488508910644
 30
0.0
 10
578.5130532534946
 20
-628.0186601773303
 30
0.0
 10
578.4950273012691
 20
-627.9899056443955
 30
0.0
 10
578.467922408898
 20
-627.9630722030424
 30
0.0
 10
578.4309619115752
 20
-627.9448987592755
 30
0.0
 10
578.4026666266174
 20
-627.9428308142392
 30
0.0
 10
578.3884641065143
 20
-627.9417928310206
 30
0.0
 11
578.5267695324438
 21
-628.0791988815115
 31
0.0
 11
578.5232322332729
 21
-628.0490809565935
 31
0.0
 11
578.5129350220182
 21
-628.0207791563196
 31
0.0
 11
578.4939587333018
 21
-627.9907693782862
 31
0.0
 11
578.4683630333616
 21
-627.9660098373205
 31
0.0
 11
578.4304947189164
 21
-627.9476073184082
 31
0.0
 11
578.3884641065143
 21
-627.9417928310206
 31
0.0
  0
SPLINE
  5
2BC
330
4D
100
AcDbEntity
  8
1
  6
Continuous
 62
     3
100
AcDbSpline
210
0.0
220
0.0
230
1.0
 70
     8
 71
     3
 72
    13
 73
     9
 74
     7
 42
0.0000000001
 43
0.0000000001
 44
0.00000001
 40
0.0
 40
0.0
 40
0.0
 40
0.0
 40
0.0375510748555868
 40
0.0754042334906153
 40
0.109415935241002
 40
0.143458076125981
 40
0.1794330429165231
 40
0.2157095328193052
 40
0.2157095328193052
 40
0.2157095328193052
 40
0.2157095328193052
 10
578.3914796594561
 20
-629.2011022407681
 30
0.0
 10
578.4040332979919
 20
-629.2003614079532
 30
0.0
 10
578.4292415641983
 20
-629.1988737826116
 30
0.0
 10
578.46376919572
 20
-629.1848819667009
 30
0.0
 10
578.491406062234
 20
-629.1623129650789
 30
0.0
 10
578.512194653285
 20
-629.134088530533
 30
0.0
 10
578.5247024452892
 20
-629.1003337744671
 30
0.0
 10
578.52663331399
 20
-629.0762508289126
 30
0.0
 10
578.5276027773357
 20
-629.064159104106
 30
0.0
 11
578.3914796594561
 21
-629.2011022407681
 31
0.0
 11
578.4287900325461
 21
-629.196857328202
 31
0.0
 11
578.4638926083862
 21
-629.182691496492
 31
0.0
 11
578.4903592005679
 21
-629.1613299573563
 31
0.0
 11
578.510448513452
 21
-629.1338474745013
 31
0.0
 11
578.5230378690716
 21
-629.1001472317623
 31
0.0
 11
578.5276027773357
 21
-629.064159104106
 31
0.0
  0
SPLINE
  5
2BD
330
4D
100
AcDbEntity
  8
1
  6
Continuous
 62
     3
100
AcDbSpline
210
0.0
220
0.0
230
1.0
 70
     8
 71
     3
 72
    13
 73
     9
 74
     7
 42
0.0000000001
 43
0.0000000001
 44
0.00000001
 40
0.0
 40
0.0
 40
0.0
 40
0.0
 40
0.0328394650077224
 40
0.0655975995954617
 40
0.1022664447836144
 40
0.1389211607509957
 40
0.1782532813537433
 40
0.2177267691617084
 40
0.2177267691617084
 40
0.2177267691617084
 40
0.2177267691617084
 10
577.11313650823
 20
-629.2011022407681
 30
0.0
 10
577.1021536165937
 20
-629.2002420859558
 30
0.0
 10
577.0802150336174
 20
-629.1985239065955
 30
0.0
 10
577.0485019645657
 20
-629.1847656386822
 30
0.0
 10
577.0189824625795
 20
-629.1649930993954
 30
0.0
 10
576.9928729903669
 20
-629.1375967135306
 30
0.0
 10
576.9744020924932
 20
-629.1027211150436
 30
0.0
 10
576.9720883343796
 20
-629.0763323120389
 30
0.0
 10
576.9709293800295
 20
-629.063114241464
 30
0.0
 11
577.11313650823
 21
-629.2011022407681
 31
0.0
 11
577.0805879763274
 21
-629.1967406432425
 31
0.0
 11
577.0502066797351
 21
-629.1844902473697
 31
0.0
 11
577.0198313910952
 21
-629.1639489220114
 31
0.0
 11
576.9947628291568
 21
-629.1372069062872
 31
0.0
 11
576.9769887986365
 21
-629.102119878055
 31
0.0
 11
576.9709293800295
 21
-629.063114241464
 31
0.0
  0
SPLINE
  5
2BE
330
4D
100
AcDbEntity
  8
1
  6
Continuous
 62
     3
100
AcDbSpline
210
0.0
220
0.0
230
1.0
 70
     8
 71
     3
 72
    13
 73
     9
 74
     7
 42
0.0000000001
 43
0.0000000001
 44
0.00000001
 40
0.0
 40
0.0
 40
0.0
 40
0.0
 40
0.1486423989492388
 40
0.2982382234609662
 40
0.4390496453787599
 40
0.5790300758313688
 40
0.7141201510150226
 40
0.8476890380270816
 40
0.8476890380270816
 40
0.8476890380270816
 40
0.8476890380270816
 10
576.7352004323062
 20
-629.6804574935837
 30
0.0
 10
576.6855676465227
 20
-629.6776088462119
 30
0.0
 10
576.5859837191765
 20
-629.6718932796073
 30
0.0
 10
576.4451790907885
 20
-629.6273910410225
 30
0.0
 10
576.3171204102198
 20
-629.5604664009196
 30
0.0
 10
576.2138464424849
 20
-629.4657338483871
 30
0.0
 10
576.1424438743893
 20
-629.345417157351
 30
0.0
 10
576.1319945029478
 20
-629.2556252569859
 30
0.0
 10
576.1267994001975
 20
-629.2109835145462
 30
0.0
 11
576.7352004323062
 21
-629.6804574935837
 31
0.0
 11
576.587280283758
 21
-629.665822179482
 31
0.0
 11
576.4441466689891
 21
-629.6223287427986
 31
0.0
 11
576.3203485971102
 21
-629.5552325883516
 31
0.0
 11
576.2178743894824
 21
-629.4598724411162
 31
0.0
 11
576.1514052012109
 21
-629.3422664233125
 31
0.0
 11
576.1267994001975
 21
-629.2109835145462
 31
0.0
  0
SPLINE
  5
2BF
330
4D
100
AcDbEntity
  8
1
  6
Continuous
 62
     3
100
AcDbSpline
210
0.0
220
0.0
230
1.0
 70
     8
 71
     3
 72
    13
 73
     9
 74
     7
 42
0.0000000001
 43
0.0000000001
 44
0.00000001
 40
0.0
 40
0.0
 40
0.0
 40
0.0
 40
0.0328394650077375
 40
0.0655975995954768
 40
0.1022664447835021
 40
0.1389211607508834
 40
0.1782532813537325
 40
0.2177267691616976
 40
0.2177267691616976
 40
0.2177267691616976
 40
0.2177267691616976
 10
577.11313650823
 20
-627.9417928310206
 30
0.0
 10
577.1021536165936
 20
-627.9426529858331
 30
0.0
 10
577.0802150336174
 20
-627.9443711651936
 30
0.0
 10
577.048501964566
 20
-627.9581294331066
 30
0.0
 10
577.0189824625795
 20
-627.9779019723935
 30
0.0
 10
576.9928729903669
 20
-628.0052983582578
 30
0.0
 10
576.9744020924929
 20
-628.0401739567452
 30
0.0
 10
576.9720883343796
 20
-628.0665627597498
 30
0.0
 10
576.9709293800295
 20
-628.0797808303248
 30
0.0
 11
577.11313650823
 21
-627.9417928310206
 31
0.0
 11
577.0805879763274
 21
-627.9461544285464
 31
0.0
 11
577.0502066797351
 21
-627.9584048244192
 31
0.0
 11
577.0198313910952
 21
-627.9789461497772
 31
0.0
 11
576.9947628291568
 21
-628.0056881655014
 31
0.0
 11
576.9769887986365
 21
-628.0407751937338
 31
0.0
 11
576.9709293800295
 21
-628.0797808303248
 31
0.0
  0
SPLINE
  5
2C0
330
4D
100
AcDbEntity
  8
1
  6
Continuous
 62
     3
100
AcDbSpline
210
0.0
220
0.0
230
1.0
 70
     8
 71
     3
 72
    13
 73
     9
 74
     7
 42
0.0000000001
 43
0.0000000001
 44
0.00000001
 40
0.0
 40
0.0
 40
0.0
 40
0.0
 40
0.1486423989491256
 40
0.2982382234607442
 40
0.439049645378538
 40
0.5790300758313133
 40
0.7141201510148553
 40
0.8476890380269143
 40
0.8476890380269143
 40
0.8476890380269143
 40
0.8476890380269143
 10
578.7122392644713
 20
-629.6804574935837
 30
0.0
 10
578.7618720502549
 20
-629.677608846212
 30
0.0
 10
578.8614559776008
 20
-629.6718932796074
 30
0.0
 10
579.0022606059888
 20
-629.6273910410225
 30
0.0
 10
579.1303192865576
 20
-629.5604664009194
 30
0.0
 10
579.2335932542928
 20
-629.4657338483873
 30
0.0
 10
579.304995822388
 20
-629.3454171573509
 30
0.0
 10
579.3154451938295
 20
-629.2556252569859
 30
0.0
 10
579.3206402965799
 20
-629.2109835145462
 30
0.0
 11
578.7122392644713
 21
-629.6804574935837
 31
0.0
 11
578.8601594130195
 21
-629.665822179482
 31
0.0
 11
579.0032930277882
 21
-629.6223287427986
 31
0.0
 11
579.1270910996672
 21
-629.5552325883516
 31
0.0
 11
579.2295653072952
 21
-629.4598724411162
 31
0.0
 11
579.2960344955665
 21
-629.3422664233125
 31
0.0
 11
579.3206402965799
 21
-629.2109835145462
 31
0.0
  0
SPLINE
  5
2C1
330
4D
100
AcDbEntity
  8
1
  6
Continuous
 62
     3
100
AcDbSpline
210
0.0
220
0.0
230
1.0
 70
     8
 71
     3
 72
    13
 73
     9
 74
     7
 42
0.0000000001
 43
0.0000000001
 44
0.00000001
 40
0.0
 40
0.0
 40
0.0
 40
0.0
 40
0.1486423989491256
 40
0.2982382234607442
 40
0.4390496453784838
 40
0.579030075831414
 40
0.714120151014956
 40
0.847689038027015
 40
0.847689038027015
 40
0.847689038027015
 40
0.847689038027015
 10
578.7122392644713
 20
-627.5020511459
 30
0.0
 10
578.761872050255
 20
-627.504899793272
 30
0.0
 10
578.8614559776009
 20
-627.5106153598765
 30
0.0
 10
579.0022606059889
 20
-627.5551175984613
 30
0.0
 10
579.1303192865578
 20
-627.6220422385644
 30
0.0
 10
579.2335932542926
 20
-627.7167747910966
 30
0.0
 10
579.304995822388
 20
-627.837091482133
 30
0.0
 10
579.3154451938295
 20
-627.9268833824979
 30
0.0
 10
579.3206402965799
 20
-627.9715251249377
 30
0.0
 11
578.7122392644713
 21
-627.5020511459
 31
0.0
 11
578.8601594130195
 21
-627.5166864600018
 31
0.0
 11
579.0032930277882
 21
-627.5601798966852
 31
0.0
 11
579.1270910996672
 21
-627.6272760511321
 31
0.0
 11
579.2295653072952
 21
-627.7226361983677
 31
0.0
 11
579.2960344955665
 21
-627.8402422161714
 31
0.0
 11
579.3206402965799
 21
-627.9715251249377
 31
0.0
  0
SPLINE
  5
2C2
330
4D
100
AcDbEntity
  8
1
  6
Continuous
 62
     3
100
AcDbSpline
210
0.0
220
0.0
230
1.0
 70
     8
 71
     3
 72
    13
 73
     9
 74
     7
 42
0.0000000001
 43
0.0000000001
 44
0.00000001
 40
0.0
 40
0.0
 40
0.0
 40
0.0
 40
0.1486423989492388
 40
0.2982382234609662
 40
0.4390496453787057
 40
0.5790300758314695
 40
0.7141201510151233
 40
0.8476890380271823
 40
0.8476890380271823
 40
0.8476890380271823
 40
0.8476890380271823
 10
576.7352004323062
 20
-627.5020511459
 30
0.0
 10
576.6855676465227
 20
-627.5048997932721
 30
0.0
 10
576.5859837191765
 20
-627.5106153598765
 30
0.0
 10
576.4451790907885
 20
-627.5551175984613
 30
0.0
 10
576.3171204102197
 20
-627.6220422385643
 30
0.0
 10
576.2138464424847
 20
-627.7167747910967
 30
0.0
 10
576.1424438743893
 20
-627.8370914821328
 30
0.0
 10
576.1319945029479
 20
-627.9268833824981
 30
0.0
 10
576.1267994001975
 20
-627.9715251249377
 30
0.0
 11
576.7352004323062
 21
-627.5020511459
 31
0.0
 11
576.587280283758
 21
-627.5166864600018
 31
0.0
 11
576.4441466689891
 21
-627.5601798966852
 31
0.0
 11
576.3203485971102
 21
-627.6272760511321
 31
0.0
 11
576.2178743894824
 21
-627.7226361983677
 31
0.0
 11
576.1514052012109
 21
-627.8402422161714
 31
0.0
 11
576.1267994001975
 21
-627.9715251249377
 31
0.0
  0
SPLINE
  5
2C3
330
4D
100
AcDbEntity
  8
1
  6
Continuous
 62
     3
100
AcDbSpline
210
0.0
220
0.0
230
1.0
 70
     8
 71
     3
 72
    13
 73
     9
 74
     7
 42
0.0000000001
 43
0.0000000001
 44
0.00000001
 40
0.0
 40
0.0
 40
0.0
 40
0.0
 40
0.160194710955768
 40
0.321095162735378
 40
0.4607710778822735
 40
0.600207932985298
 40
0.724415666235963
 40
0.8468166043870373
 40
0.8468166043870373
 40
0.8468166043870373
 40
0.8468166043870373
 10
591.5362088020223
 20
-626.7174386583397
 30
0.0
 10
591.5897130416806
 20
-626.7206796245025
 30
0.0
 10
591.6969572349353
 20
-626.7271758349659
 30
0.0
 10
591.8438551326988
 20
-626.7779712534157
 30
0.0
 10
591.9708150957395
 20
-626.8537312155635
 30
0.0
 10
592.0656842118534
 20
-626.9507119462168
 30
0.0
 10
592.1311194500931
 20
-627.0649187476221
 30
0.0
 10
592.1406919138135
 20
-627.14732217544
 30
0.0
 10
592.1454430790227
 20
-627.1882220222072
 30
0.0
 11
591.5362088020223
 21
-626.7174386583397
 31
0.0
 11
591.6955078205002
 21
-626.7343551630076
 31
0.0
 11
591.8480143309779
 21
-626.7856457044827
 31
0.0
 11
591.9671573663609
 21
-626.8585449389907
 31
0.0
 11
592.0644199328772
 21
-626.9584580498205
 31
0.0
 11
592.1232502015558
 21
-627.0678498250436
 31
0.0
 11
592.1454430790227
 21
-627.1882220222072
 31
0.0
  0
SPLINE
  5
2C4
330
4D
100
AcDbEntity
  8
1
  6
Continuous
 62
     3
100
AcDbSpline
210
0.0
220
0.0
230
1.0
 70
     8
 71
     3
 72
    13
 73
     9
 74
     7
 42
0.0000000001
 43
0.0000000001
 44
0.00000001
 40
0.0
 40
0.0
 40
0.0
 40
0.0
 40
0.1601947109557559
 40
0.3210951627354385
 40
0.4607710778822153
 40
0.6002079329853213
 40
0.7244156662361866
 40
0.8468166043870373
 40
0.8468166043870373
 40
0.8468166043870373
 40
0.8468166043870373
 10
591.5362088020223
 20
-630.4650699811442
 30
0.0
 10
591.5897130416806
 20
-630.4618290149815
 30
0.0
 10
591.6969572349354
 20
-630.4553328045185
 30
0.0
 10
591.8438551326983
 20
-630.4045373860679
 30
0.0
 10
591.9708150957399
 20
-630.3287774239207
 30
0.0
 10
592.0656842118533
 20
-630.2317966932673
 30
0.0
 10
592.131119450093
 20
-630.1175898918617
 30
0.0
 10
592.1406919138137
 20
-630.0351864640438
 30
0.0
 10
592.1454430790227
 20
-629.9942866172767
 30
0.0
 11
591.5362088020223
 21
-630.4650699811442
 31
0.0
 11
591.6955078205002
 21
-630.4481534764764
 31
0.0
 11
591.8480143309779
 21
-630.3968629350011
 31
0.0
 11
591.9671573663609
 21
-630.3239637004933
 31
0.0
 11
592.0644199328772
 21
-630.2240505896634
 31
0.0
 11
592.1232502015558
 21
-630.1146588144401
 31
0.0
 11
592.1454430790227
 21
-629.9942866172767
 31
0.0
  0
SPLINE
  5
2C5
330
4D
100
AcDbEntity
  8
1
  6
Continuous
 62
     3
100
AcDbSpline
210
0.0
220
0.0
230
1.0
 70
     8
 71
     3
 72
    13
 73
     9
 74
     7
 42
0.0000000001
 43
0.0000000001
 44
0.00000001
 40
0.0
 40
0.0
 40
0.0
 40
0.0
 40
0.160194710955869
 40
0.3210951627355515
 40
0.4607710778823284
 40
0.600207932985355
 40
0.7244156662363819
 40
0.8468166043871914
 40
0.8468166043871914
 40
0.8468166043871914
 40
0.8468166043871914
 10
575.0500750605687
 20
-630.4650699811442
 30
0.0
 10
574.9965708209103
 20
-630.4618290149813
 30
0.0
 10
574.8893266276556
 20
-630.4553328045182
 30
0.0
 10
574.7424287298925
 20
-630.4045373860681
 30
0.0
 10
574.615468766851
 20
-630.3287774239203
 30
0.0
 10
574.5205996507377
 20
-630.2317966932671
 30
0.0
 10
574.4551644124977
 20
-630.1175898918619
 30
0.0
 10
574.4455919487772
 20
-630.0351864640438
 30
0.0
 10
574.4408407835682
 20
-629.9942866172767
 30
0.0
 11
575.0500750605687
 21
-630.4650699811442
 31
0.0
 11
574.8907760420907
 21
-630.4481534764764
 31
0.0
 11
574.738269531613
 21
-630.3968629350011
 31
0.0
 11
574.61912649623
 21
-630.3239637004933
 31
0.0
 11
574.5218639297138
 21
-630.2240505896634
 31
0.0
 11
574.4630336610348
 21
-630.1146588144401
 31
0.0
 11
574.4408407835682
 21
-629.9942866172767
 31
0.0
  0
SPLINE
  5
2C6
330
4D
100
AcDbEntity
  8
1
  6
Continuous
 62
     3
100
AcDbSpline
210
0.0
220
0.0
230
1.0
 70
     8
 71
     3
 72
    13
 73
     9
 74
     7
 42
0.0000000001
 43
0.0000000001
 44
0.00000001
 40
0.0
 40
0.0
 40
0.0
 40
0.0
 40
0.160194710955881
 40
0.321095162735491
 40
0.4607710778823866
 40
0.6002079329853318
 40
0.7244156662361584
 40
0.8468166043871915
 40
0.8468166043871915
 40
0.8468166043871915
 40
0.8468166043871915
 10
575.0500750605687
 20
-626.7174386583397
 30
0.0
 10
574.9965708209104
 20
-626.7206796245025
 30
0.0
 10
574.8893266276556
 20
-626.7271758349658
 30
0.0
 10
574.7424287298923
 20
-626.7779712534157
 30
0.0
 10
574.6154687668511
 20
-626.8537312155635
 30
0.0
 10
574.5205996507376
 20
-626.9507119462169
 30
0.0
 10
574.4551644124974
 20
-627.0649187476218
 30
0.0
 10
574.4455919487773
 20
-627.1473221754402
 30
0.0
 10
574.4408407835682
 20
-627.1882220222072
 30
0.0
 11
575.0500750605687
 21
-626.7174386583397
 31
0.0
 11
574.8907760420907
 21
-626.7343551630076
 31
0.0
 11
574.738269531613
 21
-626.7856457044827
 31
0.0
 11
574.61912649623
 21
-626.8585449389907
 31
0.0
 11
574.5218639297138
 21
-626.9584580498205
 31
0.0
 11
574.4630336610348
 21
-627.0678498250436
 31
0.0
 11
574.4408407835682
 21
-627.1882220222072
 31
0.0
  0
MTEXT
  5
2C8
330
4D
100
AcDbEntity
  8
1
 62
     3
100
AcDbMText
 10
553.9022962150588
 20
-634.757700236644
 30
0.0
 40
2.5
 41
0.0
 71
     5
 72
     1
  1
 
  7
CONVERTER_12
 73
     1
 44
1.02040816326531
  0
MTEXT
  5
2CA
330
4D
100
AcDbEntity
  8
1
 62
     3
100
AcDbMText
 10
566.9943444650587
 20
-634.757700236644
 30
0.0
 40
2.5
 41
0.0
 71
     5
 72
     1
  1
 
  7
CONVERTER_13
 73
     1
 44
1.02040816326531
  0
MTEXT
  5
2CC
330
4D
100
AcDbEntity
  8
1
 62
     3
100
AcDbMText
 10
527.2784353741496
 20
-609.3959683673471
 30
0.0
 40
2.5
 41
0.0
 71
     5
 72
     1
  1
 
  7
CONVERTER_14
 73
     1
 44
1.02040816326531
  0
MTEXT
  5
2CD
330
4D
100
AcDbEntity
  8
1
 62
     3
100
AcDbMText
 10
527.2784353741496
 20
-613.6959563673471
 30
0.0
 40
2.5
 41
0.0
 71
     5
 72
     1
  1
 
  7
CONVERTER_14
 73
     1
 44
1.02040816326531
  0
MTEXT
  5
2CE
330
4D
100
AcDbEntity
  8
1
 62
     3
100
AcDbMText
 10
527.2784353741496
 20
-617.9959443673471
 30
0.0
 40
2.5
 41
0.0
 71
     5
 72
     1
  1
 
  7
CONVERTER_14
 73
     1
 44
1.02040816326531
  0
MTEXT
  5
2CF
330
4D
100
AcDbEntity
  8
1
 62
     3
100
AcDbMText
 10
527.2784353741496
 20
-622.2959323673471
 30
0.0
 40
2.5
 41
0.0
 71
     5
 72
     1
  1
 
  7
CONVERTER_14
 73
     1
 44
1.02040816326531
  0
MTEXT
  5
2D0
330
4D
100
AcDbEntity
  8
1
 62
     3
100
AcDbMText
 10
527.2784353741496
 20
-626.595920367347
 30
0.0
 40
2.5
 41
0.0
 71
     5
 72
     1
  1
 
  7
CONVERTER_14
 73
     1
 44
1.02040816326531
  0
MTEXT
  5
2D1
330
4D
100
AcDbEntity
  8
1
 62
     3
100
AcDbMText
 10
527.2784353741496
 20
-630.895908367347
 30
0.0
 40
2.5
 41
0.0
 71
     5
 72
     1
  1
 
  7
CONVERTER_14
 73
     1
 44
1.02040816326531
  0
MTEXT
  5
2D2
330
4D
100
AcDbEntity
  8
1
 62
     3
100
AcDbMText
 10
527.2784353741496
 20
-635.195896367347
 30
0.0
 40
2.5
 41
0.0
 71
     5
 72
     1
  1
X
  7
CONVERTER_14
 73
     1
 44
1.02040816326531
  0
MTEXT
  5
2D3
330
4D
100
AcDbEntity
  8
1
 62
     3
100
AcDbMText
 10
527.2784353741496
 20
-639.495884367347
 30
0.0
 40
2.5
 41
0.0
 71
     5
 72
     1
  1
X
  7
CONVERTER_14
 73
     1
 44
1.02040816326531
  0
MTEXT
  5
2D4
330
4D
100
AcDbEntity
  8
1
 62
     3
100
AcDbMText
 10
513.2784353741496
 20
-609.3959683673471
 30
0.0
 40
2.5
 41
0.0
 71
     5
 72
     1
  1
 
  7
CONVERTER_14
 73
     1
 44
1.02040816326531
  0
MTEXT
  5
2D5
330
4D
100
AcDbEntity
  8
1
 62
     3
100
AcDbMText
 10
513.2784353741496
 20
-613.6959563673471
 30
0.0
 40
2.5
 41
0.0
 71
     5
 72
     1
  1
 
  7
CONVERTER_14
 73
     1
 44
1.02040816326531
  0
MTEXT
  5
2D6
330
4D
100
AcDbEntity
  8
1
 62
     3
100
AcDbMText
 10
513.2784353741496
 20
-617.9959443673471
 30
0.0
 40
2.5
 41
0.0
 71
     5
 72
     1
  1
 
  7
CONVERTER_14
 73
     1
 44
1.02040816326531
  0
MTEXT
  5
2D7
330
4D
100
AcDbEntity
  8
1
 62
     3
100
AcDbMText
 10
513.2784353741496
 20
-622.2959323673471
 30
0.0
 40
2.5
 41
0.0
 71
     5
 72
     1
  1
 
  7
CONVERTER_14
 73
     1
 44
1.02040816326531
  0
MTEXT
  5
2D8
330
4D
100
AcDbEntity
  8
1
 62
     3
100
AcDbMText
 10
513.2784353741496
 20
-626.595920367347
 30
0.0
 40
2.5
 41
0.0
 71
     5
 72
     1
  1
 
  7
CONVERTER_14
 73
     1
 44
1.02040816326531
  0
MTEXT
  5
2D9
330
4D
100
AcDbEntity
  8
1
 62
     3
100
AcDbMText
 10
513.2784353741496
 20
-630.895908367347
 30
0.0
 40
2.5
 41
0.0
 71
     5
 72
     1
  1
 
  7
CONVERTER_14
 73
     1
 44
1.02040816326531
  0
MTEXT
  5
2DA
330
4D
100
AcDbEntity
  8
1
 62
     3
100
AcDbMText
 10
513.2784353741496
 20
-635.195896367347
 30
0.0
 40
2.5
 41
0.0
 71
     5
 72
     1
  1
tbm6
  7
CONVERTER_14
 73
     1
 44
1.02040816326531
  0
MTEXT
  5
2DB
330
4D
100
AcDbEntity
  8
1
 62
     3
100
AcDbMText
 10
513.2784353741496
 20
-639.495884367347
 30
0.0
 40
2.5
 41
0.0
 71
     5
 72
     1
  1
tbm6
  7
CONVERTER_14
 73
     1
 44
1.02040816326531
  0
MTEXT
  5
2DC
330
4D
100
AcDbEntity
  8
1
 62
     3
100
AcDbMText
 10
501.2784353741497
 20
-609.3959683673471
 30
0.0
 40
2.5
 41
0.0
 71
     5
 72
     1
  1
 
  7
CONVERTER_12
 73
     1
 44
1.02040816326531
  0
MTEXT
  5
2DD
330
4D
100
AcDbEntity
  8
1
 62
     3
100
AcDbMText
 10
501.2784353741497
 20
-613.6959563673471
 30
0.0
 40
2.5
 41
0.0
 71
     5
 72
     1
  1
 
  7
CONVERTER_12
 73
     1
 44
1.02040816326531
  0
MTEXT
  5
2DE
330
4D
100
AcDbEntity
  8
1
 62
     3
100
AcDbMText
 10
501.2784353741497
 20
-617.9959443673471
 30
0.0
 40
2.5
 41
0.0
 71
     5
 72
     1
  1
 
  7
CONVERTER_12
 73
     1
 44
1.02040816326531
  0
MTEXT
  5
2DF
330
4D
100
AcDbEntity
  8
1
 62
     3
100
AcDbMText
 10
501.2784353741497
 20
-622.2959323673471
 30
0.0
 40
2.5
 41
0.0
 71
     5
 72
     1
  1
 
  7
CONVERTER_12
 73
     1
 44
1.02040816326531
  0
MTEXT
  5
2E0
330
4D
100
AcDbEntity
  8
1
 62
     3
100
AcDbMText
 10
501.2784353741497
 20
-626.595920367347
 30
0.0
 40
2.5
 41
0.0
 71
     5
 72
     1
  1
 
  7
CONVERTER_12
 73
     1
 44
1.02040816326531
  0
MTEXT
  5
2E1
330
4D
100
AcDbEntity
  8
1
 62
     3
100
AcDbMText
 10
501.2784353741497
 20
-630.895908367347
 30
0.0
 40
2.5
 41
0.0
 71
     5
 72
     1
  1
 
  7
CONVERTER_12
 73
     1
 44
1.02040816326531
  0
MTEXT
  5
2E2
330
4D
100
AcDbEntity
  8
1
 62
     3
100
AcDbMText
 10
501.2784353741497
 20
-635.195896367347
 30
0.0
 40
2.5
 41
0.0
 71
     5
 72
     1
  1
21.10.2002
  7
CONVERTER_12
 73
     1
 44
1.02040816326531
  0
MTEXT
  5
2E3
330
4D
100
AcDbEntity
  8
1
 62
     3
100
AcDbMText
 10
501.2784353741497
 20
-639.495884367347
 30
0.0
 40
2.5
 41
0.0
 71
     5
 72
     1
  1
10.07.2000
  7
CONVERTER_12
 73
     1
 44
1.02040816326531
  0
MTEXT
  5
2E4
330
4D
100
AcDbEntity
  8
1
 62
     3
100
AcDbMText
 10
489.7784353741497
 20
-609.3959683673471
 30
0.0
 40
2.5
 41
0.0
 71
     5
 72
     1
  1
 
  7
CONVERTER_11
 73
     1
 44
1.02040816326531
  0
MTEXT
  5
2E5
330
4D
100
AcDbEntity
  8
1
 62
     3
100
AcDbMText
 10
489.7784353741497
 20
-613.6959563673471
 30
0.0
 40
2.5
 41
0.0
 71
     5
 72
     1
  1
 
  7
CONVERTER_11
 73
     1
 44
1.02040816326531
  0
MTEXT
  5
2E6
330
4D
100
AcDbEntity
  8
1
 62
     3
100
AcDbMText
 10
489.7784353741497
 20
-617.9959443673471
 30
0.0
 40
2.5
 41
0.0
 71
     5
 72
     1
  1
 
  7
CONVERTER_11
 73
     1
 44
1.02040816326531
  0
MTEXT
  5
2E7
330
4D
100
AcDbEntity
  8
1
 62
     3
100
AcDbMText
 10
489.7784353741497
 20
-622.2959323673471
 30
0.0
 40
2.5
 41
0.0
 71
     5
 72
     1
  1
 
  7
CONVERTER_11
 73
     1
 44
1.02040816326531
  0
MTEXT
  5
2E8
330
4D
100
AcDbEntity
  8
1
 62
     3
100
AcDbMText
 10
489.7784353741497
 20
-626.595920367347
 30
0.0
 40
2.5
 41
0.0
 71
     5
 72
     1
  1
 
  7
CONVERTER_11
 73
     1
 44
1.02040816326531
  0
MTEXT
  5
2E9
330
4D
100
AcDbEntity
  8
1
 62
     3
100
AcDbMText
 10
489.7784353741497
 20
-630.895908367347
 30
0.0
 40
2.5
 41
0.0
 71
     5
 72
     1
  1
 
  7
CONVERTER_11
 73
     1
 44
1.02040816326531
  0
MTEXT
  5
2EA
330
4D
100
AcDbEntity
  8
1
 62
     3
100
AcDbMText
 10
489.7784353741497
 20
-635.195896367347
 30
0.0
 40
2.5
 41
0.0
 71
     5
 72
     1
  1
04
  7
CONVERTER_11
 73
     1
 44
1.02040816326531
  0
MTEXT
  5
2EB
330
4D
100
AcDbEntity
  8
1
 62
     3
100
AcDbMText
 10
489.7784353741497
 20
-639.495884367347
 30
0.0
 40
2.5
 41
0.0
 71
     5
 72
     1
  1
03
  7
CONVERTER_11
 73
     1
 44
1.02040816326531
  0
MTEXT
  5
2EC
330
4D
100
AcDbEntity
  8
1
 62
     3
100
AcDbMText
 10
527.2784353741496
 20
-643.795872367347
 30
0.0
 40
2.5
 41
0.0
 71
     5
 72
     1
  1
X
  7
CONVERTER_14
 73
     1
 44
1.02040816326531
  0
MTEXT
  5
2ED
330
4D
100
AcDbEntity
  8
1
 62
     3
100
AcDbMText
 10
513.2784353741496
 20
-643.795872367347
 30
0.0
 40
2.5
 41
0.0
 71
     5
 72
     1
  1
tbm6
  7
CONVERTER_14
 73
     1
 44
1.02040816326531
  0
MTEXT
  5
2EE
330
4D
100
AcDbEntity
  8
1
 62
     3
100
AcDbMText
 10
501.2784353741497
 20
-643.795872367347
 30
0.0
 40
2.5
 41
0.0
 71
     5
 72
     1
  1
16.02.2000
  7
CONVERTER_12
 73
     1
 44
1.02040816326531
  0
MTEXT
  5
2EF
330
4D
100
AcDbEntity
  8
1
 62
     3
100
AcDbMText
 10
489.7784353741497
 20
-643.795872367347
 30
0.0
 40
2.5
 41
0.0
 71
     5
 72
     1
  1
02
  7
CONVERTER_11
 73
     1
 44
1.02040816326531
  0
MTEXT
  5
2F0
330
4D
100
AcDbEntity
  8
1
 62
     3
100
AcDbMText
 10
557.6970922163106
 20
-620.8357336988705
 30
0.0
 40
2.5
 41
0.0
 71
     5
 72
     1
  1
 
  7
CONVERTER_11
 73
     1
 44
1.02040816326531
  0
MTEXT
  5
2F1
330
4D
100
AcDbEntity
  8
1
 62
     3
100
AcDbMText
 10
557.6970922163106
 20
-612.3357336988705
 30
0.0
 40
2.5
 41
0.0
 71
     5
 72
     1
  1
GL.NR.
  7
CONVERTER_11
 73
     1
 44
1.02040816326531
  0
MTEXT
  5
2F2
330
4D
100
AcDbEntity
  8
1
 62
     4
100
AcDbMText
 10
613.8698874742196
 20
-647.245869367347
 30
0.0
 40
3.5
 41
0.0
 71
     5
 72
     1
  1
1
  7
CONVERTER_11
 73
     1
 44
1.02040816326531
  0
MTEXT
  5
2F3
330
4D
100
AcDbEntity
  8
1
 62
     4
100
AcDbMText
 10
603.5767994435746
 20
-647.245869367347
 30
0.0
 40
3.5
 41
0.0
 71
     5
 72
     1
  1
1
  7
CONVERTER_11
 73
     1
 44
1.02040816326531
  0
MTEXT
  5
2F4
330
4D
100
AcDbEntity
  8
1
 62
     3
100
AcDbMText
 10
566.9943444650587
 20
-630.4322541495086
 30
0.0
 40
2.5
 41
0.0
 71
     5
 72
     1
  1
tbm6
  7
CONVERTER_13
 73
     1
 44
1.02040816326531
  0
MTEXT
  5
2F5
330
4D
100
AcDbEntity
  8
1
 62
     3
100
AcDbMText
 10
553.9022962150588
 20
-630.4322541495086
 30
0.0
 40
2.5
 41
0.0
 71
     5
 72
     1
  1
21.10.2002
  7
CONVERTER_12
 73
     1
 44
1.02040816326531
  0
MTEXT
  5
2F7
330
4D
100
AcDbEntity
  8
1
 62
     4
100
AcDbMText
 10
623.7784353741496
 20
-620.6948984283986
 30
0.0
 40
2.8
 41
0.0
 71
     5
 72
     1
  1
AUF GANZGLASTUER MIT HOLZ-UND STAHLRAHMEN
  7
CONVERTER_15
 73
     1
 44
1.02040816326531
  0
MTEXT
  5
2F9
330
4D
100
AcDbEntity
  8
1
 62
     4
100
AcDbMText
 10
623.7784353741496
 20
-613.8066318235049
 30
0.0
 40
3.0
 41
0.0
 71
     5
 72
     1
  1
TS 5000/3000 V M. MONTAGE-U.GEGENPLATTE
  7
CONVERTER_16
 73
     1
 44
1.02040816326531
  0
MTEXT
  5
2FA
330
4D
100
AcDbEntity
  8
1
 62
     1
100
AcDbMText
 10
642.7784353741496
 20
-631.7357181852889
 30
0.0
 40
5.0
 41
0.0
 71
     5
 72
     1
  1
 
  7
CONVERTER_11
 73
     1
 44
1.02040816326531
  0
MTEXT
  5
2FB
330
4D
100
AcDbEntity
  8
1
 62
     1
100
AcDbMText
 10
642.7784353741496
 20
-644.8603502816192
 30
0.0
 40
5.0
 41
0.0
 71
     5
 72
     1
  1
20520-0-35
  7
CONVERTER_13
 73
     1
 44
1.02040816326531
  0
TEXT
  5
2FD
330
4D
100
AcDbEntity
  8
0
 62
     3
100
AcDbText
 10
618.7784353741496
 20
-627.245869367347
 30
0.0
 40
1.798828
  1
Material Nr.
 41
0.99
  7
CONVERTER_17
100
AcDbText
  0
TEXT
  5
2FE
330
4D
100
AcDbEntity
  8
0
 62
     3
100
AcDbText
 10
618.7784353741496
 20
-640.245869367347
 30
0.0
 40
1.798828
  1
Zeichnungs Nr.
 41
0.99
  7
CONVERTER_17
100
AcDbText
  0
TEXT
  5
2FF
330
4D
100
AcDbEntity
  8
0
 62
     3
100
AcDbText
 10
569.7784353741496
 20
-644.245869367347
 30
0.0
 40
1.798828
  1
alte techn.Nr.
 41
0.99
  7
CONVERTER_17
100
AcDbText
  0
MTEXT
  5
300
330
4D
100
AcDbEntity
  8
0
 62
     3
100
AcDbMText
 10
536.7784353741496
 20
-644.245869367347
 30
0.0
 40
1.798828
 41
0.0
 71
     7
 72
     1
  1
Ma\U+00dfstab
  7
CONVERTER_17
 73
     1
 44
0.60024009603842
  0
TEXT
  5
301
330
4D
100
AcDbEntity
  8
0
 62
     3
100
AcDbText
 10
580.5783923741495
 20
-610.145863367347
 30
0.0
 40
1.798828
  1
Benennung
 41
0.99
  7
CONVERTER_17
100
AcDbText
  0
TEXT
  5
302
330
4D
100
AcDbEntity
  8
0
 62
     3
100
AcDbText
 10
536.7784353741496
 20
-617.8458693673471
 30
0.0
 40
1.6
  1
Ersetzt durch:
 41
0.99
  7
CONVERTER_17
100
AcDbText
  0
MTEXT
  5
303
330
4D
100
AcDbEntity
  8
0
 62
     3
100
AcDbMText
 10
536.7784353741496
 20
-609.245869367347
 30
0.0
 40
1.6
 41
0.0
 71
     7
 72
     1
  1
Ersatz f\U+00fcr:
  7
CONVERTER_17
 73
     1
 44
0.60024009603842
  0
MTEXT
  5
304
330
4D
100
AcDbEntity
  8
0
 62
     3
100
AcDbMText
 10
547.7988843286951
 20
-627.5653922286759
 30
0.0
 40
1.74155141925716
 41
0.0
 71
     7
 72
     1
  1
Datum    Name
  7
CONVERTER_17
 73
     1
 44
0.60024009603842
  0
MTEXT
  5
305
330
4D
100
AcDbEntity
  8
0
 62
     3
100
AcDbMText
 10
536.7102535559678
 20
-640.642313136117
 30
0.0
 40
1.74155141925716
 41
0.0
 71
     7
 72
     1
  1
Norm
  7
CONVERTER_17
 73
     1
 44
0.60024009603842
  0
MTEXT
  5
306
330
4D
100
AcDbEntity
  8
0
 62
     3
100
AcDbMText
 10
536.7102535559678
 20
-636.3168670489816
 30
0.0
 40
1.74155141925716
 41
0.0
 71
     7
 72
     1
  1
Freig.:
  7
CONVERTER_17
 73
     1
 44
0.60024009603842
  0
MTEXT
  5
307
330
4D
100
AcDbEntity
  8
0
 62
     3
100
AcDbMText
 10
536.7102535559678
 20
-631.9914209618463
 30
0.0
 40
1.74155141925716
 41
0.0
 71
     7
 72
     1
  1
Bearb.
  7
CONVERTER_17
 73
     1
 44
0.60024009603842
  0
MTEXT
  5
309
330
4D
100
AcDbEntity
  8
0
 62
     4
100
AcDbMText
 10
594.0272198339463
 20
-628.9749077828312
 30
0.0
 40
2.22374007748728
 41
0.0
 71
     7
 72
     1
  1
GEZE GmbH
  7
CONVERTER_18
 73
     1
 44
0.60024009603842
  0
MTEXT
  5
30A
330
4D
100
AcDbEntity
  8
0
 62
     3
100
AcDbMText
 10
594.0272198339463
 20
-638.3563835116055
 30
0.0
 40
1.74155141925716
 41
0.0
 71
     7
 72
     1
  1
P.O. Box 13 63\P71226 Leonberg\PGermany
  7
CONVERTER_17
 73
     1
 44
1.02040816326531
  0
TEXT
  5
30B
330
4D
100
AcDbEntity
  8
0
 62
     3
100
AcDbText
 10
485.7784353741496
 20
-649.245869367347
 30
0.0
 40
1.7
  1
Vers.  Datum   Name   Mitt.Nr.
 41
0.99
  7
CONVERTER_17
100
AcDbText
  0
TEXT
  5
30C
330
4D
100
AcDbEntity
  8
1
 62
     3
100
AcDbText
 10
600.5917741921966
 20
-643.8915572764555
 30
0.0
 40
1.798828
  1
Blatt / von
 41
0.99
  7
CONVERTER_17
100
AcDbText
  0
TEXT
  5
30D
330
4D
100
AcDbEntity
  8
0
 62
     3
100
AcDbText
 10
664.7784353741496
 20
-598.245869367347
 30
0.0
 40
1.398438
  1
A
 41
0.99
  7
CONVERTER_17
100
AcDbText
  0
MTEXT
  5
30E
330
4D
100
AcDbEntity
  8
0
 62
     3
100
AcDbMText
 10
85.2620445736513
 20
-649.165606238724
 30
0.0
 40
1.5
 41
0.0
 71
     7
 72
     1
  3
Diese Zeichnung entspricht dem Entwicklungsstand des Zeichnungs-\Pdatums bzw. der letzten \U+00c4nderungseintragung.Aus der Ben\U+00fctzung der\PZeichnung k\U+00f6nnen keine Anspr\U+00fcche, gleich welcher Art, einschlie\U+00df-\Plich Schadenersatza
  3
nspr\U+00fcche, abgeleitet und gegen GEZE geltend ge-\Pmacht werden. Die Zeichnung bleibt unser Eigentum und ist Dritten\Pnur f\U+00fcr die Vertragsdauer zur Ben\U+00fctzung \U+00fcberlassen.S\U+00e4mtliche sich\Paus der Zeichnung ergebenden Anspr
  1
\U+00fcche stehen ausschlie\U+00dflich GEZE\Pzu.Ohne vorherige Zustimmung von GEZE darf diese Zeichnung weder\Pvervielf\U+00e4ltigt noch Dritten zug\U+00e4nglich gemacht werden.
  7
CONVERTER_11
 73
     1
 44
0.84033613445378
  0
TEXT
  5
30F
330
4D
100
AcDbEntity
  8
0
 62
     3
100
AcDbText
 10
118.7784353741496
 20
-244.245869367347
 30
0.0
 40
1.798828
  1
8
 41
0.99
  7
CONVERTER_17
100
AcDbText
  0
TEXT
  5
310
330
4D
100
AcDbEntity
  8
0
 62
     3
100
AcDbText
 10
191.7784353741496
 20
-244.245869367347
 30
0.0
 40
1.798828
  1
7
 41
0.99
  7
CONVERTER_17
100
AcDbText
  0
TEXT
  5
311
330
4D
100
AcDbEntity
  8
0
 62
     3
100
AcDbText
 10
264.7784353741496
 20
-244.245869367347
 30
0.0
 40
1.798828
  1
6
 41
0.99
  7
CONVERTER_17
100
AcDbText
  0
TEXT
  5
312
330
4D
100
AcDbEntity
  8
0
 62
     3
100
AcDbText
 10
332.7784353741496
 20
-244.245869367347
 30
0.0
 40
1.798828
  1
5
 41
0.99
  7
CONVERTER_17
100
AcDbText
  0
TEXT
  5
313
330
4D
100
AcDbEntity
  8
0
 62
     3
100
AcDbText
 10
405.7784353741496
 20
-244.245869367347
 30
0.0
 40
1.798828
  1
4
 41
0.99
  7
CONVERTER_17
100
AcDbText
  0
TEXT
  5
314
330
4D
100
AcDbEntity
  8
0
 62
     3
100
AcDbText
 10
478.7784353741496
 20
-244.245869367347
 30
0.0
 40
1.798828
  1
3
 41
0.99
  7
CONVERTER_17
100
AcDbText
  0
TEXT
  5
315
330
4D
100
AcDbEntity
  8
0
 62
     3
100
AcDbText
 10
551.7784353741496
 20
-244.245869367347
 30
0.0
 40
1.798828
  1
2
 41
0.99
  7
CONVERTER_17
100
AcDbText
  0
TEXT
  5
316
330
4D
100
AcDbEntity
  8
0
 62
     3
100
AcDbText
 10
624.7784353741496
 20
-244.245869367347
 30
0.0
 40
1.798828
  1
1
 41
0.99
  7
CONVERTER_17
100
AcDbText
  0
TEXT
  5
317
330
4D
100
AcDbEntity
  8
0
 62
     3
100
AcDbText
 10
84.7784353741496
 20
-272.245869367347
 30
0.0
 40
1.798828
  1
 
 41
0.99
  7
CONVERTER_17
100
AcDbText
  0
TEXT
  5
318
330
4D
100
AcDbEntity
  8
0
 62
     3
100
AcDbText
 10
664.7784353741496
 20
-545.245869367347
 30
0.0
 40
1.398438
  1
B
 41
0.99
  7
CONVERTER_17
100
AcDbText
  0
TEXT
  5
319
330
4D
100
AcDbEntity
  8
0
 62
     3
100
AcDbText
 10
664.7784353741496
 20
-475.245869367347
 30
0.0
 40
1.398438
  1
C
 41
0.99
  7
CONVERTER_17
100
AcDbText
  0
TEXT
  5
31A
330
4D
100
AcDbEntity
  8
0
 62
     3
100
AcDbText
 10
664.7784353741496
 20
-405.245869367347
 30
0.0
 40
1.398438
  1
D
 41
0.99
  7
CONVERTER_17
100
AcDbText
  0
TEXT
  5
31B
330
4D
100
AcDbEntity
  8
0
 62
     3
100
AcDbText
 10
664.7784353741496
 20
-335.245869367347
 30
0.0
 40
1.398438
  1
E
 41
0.99
  7
CONVERTER_17
100
AcDbText
  0
TEXT
  5
31C
330
4D
100
AcDbEntity
  8
0
 62
     3
100
AcDbText
 10
664.7784353741496
 20
-265.245869367347
 30
0.0
 40
1.398438
  1
F
 41
0.99
  7
CONVERTER_17
100
AcDbText
  0
ENDBLK
  5
4F
330
4D
100
AcDbEntity
  8
0
100
AcDbBlockEnd
  0
BLOCK
  5
52
330
50
100
AcDbEntity
  8
0
100
AcDbBlockBegin
  2
rahmen
 70
     0
 71
     0
 10
83.7784353741496
 20
-650.245869367347
 30
0.0
  3
rahmen
  1

  0
INSERT
  5
51
330
50
100
AcDbEntity
  8
1
100
AcDbBlockReference
  2
a2kl
 10
83.7784353741496
 20
-650.245869367347
 30
0.0
  0
ENDBLK
  5
53
330
50
100
AcDbEntity
  8
0
100
AcDbBlockEnd
  0
BLOCK
  5
19A
330
192
100
AcDbEntity
  8
0
100
AcDbBlockBegin
  2
*D6
 70
     1
 71
     0
 10
0.0
 20
0.0
 30
0.0
  3
*D6
  1

  0
LINE
  5
193
330
192
100
AcDbEntity
  8
1
  6
Continuous
 62
     3
100
AcDbLine
 10
382.333496
 20
-535.437589752457
 30
0.0
 11
605.333496
 21
-535.437589752457
 31
0.0
  0
LINE
  5
194
330
192
100
AcDbEntity
  8
1
  6
Continuous
 62
     3
100
AcDbLine
 10
605.333496
 20
-485.2331546666664
 30
0.0
 11
605.333496
 21
-538.1042564191237
 31
0.0
  0
LINE
  5
195
330
192
100
AcDbEntity
  8
1
  6
Continuous
 62
     3
100
AcDbLine
 10
382.333496
 20
-485.2331546666665
 30
0.0
 11
382.333496
 21
-538.1042564191237
 31
0.0
  0
SOLID
  5
196
330
192
100
AcDbEntity
  8
1
 62
     3
100
AcDbTrace
 10
387.0001626666667
 20
-534.8232114303826
 30
0.0
 11
387.0001626666667
 21
-536.0519680745315
 31
0.0
 12
382.333496
 22
-535.437589752457
 32
0.0
 13
382.333496
 23
-535.437589752457
 33
0.0
  0
SOLID
  5
197
330
192
100
AcDbEntity
  8
1
 62
     3
100
AcDbTrace
 10
600.6668293333333
 20
-536.0519680745315
 30
0.0
 11
600.6668293333333
 21
-534.8232114303826
 31
0.0
 12
605.333496
 22
-535.437589752457
 32
0.0
 13
605.333496
 23
-535.437589752457
 33
0.0
  0
MTEXT
  5
199
330
192
100
AcDbEntity
  8
1
 62
     4
100
AcDbMText
 10
465.0096774265547
 20
-532.7709230857904
 30
0.0
 40
4.66666666666667
 41
0.0
 71
     7
 72
     1
  1
\C4;223\C4;- GEZE TS 5000
  7
CONVERTER_11
 11
0.9999999999970619
 21
2.424068405545306E-6
 31
0.0
 73
     1
 44
0.60024009603842
  0
ENDBLK
  5
19B
330
192
100
AcDbEntity
  8
0
100
AcDbBlockEnd
  0
BLOCK
  5
1A5
330
19E
100
AcDbEntity
  8
0
100
AcDbBlockBegin
  2
*D7
 70
     1
 71
     0
 10
0.0
 20
0.0
 30
0.0
  3
*D7
  1

  0
LINE
  5
19F
330
19E
100
AcDbEntity
  8
1
  6
Continuous
 62
     3
100
AcDbLine
 10
240.3333333333333
 20
-512.1914805967373
 30
0.0
 11
350.3335609384437
 21
-512.1914805967373
 31
0.0
  0
LINE
  5
1A0
330
19E
100
AcDbEntity
  8
1
  6
Continuous
 62
     3
100
AcDbLine
 10
350.3335609384437
 20
-497.7946441494629
 30
0.0
 11
350.3335609384437
 21
-514.8581472634039
 31
0.0
  0
LINE
  5
1A1
330
19E
100
AcDbEntity
  8
1
  6
Continuous
 62
     3
100
AcDbLine
 10
240.3333333333333
 20
-494.1499026666667
 30
0.0
 11
240.3333333333333
 21
-514.8581472634039
 31
0.0
  0
SOLID
  5
1A2
330
19E
100
AcDbEntity
  8
1
 62
     3
100
AcDbTrace
 10
244.9999999999999
 20
-511.5771022746628
 30
0.0
 11
244.9999999999999
 21
-512.8058589188117
 31
0.0
 12
240.3333333333333
 22
-512.1914805967373
 32
0.0
 13
240.3333333333333
 23
-512.1914805967373
 33
0.0
  0
SOLID
  5
1A3
330
19E
100
AcDbEntity
  8
1
 62
     3
100
AcDbTrace
 10
345.666894271777
 20
-512.8058589188117
 30
0.0
 11
345.666894271777
 21
-511.5771022746628
 31
0.0
 12
350.3335609384437
 22
-512.1914805967373
 32
0.0
 13
350.3335609384437
 23
-512.1914805967373
 33
0.0
  0
MTEXT
  5
1A4
330
19E
100
AcDbEntity
  8
1
 62
     4
100
AcDbMText
 10
288.5917014055546
 20
-509.5248139300706
 30
0.0
 40
4.66666666666667
 41
0.0
 71
     7
 72
     1
  1
110
  7
CONVERTER_11
 11
0.9999999999970619
 21
2.424068405545306E-6
 31
0.0
 73
     1
 44
0.60024009603842
  0
ENDBLK
  5
1A6
330
19E
100
AcDbEntity
  8
0
100
AcDbBlockEnd
  0
BLOCK
  5
1B0
330
1A9
100
AcDbEntity
  8
0
100
AcDbBlockBegin
  2
*D8
 70
     1
 71
     0
 10
0.0
 20
0.0
 30
0.0
  3
*D8
  1

  0
LINE
  5
1AA
330
1A9
100
AcDbEntity
  8
1
  6
Continuous
 62
     3
100
AcDbLine
 10
186.72836578892
 20
-430.8998213333334
 30
0.0
 11
186.72836578892
 21
-407.9016933333334
 31
0.0
  0
LINE
  5
1AB
330
1A9
100
AcDbEntity
  8
1
  6
Continuous
 62
     3
100
AcDbLine
 10
353.332764
 20
-407.9016933333334
 30
0.0
 11
184.0616991222533
 21
-407.9016933333334
 31
0.0
  0
LINE
  5
1AC
330
1A9
100
AcDbEntity
  8
1
  6
Continuous
 62
     3
100
AcDbLine
 10
262.3333333333333
 20
-430.8998213333334
 30
0.0
 11
184.0616991222533
 21
-430.8998213333334
 31
0.0
  0
SOLID
  5
1AD
330
1A9
100
AcDbEntity
  8
1
 62
     3
100
AcDbTrace
 10
186.1139874668455
 20
-426.2331546666667
 30
0.0
 11
187.3427441109945
 21
-426.2331546666667
 31
0.0
 12
186.72836578892
 22
-430.8998213333334
 32
0.0
 13
186.72836578892
 23
-430.8998213333334
 33
0.0
  0
SOLID
  5
1AE
330
1A9
100
AcDbEntity
  8
1
 62
     3
100
AcDbTrace
 10
187.3427441109945
 20
-412.56836
 30
0.0
 11
186.1139874668455
 21
-412.56836
 31
0.0
 12
186.72836578892
 22
-407.9016933333334
 32
0.0
 13
186.72836578892
 23
-407.9016933333334
 33
0.0
  0
MTEXT
  5
1AF
330
1A9
100
AcDbEntity
  8
1
 62
     4
100
AcDbMText
 10
184.0616991222533
 20
-423.165466833176
 30
0.0
 40
4.66666666666667
 41
0.0
 71
     7
 72
     1
  1
23
  7
CONVERTER_11
 11
0.0
 21
1.0
 31
0.0
 73
     1
 44
0.60024009603842
  0
ENDBLK
  5
1B1
330
1A9
100
AcDbEntity
  8
0
100
AcDbBlockEnd
  0
BLOCK
  5
1BB
330
1B4
100
AcDbEntity
  8
0
100
AcDbBlockBegin
  2
*D9
 70
     1
 71
     0
 10
0.0
 20
0.0
 30
0.0
  3
*D9
  1

  0
LINE
  5
1B5
330
1B4
100
AcDbEntity
  8
1
  6
Continuous
 62
     3
100
AcDbLine
 10
240.3333333333333
 20
-523.281168303824
 30
0.0
 11
382.333496
 21
-523.281168303824
 31
0.0
  0
LINE
  5
1B6
330
1B4
100
AcDbEntity
  8
1
  6
Continuous
 62
     3
100
AcDbLine
 10
382.333496
 20
-485.2331546666665
 30
0.0
 11
382.333496
 21
-525.9478349704906
 31
0.0
  0
LINE
  5
1B7
330
1B4
100
AcDbEntity
  8
1
  6
Continuous
 62
     3
100
AcDbLine
 10
240.3333333333333
 20
-494.1499026666667
 30
0.0
 11
240.3333333333333
 21
-525.9478349704906
 31
0.0
  0
SOLID
  5
1B8
330
1B4
100
AcDbEntity
  8
1
 62
     3
100
AcDbTrace
 10
245.0
 20
-522.6667899817495
 30
0.0
 11
245.0
 21
-523.8955466258984
 31
0.0
 12
240.3333333333333
 22
-523.281168303824
 32
0.0
 13
240.3333333333333
 23
-523.281168303824
 33
0.0
  0
SOLID
  5
1B9
330
1B4
100
AcDbEntity
  8
1
 62
     3
100
AcDbTrace
 10
377.6668293333333
 20
-523.8955466258984
 30
0.0
 11
377.6668293333333
 21
-522.6667899817495
 31
0.0
 12
382.333496
 22
-523.281168303824
 32
0.0
 13
382.333496
 23
-523.281168303824
 33
0.0
  0
MTEXT
  5
1BA
330
1B4
100
AcDbEntity
  8
1
 62
     4
100
AcDbMText
 10
298.838840593174
 20
-520.6145016371573
 30
0.0
 40
4.66666666666667
 41
0.0
 71
     7
 72
     1
  1
142
  7
CONVERTER_11
 11
0.9999999999970619
 21
2.424068405545306E-6
 31
0.0
 73
     1
 44
0.60024009603842
  0
ENDBLK
  5
1BC
330
1B4
100
AcDbEntity
  8
0
100
AcDbBlockEnd
  0
BLOCK
  5
1C6
330
1BF
100
AcDbEntity
  8
0
100
AcDbBlockBegin
  2
*D10
 70
     1
 71
     0
 10
0.0
 20
0.0
 30
0.0
  3
*D10
  1

  0
LINE
  5
1C0
330
1BF
100
AcDbEntity
  8
1
  6
Continuous
 62
     3
100
AcDbLine
 10
382.333496
 20
-523.281168303824
 30
0.0
 11
544.333496
 21
-523.281168303824
 31
0.0
  0
LINE
  5
1C1
330
1BF
100
AcDbEntity
  8
1
  6
Continuous
 62
     3
100
AcDbLine
 10
544.333496
 20
-482.0998213333333
 30
0.0
 11
544.333496
 21
-525.9478349704906
 31
0.0
  0
LINE
  5
1C2
330
1BF
100
AcDbEntity
  8
1
  6
Continuous
 62
     3
100
AcDbLine
 10
382.333496
 20
-485.2331546666665
 30
0.0
 11
382.333496
 21
-525.9478349704906
 31
0.0
  0
SOLID
  5
1C3
330
1BF
100
AcDbEntity
  8
1
 62
     3
100
AcDbTrace
 10
387.0001626666667
 20
-522.6667899817495
 30
0.0
 11
387.0001626666667
 21
-523.8955466258984
 31
0.0
 12
382.333496
 22
-523.281168303824
 32
0.0
 13
382.333496
 23
-523.281168303824
 33
0.0
  0
SOLID
  5
1C4
330
1BF
100
AcDbEntity
  8
1
 62
     3
100
AcDbTrace
 10
539.6668293333333
 20
-523.8955466258984
 30
0.0
 11
539.6668293333333
 21
-522.6667899817495
 31
0.0
 12
544.333496
 22
-523.281168303824
 32
0.0
 13
544.333496
 23
-523.281168303824
 33
0.0
  0
MTEXT
  5
1C5
330
1BF
100
AcDbEntity
  8
1
 62
     4
100
AcDbMText
 10
423.9001626666667
 20
-520.6145016371573
 30
0.0
 40
4.66666666666667
 41
0.0
 71
     7
 72
     1
  1
\C4;162\C4;- GEZE TS 3000 V
  7
CONVERTER_11
 11
0.9999999999970619
 21
2.424068405545306E-6
 31
0.0
 73
     1
 44
0.60024009603842
  0
ENDBLK
  5
1C7
330
1BF
100
AcDbEntity
  8
0
100
AcDbBlockEnd
  0
BLOCK
  5
1D1
330
1CA
100
AcDbEntity
  8
0
100
AcDbBlockBegin
  2
*D11
 70
     1
 71
     0
 10
0.0
 20
0.0
 30
0.0
  3
*D11
  1

  0
LINE
  5
1CB
330
1CA
100
AcDbEntity
  8
1
  6
Continuous
 62
     3
100
AcDbLine
 10
240.3333333333334
 20
-355.2665601716906
 30
0.0
 11
360.333008
 21
-355.2665601716906
 31
0.0
  0
LINE
  5
1CC
330
1CA
100
AcDbEntity
  8
1
  6
Continuous
 62
     3
100
AcDbLine
 10
360.333008
 20
-400.9017746666667
 30
0.0
 11
360.333008
 21
-352.5998935050239
 31
0.0
  0
LINE
  5
1CD
330
1CA
100
AcDbEntity
  8
1
  6
Continuous
 62
     3
100
AcDbLine
 10
240.3333333333334
 20
-494.1499026666667
 30
0.0
 11
240.3333333333334
 21
-352.5998935050239
 31
0.0
  0
SOLID
  5
1CE
330
1CA
100
AcDbEntity
  8
1
 62
     3
100
AcDbTrace
 10
245.0
 20
-354.6521818496161
 30
0.0
 11
245.0
 21
-355.8809384937651
 31
0.0
 12
240.3333333333334
 22
-355.2665601716906
 32
0.0
 13
240.3333333333334
 23
-355.2665601716906
 33
0.0
  0
SOLID
  5
1CF
330
1CA
100
AcDbEntity
  8
1
 62
     3
100
AcDbTrace
 10
355.6663413333333
 20
-355.8809384937651
 30
0.0
 11
355.6663413333333
 21
-354.6521818496161
 31
0.0
 12
360.333008
 22
-355.2665601716906
 32
0.0
 13
360.333008
 23
-355.2665601716906
 33
0.0
  0
MTEXT
  5
1D0
330
1CA
100
AcDbEntity
  8
1
 62
     4
100
AcDbMText
 10
299.5583383041867
 20
-352.5998935050239
 30
0.0
 40
4.66666666666667
 41
0.0
 71
     7
 72
     1
  1
120
  7
CONVERTER_11
 11
0.9999999999970619
 21
2.424068405545306E-6
 31
0.0
 73
     1
 44
0.60024009603842
  0
ENDBLK
  5
1D2
330
1CA
100
AcDbEntity
  8
0
100
AcDbBlockEnd
  0
BLOCK
  5
1DC
330
1D5
100
AcDbEntity
  8
0
100
AcDbBlockBegin
  2
*D12
 70
     1
 71
     0
 10
0.0
 20
0.0
 30
0.0
  3
*D12
  1

  0
LINE
  5
1D6
330
1D5
100
AcDbEntity
  8
1
  6
Continuous
 62
     3
100
AcDbLine
 10
360.3330079999999
 20
-355.2665601716906
 30
0.0
 11
788.8221026666666
 21
-355.2665601716906
 31
0.0
  0
LINE
  5
1D7
330
1D5
100
AcDbEntity
  8
1
  6
Continuous
 62
     3
100
AcDbLine
 10
788.8221026666666
 20
-400.9017746666667
 30
0.0
 11
788.8221026666666
 21
-352.5998935050239
 31
0.0
  0
LINE
  5
1D8
330
1D5
100
AcDbEntity
  8
1
  6
Continuous
 62
     3
100
AcDbLine
 10
360.3330079999999
 20
-400.9017746666667
 30
0.0
 11
360.3330079999999
 21
-352.5998935050239
 31
0.0
  0
SOLID
  5
1D9
330
1D5
100
AcDbEntity
  8
1
 62
     3
100
AcDbTrace
 10
364.9996746666666
 20
-354.6521818496161
 30
0.0
 11
364.9996746666666
 21
-355.8809384937651
 31
0.0
 12
360.3330079999999
 22
-355.2665601716906
 32
0.0
 13
360.3330079999999
 23
-355.2665601716906
 33
0.0
  0
SOLID
  5
1DA
330
1D5
100
AcDbEntity
  8
1
 62
     3
100
AcDbTrace
 10
784.155436
 20
-355.8809384937651
 30
0.0
 11
784.155436
 21
-354.6521818496161
 31
0.0
 12
788.8221026666666
 22
-355.2665601716906
 32
0.0
 13
788.8221026666666
 23
-355.2665601716906
 33
0.0
  0
MTEXT
  5
1DB
330
1D5
100
AcDbEntity
  8
1
 62
     4
100
AcDbMText
 10
560.4134355239026
 20
-352.4832268383573
 30
0.0
 40
4.66666666666667
 41
0.0
 71
     7
 72
     1
  1
\C4;428.5\C3;\H2.8;{\Fgdt;`}0.2
  7
CONVERTER_11
 11
0.9999999999970619
 21
2.424068405545306E-6
 31
0.0
 73
     1
 44
0.60024009603842
  0
ENDBLK
  5
1DD
330
1D5
100
AcDbEntity
  8
0
100
AcDbBlockEnd
  0
BLOCK
  5
5A1
330
59A
100
AcDbEntity
  8
0
100
AcDbBlockBegin
  2
*D13
 70
     1
 71
     0
 10
0.0
 20
0.0
 30
0.0
  3
*D13
  1

  0
LINE
  5
59B
330
59A
100
AcDbEntity
  8
1
  6
Continuous
 62
     3
100
AcDbLine
 10
400.537212427005
 20
-537.199829
 30
0.0
 11
400.537212427005
 21
-503.69989
 31
0.0
  0
LINE
  5
59C
330
59A
100
AcDbEntity
  8
1
  6
Continuous
 62
     3
100
AcDbLine
 10
410.5
 20
-503.69989
 30
0.0
 11
398.537212427005
 21
-503.69989
 31
0.0
  0
LINE
  5
59D
330
59A
100
AcDbEntity
  8
1
  6
Continuous
 62
     3
100
AcDbLine
 10
454.850342
 20
-537.199829
 30
0.0
 11
398.537212427005
 21
-537.199829
 31
0.0
  0
SOLID
  5
59E
330
59A
100
AcDbEntity
  8
1
 62
     3
100
AcDbTrace
 10
400.2080811830365
 20
-534.699829
 30
0.0
 11
400.8663436709735
 21
-534.699829
 31
0.0
 12
400.537212427005
 22
-537.199829
 32
0.0
 13
400.537212427005
 23
-537.199829
 33
0.0
  0
SOLID
  5
59F
330
59A
100
AcDbEntity
  8
1
 62
     3
100
AcDbTrace
 10
400.8663436709735
 20
-506.19989
 30
0.0
 11
400.2080811830365
 21
-506.19989
 31
0.0
 12
400.537212427005
 22
-503.69989
 32
0.0
 13
400.537212427005
 23
-503.69989
 33
0.0
  0
MTEXT
  5
5A0
330
59A
100
AcDbEntity
  8
1
 62
     3
100
AcDbMText
 10
398.537212427005
 20
-524.503033937327
 30
0.0
 40
2.5
 41
0.0
 71
     7
 72
     1
  1
33.5
  7
CONVERTER_11
 11
0.0
 21
1.0
 31
0.0
 73
     1
 44
0.60024009603842
  0
ENDBLK
  5
5A2
330
59A
100
AcDbEntity
  8
0
100
AcDbBlockEnd
  0
BLOCK
  5
5AC
330
5A5
100
AcDbEntity
  8
0
100
AcDbBlockBegin
  2
*D14
 70
     1
 71
     0
 10
0.0
 20
0.0
 30
0.0
  3
*D14
  1

  0
LINE
  5
5A6
330
5A5
100
AcDbEntity
  8
1
  6
Continuous
 62
     3
100
AcDbLine
 10
199.913257814671
 20
-537.199951
 30
0.0
 11
199.913257814671
 21
-503.7000119999999
 31
0.0
  0
LINE
  5
5A7
330
5A5
100
AcDbEntity
  8
1
  6
Continuous
 62
     3
100
AcDbLine
 10
210.5
 20
-503.7000119999999
 30
0.0
 11
197.913257814671
 21
-503.7000119999999
 31
0.0
  0
LINE
  5
5A8
330
5A5
100
AcDbEntity
  8
1
  6
Continuous
 62
     3
100
AcDbLine
 10
254.499878
 20
-537.199951
 30
0.0
 11
197.913257814671
 21
-537.199951
 31
0.0
  0
SOLID
  5
5A9
330
5A5
100
AcDbEntity
  8
1
 62
     3
100
AcDbTrace
 10
199.5841265707025
 20
-534.699951
 30
0.0
 11
200.2423890586395
 21
-534.699951
 31
0.0
 12
199.913257814671
 22
-537.199951
 32
0.0
 13
199.913257814671
 23
-537.199951
 33
0.0
  0
SOLID
  5
5AA
330
5A5
100
AcDbEntity
  8
1
 62
     3
100
AcDbTrace
 10
200.2423890586395
 20
-506.2000119999999
 30
0.0
 11
199.5841265707025
 21
-506.2000119999999
 31
0.0
 12
199.913257814671
 22
-503.7000119999999
 32
0.0
 13
199.913257814671
 23
-503.7000119999999
 33
0.0
  0
MTEXT
  5
5AB
330
5A5
100
AcDbEntity
  8
1
 62
     3
100
AcDbMText
 10
197.913257814671
 20
-523.463120721275
 30
0.0
 40
2.5
 41
0.0
 71
     7
 72
     1
  1
33.5
  7
CONVERTER_11
 11
0.0
 21
1.0
 31
0.0
 73
     1
 44
0.60024009603842
  0
ENDBLK
  5
5AD
330
5A5
100
AcDbEntity
  8
0
100
AcDbBlockEnd
  0
BLOCK
  5
5B8
330
5B0
100
AcDbEntity
  8
0
100
AcDbBlockBegin
  2
*D15
 70
     1
 71
     0
 10
0.0
 20
0.0
 30
0.0
  3
*D15
  1

  0
LINE
  5
5B1
330
5B0
100
AcDbEntity
  8
1
  6
Continuous
 62
     3
100
AcDbLine
 10
295.637151726585
 20
-578.199707
 30
0.0
 11
295.637151726585
 21
-537.199951
 31
0.0
  0
LINE
  5
5B2
330
5B0
100
AcDbEntity
  8
1
  6
Continuous
 62
     3
100
AcDbLine
 10
262.500122
 20
-537.199951
 30
0.0
 11
297.637151726585
 21
-537.199951
 31
0.0
  0
LINE
  5
5B3
330
5B0
100
AcDbEntity
  8
1
  6
Continuous
 62
     3
100
AcDbLine
 10
277.848267
 20
-578.199707
 30
0.0
 11
279.120212564796
 21
-578.199707
 31
0.0
  0
LINE
  5
5B4
330
5B0
100
AcDbEntity
  8
1
  6
Continuous
 62
     3
100
AcDbLine
 10
287.381239313555
 20
-578.199707
 30
0.0
 11
297.637151726585
 21
-578.199707
 31
0.0
  0
SOLID
  5
5B5
330
5B0
100
AcDbEntity
  8
1
 62
     3
100
AcDbTrace
 10
296.0979354681409
 20
-540.699951
 30
0.0
 11
295.1763679850291
 21
-540.699951
 31
0.0
 12
295.637151726585
 22
-537.199951
 32
0.0
 13
295.637151726585
 23
-537.199951
 33
0.0
  0
SOLID
  5
5B6
330
5B0
100
AcDbEntity
  8
1
 62
     3
100
AcDbTrace
 10
295.1763679850291
 20
-574.699707
 30
0.0
 11
296.0979354681409
 21
-574.699707
 31
0.0
 12
295.637151726585
 22
-578.199707
 32
0.0
 13
295.637151726585
 23
-578.199707
 33
0.0
  0
MTEXT
  5
5B7
330
5B0
100
AcDbEntity
  8
1
 62
     4
100
AcDbMText
 10
293.637151726585
 20
-560.3692816527911
 30
0.0
 40
3.5
 41
0.0
 71
     7
 72
     1
  1
41
  7
CONVERTER_11
 11
0.0
 21
1.0
 31
0.0
 73
     1
 44
0.60024009603842
  0
ENDBLK
  5
5B9
330
5B0
100
AcDbEntity
  8
0
100
AcDbBlockEnd
  0
BLOCK
  5
5C3
330
5BC
100
AcDbEntity
  8
0
100
AcDbBlockBegin
  2
*D16
 70
     1
 71
     0
 10
0.0
 20
0.0
 30
0.0
  3
*D16
  1

  0
LINE
  5
5BD
330
5BC
100
AcDbEntity
  8
1
  6
Continuous
 62
     3
100
AcDbLine
 10
285.971413245773
 20
-587.199951
 30
0.0
 11
285.971413245773
 21
-569.199829
 31
0.0
  0
LINE
  5
5BE
330
5BC
100
AcDbEntity
  8
1
  6
Continuous
 62
     3
100
AcDbLine
 10
264.5
 20
-569.199829
 30
0.0
 11
287.971413245773
 21
-569.199829
 31
0.0
  0
LINE
  5
5BF
330
5BC
100
AcDbEntity
  8
1
  6
Continuous
 62
     3
100
AcDbLine
 10
264.5
 20
-587.199951
 30
0.0
 11
287.971413245773
 21
-587.199951
 31
0.0
  0
SOLID
  5
5C0
330
5BC
100
AcDbEntity
  8
1
 62
     3
100
AcDbTrace
 10
286.4321969873289
 20
-572.699829
 30
0.0
 11
285.5106295042171
 21
-572.699829
 31
0.0
 12
285.971413245773
 22
-569.199829
 32
0.0
 13
285.971413245773
 23
-569.199829
 33
0.0
  0
SOLID
  5
5C1
330
5BC
100
AcDbEntity
  8
1
 62
     3
100
AcDbTrace
 10
285.5106295042171
 20
-583.699951
 30
0.0
 11
286.4321969873289
 21
-583.699951
 31
0.0
 12
285.971413245773
 22
-587.199951
 32
0.0
 13
285.971413245773
 23
-587.199951
 33
0.0
  0
MTEXT
  5
5C2
330
5BC
100
AcDbEntity
  8
1
 62
     4
100
AcDbMText
 10
283.971413245773
 20
-584.19282562305
 30
0.0
 40
3.5
 41
0.0
 71
     7
 72
     1
  1
\C4;\U+00f8\C4;18
  7
CONVERTER_11
 11
0.0
 21
1.0
 31
0.0
 73
     1
 44
0.60024009603842
  0
ENDBLK
  5
5C4
330
5BC
100
AcDbEntity
  8
0
100
AcDbBlockEnd
  0
BLOCK
  5
5CF
330
5C7
100
AcDbEntity
  8
0
100
AcDbBlockBegin
  2
*D17
 70
     1
 71
     0
 10
0.0
 20
0.0
 30
0.0
  3
*D17
  1

  0
LINE
  5
5C8
330
5C7
100
AcDbEntity
  8
1
  6
Continuous
 62
     3
100
AcDbLine
 10
252.5
 20
-629.474922354528
 30
0.0
 11
264.5
 21
-629.474922354528
 31
0.0
  0
LINE
  5
5C9
330
5C7
100
AcDbEntity
  8
1
  6
Continuous
 62
     3
100
AcDbLine
 10
264.5
 20
-629.474922354528
 30
0.0
 11
294.021629136008
 21
-629.474922354528
 31
0.0
  0
LINE
  5
5CA
330
5C7
100
AcDbEntity
  8
1
  6
Continuous
 62
     3
100
AcDbLine
 10
252.5
 20
-619.199951
 30
0.0
 11
252.5
 21
-631.474922354528
 31
0.0
  0
LINE
  5
5CB
330
5C7
100
AcDbEntity
  8
1
  6
Continuous
 62
     3
100
AcDbLine
 10
264.5
 20
-619.199951
 30
0.0
 11
264.5
 21
-631.474922354528
 31
0.0
  0
SOLID
  5
5CC
330
5C7
100
AcDbEntity
  8
1
 62
     3
100
AcDbTrace
 10
256.0
 20
-629.014138612972
 30
0.0
 11
256.0
 21
-629.9357060960839
 31
0.0
 12
252.5
 22
-629.474922354528
 32
0.0
 13
252.5
 23
-629.474922354528
 33
0.0
  0
SOLID
  5
5CD
330
5C7
100
AcDbEntity
  8
1
 62
     3
100
AcDbTrace
 10
261.0
 20
-629.9357060960839
 30
0.0
 11
261.0
 21
-629.014138612972
 31
0.0
 12
264.5
 22
-629.474922354528
 32
0.0
 13
264.5
 23
-629.474922354528
 33
0.0
  0
MTEXT
  5
5CE
330
5C7
100
AcDbEntity
  8
1
 62
     4
100
AcDbMText
 10
268.121629136008
 20
-627.474922354528
 30
0.0
 40
3.5
 41
0.0
 71
     7
 72
     1
  1
10mm/12mm
  7
CONVERTER_11
 11
0.9999999999970619
 21
2.424068405545306E-6
 31
0.0
 73
     1
 44
0.60024009603842
  0
ENDBLK
  5
5D0
330
5C7
100
AcDbEntity
  8
0
100
AcDbBlockEnd
  0
BLOCK
  5
5DB
330
5D3
100
AcDbEntity
  8
0
100
AcDbBlockBegin
  2
*D18
 70
     1
 71
     0
 10
0.0
 20
0.0
 30
0.0
  3
*D18
  1

  0
LINE
  5
5D4
330
5D3
100
AcDbEntity
  8
1
  6
Continuous
 62
     3
100
AcDbLine
 10
452.499878
 20
-629.154701943952
 30
0.0
 11
464.499878
 21
-629.154701943952
 31
0.0
  0
LINE
  5
5D5
330
5D3
100
AcDbEntity
  8
1
  6
Continuous
 62
     3
100
AcDbLine
 10
452.499878
 20
-629.154701943952
 30
0.0
 11
424.46338434163
 21
-629.154701943952
 31
0.0
  0
LINE
  5
5D6
330
5D3
100
AcDbEntity
  8
1
  6
Continuous
 62
     3
100
AcDbLine
 10
452.499878
 20
-619.199829
 30
0.0
 11
452.499878
 21
-631.154701943952
 31
0.0
  0
LINE
  5
5D7
330
5D3
100
AcDbEntity
  8
1
  6
Continuous
 62
     3
100
AcDbLine
 10
464.499878
 20
-619.199829
 30
0.0
 11
464.499878
 21
-631.154701943952
 31
0.0
  0
SOLID
  5
5D8
330
5D3
100
AcDbEntity
  8
1
 62
     3
100
AcDbTrace
 10
455.999878
 20
-628.693918202396
 30
0.0
 11
455.999878
 21
-629.6154856855079
 31
0.0
 12
452.499878
 22
-629.154701943952
 32
0.0
 13
452.499878
 23
-629.154701943952
 33
0.0
  0
SOLID
  5
5D9
330
5D3
100
AcDbEntity
  8
1
 62
     3
100
AcDbTrace
 10
460.999878
 20
-629.6154856855079
 30
0.0
 11
460.999878
 21
-628.693918202396
 31
0.0
 12
464.499878
 22
-629.154701943952
 32
0.0
 13
464.499878
 23
-629.154701943952
 33
0.0
  0
MTEXT
  5
5DA
330
5D3
100
AcDbEntity
  8
1
 62
     4
100
AcDbMText
 10
424.46338434163
 20
-627.154701943952
 30
0.0
 40
3.5
 41
0.0
 71
     7
 72
     1
  1
10mm/12mm
  7
CONVERTER_11
 11
0.9999999999970619
 21
2.424068405545306E-6
 31
0.0
 73
     1
 44
0.60024009603842
  0
ENDBLK
  5
5DC
330
5D3
100
AcDbEntity
  8
0
100
AcDbBlockEnd
  0
BLOCK
  5
5E6
330
5DF
100
AcDbEntity
  8
0
100
AcDbBlockBegin
  2
*D19
 70
     1
 71
     0
 10
0.0
 20
0.0
 30
0.0
  3
*D19
  1

  0
LINE
  5
5E0
330
5DF
100
AcDbEntity
  8
1
  6
Continuous
 62
     3
100
AcDbLine
 10
485.75894975382
 20
-587.199585
 30
0.0
 11
485.75894975382
 21
-569.199585
 31
0.0
  0
LINE
  5
5E1
330
5DF
100
AcDbEntity
  8
1
  6
Continuous
 62
     3
100
AcDbLine
 10
464.499878
 20
-569.199585
 30
0.0
 11
487.75894975382
 21
-569.199585
 31
0.0
  0
LINE
  5
5E2
330
5DF
100
AcDbEntity
  8
1
  6
Continuous
 62
     3
100
AcDbLine
 10
464.499878
 20
-587.199585
 30
0.0
 11
487.75894975382
 21
-587.199585
 31
0.0
  0
SOLID
  5
5E3
330
5DF
100
AcDbEntity
  8
1
 62
     3
100
AcDbTrace
 10
486.2197334953759
 20
-572.699585
 30
0.0
 11
485.2981660122641
 21
-572.699585
 31
0.0
 12
485.75894975382
 22
-569.199585
 32
0.0
 13
485.75894975382
 23
-569.199585
 33
0.0
  0
SOLID
  5
5E4
330
5DF
100
AcDbEntity
  8
1
 62
     3
100
AcDbTrace
 10
485.2981660122641
 20
-583.699585
 30
0.0
 11
486.2197334953759
 21
-583.699585
 31
0.0
 12
485.75894975382
 22
-587.199585
 32
0.0
 13
485.75894975382
 23
-587.199585
 33
0.0
  0
MTEXT
  5
5E5
330
5DF
100
AcDbEntity
  8
1
 62
     4
100
AcDbMText
 10
483.75894975382
 20
-584.029786337229
 30
0.0
 40
3.5
 41
0.0
 71
     7
 72
     1
  1
\C4;\U+00f8\C4;18
  7
CONVERTER_11
 11
0.0
 21
1.0
 31
0.0
 73
     1
 44
0.60024009603842
  0
ENDBLK
  5
5E7
330
5DF
100
AcDbEntity
  8
0
100
AcDbBlockEnd
  0
BLOCK
  5
5F2
330
5EA
100
AcDbEntity
  8
0
100
AcDbBlockBegin
  2
*D20
 70
     1
 71
     0
 10
0.0
 20
0.0
 30
0.0
  3
*D20
  1

  0
LINE
  5
5EB
330
5EA
100
AcDbEntity
  8
1
  6
Continuous
 62
     3
100
AcDbLine
 10
496.761702172591
 20
-578.199585
 30
0.0
 11
496.761702172591
 21
-537.199829
 31
0.0
  0
LINE
  5
5EC
330
5EA
100
AcDbEntity
  8
1
  6
Continuous
 62
     3
100
AcDbLine
 10
460.450317
 20
-537.199829
 30
0.0
 11
498.761702172591
 21
-537.199829
 31
0.0
  0
LINE
  5
5ED
330
5EA
100
AcDbEntity
  8
1
  6
Continuous
 62
     3
100
AcDbLine
 10
477.848145
 20
-578.199585
 30
0.0
 11
479.340482245542
 21
-578.199585
 31
0.0
  0
LINE
  5
5EE
330
5EA
100
AcDbEntity
  8
1
  6
Continuous
 62
     3
100
AcDbLine
 10
487.584140797901
 20
-578.199585
 30
0.0
 11
498.761702172591
 21
-578.199585
 31
0.0
  0
SOLID
  5
5EF
330
5EA
100
AcDbEntity
  8
1
 62
     3
100
AcDbTrace
 10
496.3009184310351
 20
-574.699585
 30
0.0
 11
497.2224859141469
 21
-574.699585
 31
0.0
 12
496.761702172591
 22
-578.199585
 32
0.0
 13
496.761702172591
 23
-578.199585
 33
0.0
  0
SOLID
  5
5F0
330
5EA
100
AcDbEntity
  8
1
 62
     3
100
AcDbTrace
 10
497.2224859141469
 20
-540.699829
 30
0.0
 11
496.3009184310351
 21
-540.699829
 31
0.0
 12
496.761702172591
 22
-537.199829
 32
0.0
 13
496.761702172591
 23
-537.199829
 33
0.0
  0
MTEXT
  5
5F1
330
5EA
100
AcDbEntity
  8
1
 62
     4
100
AcDbMText
 10
494.761702172591
 20
-559.604971948777
 30
0.0
 40
3.5
 41
0.0
 71
     7
 72
     1
  1
41
  7
CONVERTER_11
 11
0.0
 21
1.0
 31
0.0
 73
     1
 44
0.60024009603842
  0
ENDBLK
  5
5F3
330
5EA
100
AcDbEntity
  8
0
100
AcDbBlockEnd
  0
ENDSEC
  0
SECTION
  2
ENTITIES
  0
INSERT
  5
54
330
1F
100
AcDbEntity
  8
1
100
AcDbBlockReference
  2
UEBERSICHT
 10
134.54627434169
 20
-466.424866
 30
0.0
 41
0.75
 42
0.75
 43
0.75
  0
INSERT
  5
55
330
1F
100
AcDbEntity
  8
0
100
AcDbBlockReference
  2
Top__1
 10
324.726228546284
 20
-413.573457
 30
0.0
  0
INSERT
  5
56
330
1F
100
AcDbEntity
  8
0
100
AcDbBlockReference
  2
Top__2
 10
694.3650197564
 20
-294.098228567975
 30
0.0
  0
INSERT
  5
57
330
1F
100
AcDbEntity
  8
0
100
AcDbBlockReference
  2
rahmen
 10
83.7784353741496
 20
-650.245869367347
 30
0.0
  0
POINT
  5
31D
330
1F
100
AcDbEntity
  8
1
 62
     3
 60
     1
100
AcDbPoint
 10
551.827720945826
 20
-646.155531761354
 30
0.0
  0
POINT
  5
31E
330
1F
100
AcDbEntity
  8
1
 62
     3
 60
     1
100
AcDbPoint
 10
559.827720945826
 20
-646.155531761354
 30
0.0
  0
LINE
  5
31F
330
1F
100
AcDbEntity
  8
1
  6
Continuous
 62
     1
100
AcDbLine
 10
253.5003122330812
 20
-582.199951
 30
0.0
 11
253.500305
 21
-585.699829
 31
0.0
  0
LINE
  5
320
330
1F
100
AcDbEntity
  8
1
  6
Continuous
 62
     1
100
AcDbLine
 10
263.500305
 20
-572.699951
 30
0.0
 11
263.500305
 21
-570.699829
 31
0.0
  0
LINE
  5
321
330
1F
100
AcDbEntity
  8
1
  6
Continuous
 62
     1
100
AcDbLine
 10
263.500305
 20
-585.699829
 30
0.0
 11
263.500305
 21
-583.699951
 31
0.0
  0
LINE
  5
322
330
1F
100
AcDbEntity
  8
1
  6
Continuous
 62
     1
100
AcDbLine
 10
253.500336
 20
-570.699829
 30
0.0
 11
253.5003287664145
 21
-574.199951
 31
0.0
  0
LINE
  5
323
330
1F
100
AcDbEntity
  8
1
  6
Continuous
 62
     1
100
AcDbLine
 10
209.800336
 20
-532.700073
 30
0.0
 11
209.800336
 21
-527.700073
 31
0.0
  0
LINE
  5
324
330
1F
100
AcDbEntity
  8
1
  6
Continuous
 62
     1
100
AcDbLine
 10
235.0
 20
-527.700073
 30
0.0
 11
209.800336
 21
-527.700073
 31
0.0
  0
LINE
  5
325
330
1F
100
AcDbEntity
  8
1
  6
Continuous
 62
     1
100
AcDbLine
 10
235.0
 20
-532.700073
 30
0.0
 11
209.800336
 21
-532.700073
 31
0.0
  0
LINE
  5
326
330
1F
100
AcDbEntity
  8
0
  6
Continuous
 62
     1
100
AcDbLine
 10
239.5
 20
-476.699951
 30
0.0
 11
239.5
 21
-490.900146
 31
0.0
  0
LINE
  5
327
330
1F
100
AcDbEntity
  8
1
  6
Continuous
 62
     4
100
AcDbLine
 10
201.1460482206655
 20
-602.8171371600861
 30
0.0
 11
201.3170582923285
 21
-603.2869834704791
 31
0.0
  0
LINE
  5
328
330
1F
100
AcDbEntity
  8
1
  6
Continuous
 62
     4
100
AcDbLine
 10
201.3170582923285
 20
-603.2869834704791
 30
0.0
 11
199.8898836002158
 21
-603.8064325775051
 31
0.0
  0
LINE
  5
329
330
1F
100
AcDbEntity
  8
1
  6
Continuous
 62
     4
100
AcDbLine
 10
199.9512408340899
 20
-543.5700806759639
 30
0.0
 11
201.3784155262026
 21
-544.0895297829911
 31
0.0
  0
LINE
  5
32A
330
1F
100
AcDbEntity
  8
1
  6
Continuous
 62
     4
100
AcDbLine
 10
201.3784155262026
 20
-544.0895297829911
 30
0.0
 11
201.2074054545398
 21
-544.5593760933841
 31
0.0
  0
LINE
  5
32B
330
1F
100
AcDbEntity
  8
1
  6
Continuous
 62
     4
100
AcDbLine
 10
201.2074054545398
 20
-544.5593760933841
 30
0.0
 11
199.7802307624272
 21
-544.0399269863581
 31
0.0
  0
LINE
  5
32C
330
1F
100
AcDbEntity
  8
1
  6
Continuous
 62
     4
100
AcDbLine
 10
199.7188735285531
 20
-603.3365862671119
 30
0.0
 11
201.1460482206655
 21
-602.8171371600861
 31
0.0
  0
LINE
  5
32D
330
1F
100
AcDbEntity
  8
1
  6
DASH_CENTER
 62
     3
100
AcDbLine
 10
195.4314194720971
 20
-596.200073
 30
0.0
 11
252.2504354514865
 21
-596.200073
 31
0.0
  0
LINE
  5
32E
330
1F
100
AcDbEntity
  8
1
  6
DASH_CENTER
 62
     3
100
AcDbLine
 10
195.4314194720971
 20
-552.200073
 30
0.0
 11
252.5001456019585
 21
-552.200073
 31
0.0
  0
LINE
  5
32F
330
1F
100
AcDbEntity
  8
1
  6
DASH_CENTER
 62
     3
100
AcDbLine
 10
244.0482531948525
 20
-574.200073
 30
0.0
 11
198.38625047538
 21
-574.200073
 31
0.0
  0
LINE
  5
330
330
1F
100
AcDbEntity
  8
0
  6
Continuous
 62
     1
100
AcDbLine
 10
239.5
 20
-505.7000119999999
 30
0.0
 11
239.5
 21
-522.400024
 31
0.0
  0
LINE
  5
331
330
1F
100
AcDbEntity
  8
0
  6
Continuous
 62
     1
100
AcDbLine
 10
210.5
 20
-503.7000119999999
 30
0.0
 11
237.5
 21
-503.7000119999999
 31
0.0
  0
LINE
  5
332
330
1F
100
AcDbEntity
  8
0
  6
Continuous
 62
     1
100
AcDbLine
 10
208.5
 20
-522.400024
 30
0.0
 11
208.5
 21
-505.7000119999999
 31
0.0
  0
LINE
  5
333
330
1F
100
AcDbEntity
  8
0
  6
Continuous
 62
     1
100
AcDbLine
 10
237.5
 20
-524.400024
 30
0.0
 11
210.5
 21
-524.400024
 31
0.0
  0
LINE
  5
334
330
1F
100
AcDbEntity
  8
0
  6
Continuous
 62
     3
100
AcDbLine
 10
232.0
 20
-514.599976
 30
0.0
 11
232.0
 21
-512.699951
 31
0.0
  0
LINE
  5
335
330
1F
100
AcDbEntity
  8
0
  6
Continuous
 62
     3
100
AcDbLine
 10
236.2000130000001
 20
-514.9000240000001
 30
0.0
 11
232.3000030000001
 21
-514.9000240000001
 31
0.0
  0
LINE
  5
336
330
1F
100
AcDbEntity
  8
0
  6
DASHED
 62
     3
100
AcDbLine
 10
236.5
 20
-521.599976
 30
0.0
 11
236.5
 21
-515.2000119999999
 31
0.0
  0
LINE
  5
337
330
1F
100
AcDbEntity
  8
0
  6
Continuous
 62
     3
100
AcDbLine
 10
233.8000030000001
 20
-521.900024
 30
0.0
 11
236.2000130000001
 21
-521.900024
 31
0.0
  0
LINE
  5
338
330
1F
100
AcDbEntity
  8
0
  6
Continuous
 62
     3
100
AcDbLine
 10
236.2000130000001
 20
-512.3999630000001
 30
0.0
 11
232.3000030000001
 21
-512.3999630000001
 31
0.0
  0
LINE
  5
339
330
1F
100
AcDbEntity
  8
0
  6
DASHED
 62
     3
100
AcDbLine
 10
236.5
 20
-507.0
 30
0.0
 11
236.5
 21
-512.0999149999999
 31
0.0
  0
LINE
  5
33A
330
1F
100
AcDbEntity
  8
0
  6
DASHED
 62
     3
100
AcDbLine
 10
211.8000030000001
 20
-506.7000119999999
 30
0.0
 11
236.2000130000001
 21
-506.7000119999999
 31
0.0
  0
LINE
  5
33B
330
1F
100
AcDbEntity
  8
0
  6
Continuous
 62
     3
100
AcDbLine
 10
216.0
 20
-512.699951
 30
0.0
 11
216.0
 21
-514.599976
 31
0.0
  0
LINE
  5
33C
330
1F
100
AcDbEntity
  8
0
  6
Continuous
 62
     3
100
AcDbLine
 10
211.8000030000001
 20
-512.3999630000001
 30
0.0
 11
215.7000130000001
 21
-512.3999630000001
 31
0.0
  0
LINE
  5
33D
330
1F
100
AcDbEntity
  8
0
  6
DASHED
 62
     3
100
AcDbLine
 10
211.5
 20
-507.0
 30
0.0
 11
211.5
 21
-512.0999149999999
 31
0.0
  0
LINE
  5
33E
330
1F
100
AcDbEntity
  8
0
  6
Continuous
 62
     3
100
AcDbLine
 10
211.8000030000001
 20
-514.9000240000001
 30
0.0
 11
215.7000130000001
 21
-514.9000240000001
 31
0.0
  0
LINE
  5
33F
330
1F
100
AcDbEntity
  8
0
  6
DASHED
 62
     3
100
AcDbLine
 10
211.5
 20
-521.599976
 30
0.0
 11
211.5
 21
-515.2000119999999
 31
0.0
  0
LINE
  5
340
330
1F
100
AcDbEntity
  8
0
  6
Continuous
 62
     3
100
AcDbLine
 10
214.2000130000001
 20
-521.900024
 30
0.0
 11
211.8000030000001
 21
-521.900024
 31
0.0
  0
LINE
  5
341
330
1F
100
AcDbEntity
  8
0
  6
Continuous
 62
     3
100
AcDbLine
 10
214.5
 20
-523.900024
 30
0.0
 11
214.5
 21
-522.200012
 31
0.0
  0
LINE
  5
342
330
1F
100
AcDbEntity
  8
0
  6
Continuous
 62
     3
100
AcDbLine
 10
233.5
 20
-523.900024
 30
0.0
 11
233.5
 21
-522.200012
 31
0.0
  0
LINE
  5
343
330
1F
100
AcDbEntity
  8
0
  6
Continuous
 62
     4
100
AcDbLine
 10
204.550336
 20
-604.386841
 30
0.0
 11
204.550336
 21
-603.950073
 31
0.0
  0
LINE
  5
344
330
1F
100
AcDbEntity
  8
0
  6
Continuous
 62
     4
100
AcDbLine
 10
237.0504579999999
 20
-604.386841
 30
0.0
 11
237.0504579999999
 21
-603.950073
 31
0.0
  0
LINE
  5
345
330
1F
100
AcDbEntity
  8
0
  6
Continuous
 62
     4
100
AcDbLine
 10
237.0504579999999
 20
-604.386841
 30
0.0
 11
204.550336
 21
-604.386841
 31
0.0
  0
LINE
  5
346
330
1F
100
AcDbEntity
  8
0
  6
Continuous
 62
     1
100
AcDbLine
 10
212.8004579999999
 20
-609.150024
 30
0.0
 11
204.550336
 21
-604.386841
 31
0.0
  0
LINE
  5
347
330
1F
100
AcDbEntity
  8
0
  6
Continuous
 62
     1
100
AcDbLine
 10
228.8004579999999
 20
-609.150024
 30
0.0
 11
237.0504579999999
 21
-604.386841
 31
0.0
  0
LINE
  5
348
330
1F
100
AcDbEntity
  8
0
  6
Continuous
 62
     1
100
AcDbLine
 10
212.8004579999999
 20
-609.150024
 30
0.0
 11
228.8004579999999
 21
-609.150024
 31
0.0
  0
LINE
  5
349
330
1F
100
AcDbEntity
  8
0
  6
DASH_CENTER
 62
     3
100
AcDbLine
 10
224.0
 20
-536.700073
 30
0.0
 11
224.0
 21
-519.7691649999999
 31
0.0
  0
LINE
  5
34A
330
1F
100
AcDbEntity
  8
1
  6
DOT_CENTER
 62
     3
100
AcDbLine
 10
220.800336
 20
-611.7283281418199
 30
0.0
 11
220.800336
 21
-526.13217861571
 31
0.0
  0
LINE
  5
34B
330
1F
100
AcDbEntity
  8
1
  6
DASH_CENTER
 62
     3
100
AcDbLine
 10
200.550415
 20
-575.700073
 30
0.0
 11
244.0482531948525
 21
-575.700073
 31
0.0
  0
LINE
  5
34C
330
1F
100
AcDbEntity
  8
1
  6
DOT_CENTER
 62
     3
100
AcDbLine
 10
206.800336
 20
-571.200073
 30
0.0
 11
206.800336
 21
-580.200073
 31
0.0
  0
LINE
  5
34D
330
1F
100
AcDbEntity
  8
1
  6
DOT_CENTER
 62
     3
100
AcDbLine
 10
234.800336
 20
-571.200073
 30
0.0
 11
234.800336
 21
-580.200073
 31
0.0
  0
LINE
  5
34E
330
1F
100
AcDbEntity
  8
1
  6
Continuous
 62
     1
100
AcDbLine
 10
201.8424555459344
 20
-543.950073
 30
0.0
 11
242.300336
 21
-543.950073
 31
0.0
  0
LINE
  5
34F
330
1F
100
AcDbEntity
  8
1
  6
Continuous
 62
     1
100
AcDbLine
 10
201.4016772578118
 20
-602.6900911010491
 30
0.0
 11
200.0502214548994
 21
-603.181980786236
 31
0.0
  0
LINE
  5
350
330
1F
100
AcDbEntity
  8
1
  6
Continuous
 62
     1
100
AcDbLine
 10
201.860273164744
 20
-603.950073
 30
0.0
 11
201.4016772578118
 21
-602.6900911010491
 31
0.0
  0
LINE
  5
351
330
1F
100
AcDbEntity
  8
1
  6
Continuous
 62
     1
100
AcDbLine
 10
242.300336
 20
-603.950073
 30
0.0
 11
201.860273164744
 21
-603.950073
 31
0.0
  0
LINE
  5
352
330
1F
100
AcDbEntity
  8
1
  6
Continuous
 62
     1
100
AcDbLine
 10
201.5562728673169
 20
-544.7363534473411
 30
0.0
 11
200.1325623965376
 21
-544.218165213764
 31
0.0
  0
LINE
  5
353
330
1F
100
AcDbEntity
  8
1
  6
Continuous
 62
     1
100
AcDbLine
 10
201.8424555459344
 20
-543.950073
 30
0.0
 11
201.5562728673169
 21
-544.7363534473411
 31
0.0
  0
LINE
  5
354
330
1F
100
AcDbEntity
  8
1
  6
Continuous
 62
     1
100
AcDbLine
 10
233.3
 20
-524.5103807898929
 30
0.0
 11
214.7
 21
-524.5103807898929
 31
0.0
  0
LINE
  5
355
330
1F
100
AcDbEntity
  8
1
  6
Continuous
 62
     1
100
AcDbLine
 10
214.7
 20
-524.5103807898929
 30
0.0
 11
214.7
 21
-524.400024
 31
0.0
  0
LINE
  5
356
330
1F
100
AcDbEntity
  8
1
  6
Continuous
 62
     1
100
AcDbLine
 10
233.3
 20
-524.400024
 30
0.0
 11
233.3
 21
-524.5103807898929
 31
0.0
  0
LINE
  5
357
330
1F
100
AcDbEntity
  8
1
  6
Continuous
 62
     4
100
AcDbLine
 10
223.5
 20
-526.5103807898929
 30
0.0
 11
223.5
 21
-524.5103807898929
 31
0.0
  0
LINE
  5
358
330
1F
100
AcDbEntity
  8
1
  6
Continuous
 62
     1
100
AcDbLine
 10
230.6197425412881
 20
-526.1813908615561
 30
0.0
 11
231.227940468533
 21
-524.5103807898929
 31
0.0
  0
LINE
  5
359
330
1F
100
AcDbEntity
  8
1
  6
Continuous
 62
     1
100
AcDbLine
 10
216.7720595314681
 20
-524.5103807898929
 30
0.0
 11
217.3802574587121
 21
-526.1813908615561
 31
0.0
  0
LINE
  5
35A
330
1F
100
AcDbEntity
  8
1
  6
Continuous
 62
     4
100
AcDbLine
 10
224.5
 20
-524.5103807898929
 30
0.0
 11
224.5
 21
-526.5103807898929
 31
0.0
  0
LINE
  5
35B
330
1F
100
AcDbEntity
  8
1
  6
Continuous
 62
     4
100
AcDbLine
 10
219.0638709144509
 20
-526.5103807898929
 30
0.0
 11
218.547934708793
 21
-524.5103807898929
 31
0.0
  0
LINE
  5
35C
330
1F
100
AcDbEntity
  8
1
  6
Continuous
 62
     4
100
AcDbLine
 10
219.7709776956381
 20
-526.5103807898929
 30
0.0
 11
219.2550414899802
 21
-524.5103807898929
 31
0.0
  0
LINE
  5
35D
330
1F
100
AcDbEntity
  8
1
  6
Continuous
 62
     1
100
AcDbLine
 10
223.5
 20
-526.5103807898929
 30
0.0
 11
217.8501037691051
 21
-526.5103807898929
 31
0.0
  0
LINE
  5
35E
330
1F
100
AcDbEntity
  8
1
  6
Continuous
 62
     1
100
AcDbLine
 10
230.1498962308951
 20
-526.5103807898929
 30
0.0
 11
224.5
 21
-526.5103807898929
 31
0.0
  0
LINE
  5
35F
330
1F
100
AcDbEntity
  8
1
  6
Continuous
 62
     4
100
AcDbLine
 10
229.452065291207
 20
-524.5103807898929
 30
0.0
 11
228.9361290855491
 21
-526.5103807898929
 31
0.0
  0
LINE
  5
360
330
1F
100
AcDbEntity
  8
1
  6
Continuous
 62
     4
100
AcDbLine
 10
228.744958510021
 20
-524.5103807898929
 30
0.0
 11
228.2290223043631
 21
-526.5103807898929
 31
0.0
  0
LINE
  5
361
330
1F
100
AcDbEntity
  8
1
  6
Continuous
 62
     1
100
AcDbLine
 10
220.25
 20
-527.700073
 30
0.0
 11
220.25
 21
-526.5103807898929
 31
0.0
  0
LINE
  5
362
330
1F
100
AcDbEntity
  8
1
  6
Continuous
 62
     1
100
AcDbLine
 10
227.75
 20
-526.5103807898929
 30
0.0
 11
227.75
 21
-527.700073
 31
0.0
  0
LINE
  5
363
330
1F
100
AcDbEntity
  8
1
  6
Continuous
 62
     1
100
AcDbLine
 10
235.0
 20
-532.700073
 30
0.0
 11
235.0
 21
-527.700073
 31
0.0
  0
LINE
  5
364
330
1F
100
AcDbEntity
  8
1
  6
Continuous
 62
     1
100
AcDbLine
 10
227.0
 20
-533.700073
 30
0.0
 11
228.0
 21
-532.700073
 31
0.0
  0
LINE
  5
365
330
1F
100
AcDbEntity
  8
1
  6
Continuous
 62
     1
100
AcDbLine
 10
221.0
 20
-533.700073
 30
0.0
 11
227.0
 21
-533.700073
 31
0.0
  0
LINE
  5
366
330
1F
100
AcDbEntity
  8
1
  6
Continuous
 62
     1
100
AcDbLine
 10
220.0
 20
-532.700073
 30
0.0
 11
221.0
 21
-533.700073
 31
0.0
  0
LINE
  5
367
330
1F
100
AcDbEntity
  8
1
  6
Continuous
 62
     1
100
AcDbLine
 10
209.800336
 20
-535.6641746151381
 30
0.0
 11
231.800336
 21
-535.6641746151381
 31
0.0
  0
LINE
  5
368
330
1F
100
AcDbEntity
  8
1
  6
Continuous
 62
     1
100
AcDbLine
 10
231.300336
 20
-543.200073
 30
0.0
 11
231.300336
 21
-543.950073
 31
0.0
  0
LINE
  5
369
330
1F
100
AcDbEntity
  8
1
  6
Continuous
 62
     1
100
AcDbLine
 10
231.800336
 20
-542.700073
 30
0.0
 11
231.300336
 21
-543.200073
 31
0.0
  0
LINE
  5
36A
330
1F
100
AcDbEntity
  8
1
  6
Continuous
 62
     1
100
AcDbLine
 10
231.800336
 20
-535.6641746151381
 30
0.0
 11
231.800336
 21
-542.700073
 31
0.0
  0
LINE
  5
36B
330
1F
100
AcDbEntity
  8
1
  6
Continuous
 62
     1
100
AcDbLine
 10
209.800336
 20
-542.700073
 30
0.0
 11
209.800336
 21
-535.6641746151381
 31
0.0
  0
LINE
  5
36C
330
1F
100
AcDbEntity
  8
1
  6
Continuous
 62
     1
100
AcDbLine
 10
210.300336
 20
-543.200073
 30
0.0
 11
209.800336
 21
-542.700073
 31
0.0
  0
LINE
  5
36D
330
1F
100
AcDbEntity
  8
1
  6
Continuous
 62
     4
100
AcDbLine
 10
231.300336
 20
-543.200073
 30
0.0
 11
210.300336
 21
-543.200073
 31
0.0
  0
LINE
  5
36E
330
1F
100
AcDbEntity
  8
1
  6
Continuous
 62
     4
100
AcDbLine
 10
209.800336
 20
-542.700073
 30
0.0
 11
231.800336
 21
-542.700073
 31
0.0
  0
LINE
  5
36F
330
1F
100
AcDbEntity
  8
1
  6
Continuous
 62
     1
100
AcDbLine
 10
210.300336
 20
-543.950073
 30
0.0
 11
210.300336
 21
-543.200073
 31
0.0
  0
LINE
  5
370
330
1F
100
AcDbEntity
  8
1
  6
Continuous
 62
     1
100
AcDbLine
 10
231.800336
 20
-535.6641746151381
 30
0.0
 11
230.3776862691902
 21
-533.200073
 31
0.0
  0
LINE
  5
371
330
1F
100
AcDbEntity
  8
1
  6
Continuous
 62
     1
100
AcDbLine
 10
212.800415
 20
-527.700073
 30
0.0
 11
212.800415
 21
-532.700073
 31
0.0
  0
LINE
  5
372
330
1F
100
AcDbEntity
  8
1
  6
Continuous
 62
     1
100
AcDbLine
 10
211.22298573081
 20
-533.200073
 30
0.0
 11
209.800336
 21
-535.6641746151381
 31
0.0
  0
LINE
  5
373
330
1F
100
AcDbEntity
  8
1
  6
Continuous
 62
     4
100
AcDbLine
 10
401.1455902206656
 20
-602.8170151600862
 30
0.0
 11
401.3166002923285
 21
-603.2868614704792
 31
0.0
  0
LINE
  5
374
330
1F
100
AcDbEntity
  8
1
  6
Continuous
 62
     4
100
AcDbLine
 10
401.3166002923285
 20
-603.2868614704792
 30
0.0
 11
399.8894256002159
 21
-603.8063105775052
 31
0.0
  0
LINE
  5
375
330
1F
100
AcDbEntity
  8
1
  6
Continuous
 62
     4
100
AcDbLine
 10
399.9507828340899
 20
-543.569958675964
 30
0.0
 11
401.3779575262026
 21
-544.0894077829912
 31
0.0
  0
LINE
  5
376
330
1F
100
AcDbEntity
  8
1
  6
Continuous
 62
     4
100
AcDbLine
 10
401.3779575262026
 20
-544.0894077829912
 30
0.0
 11
401.2069474545398
 21
-544.5592540933842
 31
0.0
  0
LINE
  5
377
330
1F
100
AcDbEntity
  8
1
  6
Continuous
 62
     4
100
AcDbLine
 10
401.2069474545398
 20
-544.5592540933842
 30
0.0
 11
399.7797727624272
 21
-544.0398049863581
 31
0.0
  0
LINE
  5
378
330
1F
100
AcDbEntity
  8
1
  6
Continuous
 62
     4
100
AcDbLine
 10
399.7184155285531
 20
-603.336464267112
 30
0.0
 11
401.1455902206656
 21
-602.8170151600862
 31
0.0
  0
LINE
  5
379
330
1F
100
AcDbEntity
  8
1
  6
DASH_CENTER
 62
     3
100
AcDbLine
 10
395.4309614720971
 20
-596.199951
 30
0.0
 11
447.6363702943431
 21
-596.199951
 31
0.0
  0
LINE
  5
37A
330
1F
100
AcDbEntity
  8
1
  6
DASH_CENTER
 62
     3
100
AcDbLine
 10
395.4309614720971
 20
-552.199951
 30
0.0
 11
447.7545448960281
 21
-552.199951
 31
0.0
  0
LINE
  5
37B
330
1F
100
AcDbEntity
  8
1
  6
DASH_CENTER
 62
     3
100
AcDbLine
 10
444.049878
 20
-574.199951
 30
0.0
 11
395.38571347538
 21
-574.199951
 31
0.0
  0
LINE
  5
37C
330
1F
100
AcDbEntity
  8
0
  6
Continuous
 62
     1
100
AcDbLine
 10
439.5
 20
-505.69989
 30
0.0
 11
439.5
 21
-522.3999020000001
 31
0.0
  0
LINE
  5
37D
330
1F
100
AcDbEntity
  8
0
  6
Continuous
 62
     1
100
AcDbLine
 10
410.5
 20
-503.69989
 30
0.0
 11
437.5
 21
-503.69989
 31
0.0
  0
LINE
  5
37E
330
1F
100
AcDbEntity
  8
0
  6
Continuous
 62
     1
100
AcDbLine
 10
408.5
 20
-522.3999020000001
 30
0.0
 11
408.5
 21
-505.69989
 31
0.0
  0
LINE
  5
37F
330
1F
100
AcDbEntity
  8
0
  6
Continuous
 62
     1
100
AcDbLine
 10
437.5
 20
-524.3999020000001
 30
0.0
 11
410.5
 21
-524.3999020000001
 31
0.0
  0
LINE
  5
380
330
1F
100
AcDbEntity
  8
0
  6
Continuous
 62
     3
100
AcDbLine
 10
432.0
 20
-514.599854
 30
0.0
 11
432.0
 21
-512.6998290000001
 31
0.0
  0
LINE
  5
381
330
1F
100
AcDbEntity
  8
0
  6
Continuous
 62
     3
100
AcDbLine
 10
436.2000130000001
 20
-514.8999020000002
 30
0.0
 11
432.3000030000001
 21
-514.8999020000002
 31
0.0
  0
LINE
  5
382
330
1F
100
AcDbEntity
  8
0
  6
DASHED
 62
     3
100
AcDbLine
 10
436.5
 20
-521.599854
 30
0.0
 11
436.5
 21
-515.19989
 31
0.0
  0
LINE
  5
383
330
1F
100
AcDbEntity
  8
0
  6
Continuous
 62
     3
100
AcDbLine
 10
433.8000030000001
 20
-521.8999020000001
 30
0.0
 11
436.2000130000001
 21
-521.8999020000001
 31
0.0
  0
LINE
  5
384
330
1F
100
AcDbEntity
  8
0
  6
Continuous
 62
     3
100
AcDbLine
 10
436.2000130000001
 20
-512.3998410000002
 30
0.0
 11
432.3000030000001
 21
-512.3998410000002
 31
0.0
  0
LINE
  5
385
330
1F
100
AcDbEntity
  8
0
  6
DASHED
 62
     3
100
AcDbLine
 10
436.5
 20
-506.9998780000001
 30
0.0
 11
436.5
 21
-512.099793
 31
0.0
  0
LINE
  5
386
330
1F
100
AcDbEntity
  8
0
  6
DASHED
 62
     3
100
AcDbLine
 10
411.8000030000001
 20
-506.69989
 30
0.0
 11
436.2000130000001
 21
-506.69989
 31
0.0
  0
LINE
  5
387
330
1F
100
AcDbEntity
  8
0
  6
Continuous
 62
     3
100
AcDbLine
 10
416.0
 20
-512.6998290000001
 30
0.0
 11
416.0
 21
-514.599854
 31
0.0
  0
LINE
  5
388
330
1F
100
AcDbEntity
  8
0
  6
Continuous
 62
     3
100
AcDbLine
 10
411.8000030000001
 20
-512.3998410000002
 30
0.0
 11
415.7000130000001
 21
-512.3998410000002
 31
0.0
  0
LINE
  5
389
330
1F
100
AcDbEntity
  8
0
  6
DASHED
 62
     3
100
AcDbLine
 10
411.5
 20
-506.9998780000001
 30
0.0
 11
411.5
 21
-512.099793
 31
0.0
  0
LINE
  5
38A
330
1F
100
AcDbEntity
  8
0
  6
Continuous
 62
     3
100
AcDbLine
 10
411.8000030000001
 20
-514.8999020000002
 30
0.0
 11
415.7000130000001
 21
-514.8999020000002
 31
0.0
  0
LINE
  5
38B
330
1F
100
AcDbEntity
  8
0
  6
DASHED
 62
     3
100
AcDbLine
 10
411.5
 20
-521.599854
 30
0.0
 11
411.5
 21
-515.19989
 31
0.0
  0
LINE
  5
38C
330
1F
100
AcDbEntity
  8
0
  6
Continuous
 62
     3
100
AcDbLine
 10
414.2000130000001
 20
-521.8999020000001
 30
0.0
 11
411.8000030000001
 21
-521.8999020000001
 31
0.0
  0
LINE
  5
38D
330
1F
100
AcDbEntity
  8
0
  6
Continuous
 62
     3
100
AcDbLine
 10
414.5
 20
-523.8999020000001
 30
0.0
 11
414.5
 21
-522.1998900000001
 31
0.0
  0
LINE
  5
38E
330
1F
100
AcDbEntity
  8
0
  6
Continuous
 62
     3
100
AcDbLine
 10
433.5
 20
-523.8999020000001
 30
0.0
 11
433.5
 21
-522.1998900000001
 31
0.0
  0
LINE
  5
38F
330
1F
100
AcDbEntity
  8
0
  6
Continuous
 62
     4
100
AcDbLine
 10
404.549878
 20
-604.3867190000001
 30
0.0
 11
404.549878
 21
-603.949951
 31
0.0
  0
LINE
  5
390
330
1F
100
AcDbEntity
  8
0
  6
Continuous
 62
     4
100
AcDbLine
 10
437.05
 20
-604.3867190000001
 30
0.0
 11
437.05
 21
-603.949951
 31
0.0
  0
LINE
  5
391
330
1F
100
AcDbEntity
  8
0
  6
Continuous
 62
     4
100
AcDbLine
 10
437.05
 20
-604.3867190000001
 30
0.0
 11
404.549878
 21
-604.3867190000001
 31
0.0
  0
LINE
  5
392
330
1F
100
AcDbEntity
  8
0
  6
Continuous
 62
     1
100
AcDbLine
 10
412.8
 20
-609.1499020000001
 30
0.0
 11
404.549878
 21
-604.3867190000001
 31
0.0
  0
LINE
  5
393
330
1F
100
AcDbEntity
  8
0
  6
Continuous
 62
     1
100
AcDbLine
 10
428.8
 20
-609.1499020000001
 30
0.0
 11
437.05
 21
-604.3867190000001
 31
0.0
  0
LINE
  5
394
330
1F
100
AcDbEntity
  8
0
  6
Continuous
 62
     1
100
AcDbLine
 10
412.8
 20
-609.1499020000001
 30
0.0
 11
428.8
 21
-609.1499020000001
 31
0.0
  0
LINE
  5
395
330
1F
100
AcDbEntity
  8
0
  6
DASH_CENTER
 62
     3
100
AcDbLine
 10
424.0
 20
-536.699951
 30
0.0
 11
424.0
 21
-519.769043
 31
0.0
  0
LINE
  5
396
330
1F
100
AcDbEntity
  8
1
  6
DOT_CENTER
 62
     3
100
AcDbLine
 10
420.799878
 20
-611.72820614182
 30
0.0
 11
420.799878
 21
-526.1320566157101
 31
0.0
  0
LINE
  5
397
330
1F
100
AcDbEntity
  8
1
  6
DASH_CENTER
 62
     3
100
AcDbLine
 10
397.549878
 20
-575.699951
 30
0.0
 11
444.049878
 21
-575.699951
 31
0.0
  0
LINE
  5
398
330
1F
100
AcDbEntity
  8
1
  6
DOT_CENTER
 62
     3
100
AcDbLine
 10
406.799878
 20
-571.199951
 30
0.0
 11
406.799878
 21
-580.199951
 31
0.0
  0
LINE
  5
399
330
1F
100
AcDbEntity
  8
1
  6
DOT_CENTER
 62
     3
100
AcDbLine
 10
434.799878
 20
-571.199951
 30
0.0
 11
434.799878
 21
-580.199951
 31
0.0
  0
LINE
  5
39A
330
1F
100
AcDbEntity
  8
1
  6
Continuous
 62
     1
100
AcDbLine
 10
401.8419975459345
 20
-543.949951
 30
0.0
 11
442.299878
 21
-543.949951
 31
0.0
  0
LINE
  5
39B
330
1F
100
AcDbEntity
  8
1
  6
Continuous
 62
     1
100
AcDbLine
 10
401.4012192578119
 20
-602.6899691010492
 30
0.0
 11
400.0497634548994
 21
-603.181858786236
 31
0.0
  0
LINE
  5
39C
330
1F
100
AcDbEntity
  8
1
  6
Continuous
 62
     1
100
AcDbLine
 10
401.859815164744
 20
-603.949951
 30
0.0
 11
401.4012192578119
 21
-602.6899691010492
 31
0.0
  0
LINE
  5
39D
330
1F
100
AcDbEntity
  8
1
  6
Continuous
 62
     1
100
AcDbLine
 10
442.299878
 20
-603.949951
 30
0.0
 11
401.859815164744
 21
-603.949951
 31
0.0
  0
LINE
  5
39E
330
1F
100
AcDbEntity
  8
1
  6
Continuous
 62
     1
100
AcDbLine
 10
401.5558148673169
 20
-544.7362314473412
 30
0.0
 11
400.1321043965377
 21
-544.2180432137641
 31
0.0
  0
LINE
  5
39F
330
1F
100
AcDbEntity
  8
1
  6
Continuous
 62
     1
100
AcDbLine
 10
401.8419975459345
 20
-543.949951
 30
0.0
 11
401.5558148673169
 21
-544.7362314473412
 31
0.0
  0
LINE
  5
3A0
330
1F
100
AcDbEntity
  8
1
  6
Continuous
 62
     1
100
AcDbLine
 10
433.3
 20
-524.510258789893
 30
0.0
 11
414.7
 21
-524.510258789893
 31
0.0
  0
LINE
  5
3A1
330
1F
100
AcDbEntity
  8
1
  6
Continuous
 62
     1
100
AcDbLine
 10
414.7
 20
-524.510258789893
 30
0.0
 11
414.7
 21
-524.3999020000001
 31
0.0
  0
LINE
  5
3A2
330
1F
100
AcDbEntity
  8
1
  6
Continuous
 62
     1
100
AcDbLine
 10
433.3
 20
-524.3999020000001
 30
0.0
 11
433.3
 21
-524.510258789893
 31
0.0
  0
LINE
  5
3A3
330
1F
100
AcDbEntity
  8
1
  6
Continuous
 62
     4
100
AcDbLine
 10
423.5
 20
-526.510258789893
 30
0.0
 11
423.5
 21
-524.510258789893
 31
0.0
  0
LINE
  5
3A4
330
1F
100
AcDbEntity
  8
1
  6
Continuous
 62
     1
100
AcDbLine
 10
430.6197425412881
 20
-526.1812688615562
 30
0.0
 11
431.227940468533
 21
-524.510258789893
 31
0.0
  0
LINE
  5
3A5
330
1F
100
AcDbEntity
  8
1
  6
Continuous
 62
     1
100
AcDbLine
 10
416.7720595314681
 20
-524.510258789893
 30
0.0
 11
417.3802574587121
 21
-526.1812688615562
 31
0.0
  0
LINE
  5
3A6
330
1F
100
AcDbEntity
  8
1
  6
Continuous
 62
     4
100
AcDbLine
 10
424.5
 20
-524.510258789893
 30
0.0
 11
424.5
 21
-526.510258789893
 31
0.0
  0
LINE
  5
3A7
330
1F
100
AcDbEntity
  8
1
  6
Continuous
 62
     4
100
AcDbLine
 10
419.0638709144509
 20
-526.510258789893
 30
0.0
 11
418.547934708793
 21
-524.510258789893
 31
0.0
  0
LINE
  5
3A8
330
1F
100
AcDbEntity
  8
1
  6
Continuous
 62
     4
100
AcDbLine
 10
419.7709776956381
 20
-526.510258789893
 30
0.0
 11
419.2550414899802
 21
-524.510258789893
 31
0.0
  0
LINE
  5
3A9
330
1F
100
AcDbEntity
  8
1
  6
Continuous
 62
     1
100
AcDbLine
 10
423.5
 20
-526.510258789893
 30
0.0
 11
417.8501037691051
 21
-526.510258789893
 31
0.0
  0
LINE
  5
3AA
330
1F
100
AcDbEntity
  8
1
  6
Continuous
 62
     1
100
AcDbLine
 10
430.1498962308951
 20
-526.510258789893
 30
0.0
 11
424.5
 21
-526.510258789893
 31
0.0
  0
LINE
  5
3AB
330
1F
100
AcDbEntity
  8
1
  6
Continuous
 62
     4
100
AcDbLine
 10
429.452065291207
 20
-524.510258789893
 30
0.0
 11
428.9361290855491
 21
-526.510258789893
 31
0.0
  0
LINE
  5
3AC
330
1F
100
AcDbEntity
  8
1
  6
Continuous
 62
     4
100
AcDbLine
 10
428.744958510021
 20
-524.510258789893
 30
0.0
 11
428.2290223043631
 21
-526.510258789893
 31
0.0
  0
LINE
  5
3AD
330
1F
100
AcDbEntity
  8
1
  6
Continuous
 62
     1
100
AcDbLine
 10
420.25
 20
-527.699951
 30
0.0
 11
420.25
 21
-526.510258789893
 31
0.0
  0
LINE
  5
3AE
330
1F
100
AcDbEntity
  8
1
  6
Continuous
 62
     1
100
AcDbLine
 10
427.75
 20
-526.510258789893
 30
0.0
 11
427.75
 21
-527.699951
 31
0.0
  0
LINE
  5
3AF
330
1F
100
AcDbEntity
  8
1
  6
Continuous
 62
     1
100
AcDbLine
 10
435.0
 20
-532.699951
 30
0.0
 11
435.0
 21
-527.699951
 31
0.0
  0
LINE
  5
3B0
330
1F
100
AcDbEntity
  8
1
  6
Continuous
 62
     1
100
AcDbLine
 10
427.0
 20
-533.699951
 30
0.0
 11
428.0
 21
-532.699951
 31
0.0
  0
LINE
  5
3B1
330
1F
100
AcDbEntity
  8
1
  6
Continuous
 62
     1
100
AcDbLine
 10
421.0
 20
-533.699951
 30
0.0
 11
427.0
 21
-533.699951
 31
0.0
  0
LINE
  5
3B2
330
1F
100
AcDbEntity
  8
1
  6
Continuous
 62
     1
100
AcDbLine
 10
420.0
 20
-532.699951
 30
0.0
 11
421.0
 21
-533.699951
 31
0.0
  0
LINE
  5
3B3
330
1F
100
AcDbEntity
  8
1
  6
Continuous
 62
     1
100
AcDbLine
 10
409.799878
 20
-535.6640526151382
 30
0.0
 11
431.799878
 21
-535.6640526151382
 31
0.0
  0
LINE
  5
3B4
330
1F
100
AcDbEntity
  8
1
  6
Continuous
 62
     1
100
AcDbLine
 10
431.299878
 20
-543.199951
 30
0.0
 11
431.299878
 21
-543.949951
 31
0.0
  0
LINE
  5
3B5
330
1F
100
AcDbEntity
  8
1
  6
Continuous
 62
     1
100
AcDbLine
 10
431.799878
 20
-542.699951
 30
0.0
 11
431.299878
 21
-543.199951
 31
0.0
  0
LINE
  5
3B6
330
1F
100
AcDbEntity
  8
1
  6
Continuous
 62
     1
100
AcDbLine
 10
431.799878
 20
-535.6640526151382
 30
0.0
 11
431.799878
 21
-542.699951
 31
0.0
  0
LINE
  5
3B7
330
1F
100
AcDbEntity
  8
1
  6
Continuous
 62
     1
100
AcDbLine
 10
409.799878
 20
-542.699951
 30
0.0
 11
409.799878
 21
-535.6640526151382
 31
0.0
  0
LINE
  5
3B8
330
1F
100
AcDbEntity
  8
1
  6
Continuous
 62
     1
100
AcDbLine
 10
410.299878
 20
-543.199951
 30
0.0
 11
409.799878
 21
-542.699951
 31
0.0
  0
LINE
  5
3B9
330
1F
100
AcDbEntity
  8
1
  6
Continuous
 62
     4
100
AcDbLine
 10
431.299878
 20
-543.199951
 30
0.0
 11
410.299878
 21
-543.199951
 31
0.0
  0
LINE
  5
3BA
330
1F
100
AcDbEntity
  8
1
  6
Continuous
 62
     4
100
AcDbLine
 10
409.799878
 20
-542.699951
 30
0.0
 11
431.799878
 21
-542.699951
 31
0.0
  0
LINE
  5
3BB
330
1F
100
AcDbEntity
  8
1
  6
Continuous
 62
     1
100
AcDbLine
 10
410.299878
 20
-543.949951
 30
0.0
 11
410.299878
 21
-543.199951
 31
0.0
  0
LINE
  5
3BC
330
1F
100
AcDbEntity
  8
1
  6
Continuous
 62
     1
100
AcDbLine
 10
431.799878
 20
-535.6640526151382
 30
0.0
 11
430.3772282691903
 21
-533.199951
 31
0.0
  0
LINE
  5
3BD
330
1F
100
AcDbEntity
  8
1
  6
Continuous
 62
     1
100
AcDbLine
 10
412.800415
 20
-527.699951
 30
0.0
 11
412.800415
 21
-532.699951
 31
0.0
  0
LINE
  5
3BE
330
1F
100
AcDbEntity
  8
1
  6
Continuous
 62
     1
100
AcDbLine
 10
411.22252773081
 20
-533.199951
 30
0.0
 11
409.799878
 21
-535.6640526151382
 31
0.0
  0
LINE
  5
3BF
330
1F
100
AcDbEntity
  8
1
  6
Continuous
 62
     1
100
AcDbLine
 10
409.799878
 20
-527.699951
 30
0.0
 11
435.0
 21
-527.699951
 31
0.0
  0
LINE
  5
3C0
330
1F
100
AcDbEntity
  8
1
  6
Continuous
 62
     1
100
AcDbLine
 10
409.799878
 20
-532.699951
 30
0.0
 11
435.0
 21
-532.699951
 31
0.0
  0
LINE
  5
3C1
102
{ACAD_REACTORS
330
5F6
330
5F6
102
}
330
1F
100
AcDbEntity
  8
1
  6
Continuous
 62
     1
100
AcDbLine
 10
464.941162
 20
-533.699971
 30
0.0
 11
442.499878
 21
-533.699951
 31
0.0
  0
LINE
  5
3C2
102
{ACAD_REACTORS
330
5F6
330
5F6
102
}
330
1F
100
AcDbEntity
  8
1
  6
Continuous
 62
     1
100
AcDbLine
 10
469.8118560894025
 20
-540.701118037184
 30
0.0
 11
465.7926020429925
 21
-534.1755371809708
 31
0.0
  0
LINE
  5
3C3
102
{ACAD_REACTORS
330
5F6
330
5F6
102
}
330
1F
100
AcDbEntity
  8
1
  6
Continuous
 62
     1
100
AcDbLine
 10
471.5999592217872
 20
-539.5999487551653
 30
0.0
 11
467.4954683825486
 21
-533.1265960059882
 31
0.0
  0
LINE
  5
3C4
102
{ACAD_REACTORS
330
5F6
330
5F6
102
}
330
1F
100
AcDbEntity
  8
1
  6
Continuous
 62
     1
100
AcDbLine
 10
471.5999592217872
 20
-539.5999487551653
 30
0.0
 11
469.6680909134629
 21
-536.2731930410313
 31
0.0
  0
LINE
  5
3C5
102
{ACAD_REACTORS
330
5F6
330
5F6
102
}
330
1F
100
AcDbEntity
  8
1
  6
Continuous
 62
     1
100
AcDbLine
 10
471.371110511715
 20
-535.2244298304562
 30
0.0
 11
473.3880623541719
 21
-538.4987794731468
 31
0.0
  0
LINE
  5
3C6
102
{ACAD_REACTORS
330
5F6
330
5F6
102
}
330
1F
100
AcDbEntity
  8
1
  6
Continuous
 62
     1
100
AcDbLine
 10
474.432495
 20
-533.699951
 30
0.0
 11
472.2227781366533
 21
-533.6999510298014
 31
0.0
  0
LINE
  5
3C7
102
{ACAD_REACTORS
330
5F6
330
5F6
102
}
330
1F
100
AcDbEntity
  8
1
  6
Continuous
 62
     1
100
AcDbLine
 10
474.432495
 20
-531.699951
 30
0.0
 11
472.222534
 21
-531.699906
 31
0.0
  0
LINE
  5
3C8
330
1F
100
AcDbEntity
  8
1
  6
Continuous
 62
     1
100
AcDbLine
 10
465.700684
 20
-583.699829
 30
0.0
 11
459.500977
 21
-583.699829
 31
0.0
  0
LINE
  5
3C9
330
1F
100
AcDbEntity
  8
1
  6
Continuous
 62
     1
100
AcDbLine
 10
471.000977
 20
-583.699829
 30
0.0
 11
465.700684
 21
-583.699829
 31
0.0
  0
LINE
  5
3CA
330
1F
100
AcDbEntity
  8
0
  6
Continuous
 62
     2
100
AcDbLine
 10
254.000336
 20
-570.199829
 30
0.0
 11
254.000336
 21
-569.699829
 31
0.0
  0
LINE
  5
3CB
330
1F
100
AcDbEntity
  8
0
  6
Continuous
 62
     2
100
AcDbLine
 10
263.000305
 20
-570.199829
 30
0.0
 11
254.000336
 21
-570.199829
 31
0.0
  0
LINE
  5
3CC
330
1F
100
AcDbEntity
  8
0
  6
Continuous
 62
     2
100
AcDbLine
 10
263.000305
 20
-569.699829
 30
0.0
 11
263.000305
 21
-570.199829
 31
0.0
  0
LINE
  5
3CD
330
1F
100
AcDbEntity
  8
0
  6
Continuous
 62
     2
100
AcDbLine
 10
254.000336
 20
-569.699829
 30
0.0
 11
263.000305
 21
-569.699829
 31
0.0
  0
LINE
  5
3CE
330
1F
100
AcDbEntity
  8
0
  6
Continuous
 62
     2
100
AcDbLine
 10
263.000305
 20
-586.699829
 30
0.0
 11
263.000305
 21
-586.199829
 31
0.0
  0
LINE
  5
3CF
330
1F
100
AcDbEntity
  8
0
  6
Continuous
 62
     2
100
AcDbLine
 10
254.000305
 20
-586.699829
 30
0.0
 11
263.000305
 21
-586.699829
 31
0.0
  0
LINE
  5
3D0
330
1F
100
AcDbEntity
  8
0
  6
Continuous
 62
     2
100
AcDbLine
 10
254.000305
 20
-586.199829
 30
0.0
 11
254.000305
 21
-586.699829
 31
0.0
  0
LINE
  5
3D1
330
1F
100
AcDbEntity
  8
0
  6
Continuous
 62
     2
100
AcDbLine
 10
263.000305
 20
-586.199829
 30
0.0
 11
254.000305
 21
-586.199829
 31
0.0
  0
LINE
  5
3D2
330
1F
100
AcDbEntity
  8
0
  6
Continuous
 62
     1
100
AcDbLine
 10
263.500305
 20
-587.199829
 30
0.0
 11
263.500305
 21
-585.699829
 31
0.0
  0
LINE
  5
3D3
330
1F
100
AcDbEntity
  8
0
  6
Continuous
 62
     1
100
AcDbLine
 10
253.500305
 20
-587.199829
 30
0.0
 11
263.500305
 21
-587.199829
 31
0.0
  0
LINE
  5
3D4
330
1F
100
AcDbEntity
  8
0
  6
Continuous
 62
     1
100
AcDbLine
 10
253.500305
 20
-585.699829
 30
0.0
 11
253.500305
 21
-587.199829
 31
0.0
  0
LINE
  5
3D5
330
1F
100
AcDbEntity
  8
0
  6
Continuous
 62
     1
100
AcDbLine
 10
263.500305
 20
-585.699829
 30
0.0
 11
253.500305
 21
-585.699829
 31
0.0
  0
LINE
  5
3D6
330
1F
100
AcDbEntity
  8
0
  6
Continuous
 62
     1
100
AcDbLine
 10
253.500336
 20
-570.699829
 30
0.0
 11
253.500336
 21
-569.199829
 31
0.0
  0
LINE
  5
3D7
330
1F
100
AcDbEntity
  8
0
  6
Continuous
 62
     1
100
AcDbLine
 10
263.500305
 20
-570.699829
 30
0.0
 11
253.500336
 21
-570.699829
 31
0.0
  0
LINE
  5
3D8
330
1F
100
AcDbEntity
  8
0
  6
Continuous
 62
     1
100
AcDbLine
 10
263.500305
 20
-569.199829
 30
0.0
 11
263.500305
 21
-570.699829
 31
0.0
  0
LINE
  5
3D9
330
1F
100
AcDbEntity
  8
0
  6
Continuous
 62
     1
100
AcDbLine
 10
253.500336
 20
-569.199829
 30
0.0
 11
263.500305
 21
-569.199829
 31
0.0
  0
LINE
  5
3DA
330
1F
100
AcDbEntity
  8
0
  6
Continuous
 62
     1
100
AcDbLine
 10
264.5
 20
-587.199951
 30
0.0
 11
252.5
 21
-587.199951
 31
0.0
  0
LINE
  5
3DB
330
1F
100
AcDbEntity
  8
0
  6
Continuous
 62
     1
100
AcDbLine
 10
264.5
 20
-569.199829
 30
0.0
 11
252.500336
 21
-569.199829
 31
0.0
  0
LINE
  5
3DC
330
1F
100
AcDbEntity
  8
0
  6
DASH_CENTER
 62
     3
100
AcDbLine
 10
247.5
 20
-619.199951
 30
0.0
 11
272.5
 21
-619.199951
 31
0.0
  0
LINE
  5
3DD
330
1F
100
AcDbEntity
  8
0
  6
DASH_CENTER
 62
     3
100
AcDbLine
 10
277.848267
 20
-578.199707
 30
0.0
 11
242.848267
 21
-578.199707
 31
0.0
  0
LINE
  5
3DE
330
1F
100
AcDbEntity
  8
0
  6
Continuous
 62
     3
100
AcDbLine
 10
263.650513
 20
-569.199707
 30
0.0
 11
263.650513
 21
-538.350342
 31
0.0
  0
LINE
  5
3DF
330
1F
100
AcDbEntity
  8
0
  6
Continuous
 62
     3
100
AcDbLine
 10
263.650513
 20
-619.199951
 30
0.0
 11
263.650513
 21
-587.199707
 31
0.0
  0
LINE
  5
3E0
330
1F
100
AcDbEntity
  8
0
  6
Continuous
 62
     3
100
AcDbLine
 10
262.850464
 20
-569.199707
 30
0.0
 11
262.850464
 21
-537.550293
 31
0.0
  0
LINE
  5
3E1
330
1F
100
AcDbEntity
  8
0
  6
Continuous
 62
     3
100
AcDbLine
 10
262.850464
 20
-619.199951
 30
0.0
 11
262.850464
 21
-587.199707
 31
0.0
  0
LINE
  5
3E2
330
1F
100
AcDbEntity
  8
0
  6
Continuous
 62
     3
100
AcDbLine
 10
262.050415
 20
-569.199707
 30
0.0
 11
262.050415
 21
-537.199951
 31
0.0
  0
LINE
  5
3E3
330
1F
100
AcDbEntity
  8
0
  6
Continuous
 62
     3
100
AcDbLine
 10
262.050415
 20
-619.199951
 30
0.0
 11
262.050415
 21
-587.199707
 31
0.0
  0
LINE
  5
3E4
330
1F
100
AcDbEntity
  8
0
  6
Continuous
 62
     3
100
AcDbLine
 10
261.250488
 20
-569.199707
 30
0.0
 11
261.250488
 21
-537.199951
 31
0.0
  0
LINE
  5
3E5
330
1F
100
AcDbEntity
  8
0
  6
Continuous
 62
     3
100
AcDbLine
 10
261.250488
 20
-619.199951
 30
0.0
 11
261.250488
 21
-587.199707
 31
0.0
  0
LINE
  5
3E6
330
1F
100
AcDbEntity
  8
0
  6
Continuous
 62
     3
100
AcDbLine
 10
260.450439
 20
-569.199707
 30
0.0
 11
260.450439
 21
-537.199951
 31
0.0
  0
LINE
  5
3E7
330
1F
100
AcDbEntity
  8
0
  6
Continuous
 62
     3
100
AcDbLine
 10
260.450439
 20
-619.199951
 30
0.0
 11
260.450439
 21
-587.199707
 31
0.0
  0
LINE
  5
3E8
330
1F
100
AcDbEntity
  8
0
  6
Continuous
 62
     3
100
AcDbLine
 10
259.650513
 20
-569.199707
 30
0.0
 11
259.650513
 21
-537.199951
 31
0.0
  0
LINE
  5
3E9
330
1F
100
AcDbEntity
  8
0
  6
Continuous
 62
     3
100
AcDbLine
 10
259.650513
 20
-619.199951
 30
0.0
 11
259.650513
 21
-587.199707
 31
0.0
  0
LINE
  5
3EA
330
1F
100
AcDbEntity
  8
0
  6
Continuous
 62
     3
100
AcDbLine
 10
258.850464
 20
-569.199707
 30
0.0
 11
258.850464
 21
-537.199951
 31
0.0
  0
LINE
  5
3EB
330
1F
100
AcDbEntity
  8
0
  6
Continuous
 62
     3
100
AcDbLine
 10
258.850464
 20
-619.199951
 30
0.0
 11
258.850464
 21
-587.199707
 31
0.0
  0
LINE
  5
3EC
330
1F
100
AcDbEntity
  8
0
  6
Continuous
 62
     3
100
AcDbLine
 10
258.050537
 20
-569.199829
 30
0.0
 11
258.050537
 21
-537.199951
 31
0.0
  0
LINE
  5
3ED
330
1F
100
AcDbEntity
  8
0
  6
Continuous
 62
     3
100
AcDbLine
 10
258.050537
 20
-619.199951
 30
0.0
 11
258.050537
 21
-587.199829
 31
0.0
  0
LINE
  5
3EE
330
1F
100
AcDbEntity
  8
0
  6
Continuous
 62
     3
100
AcDbLine
 10
257.250488
 20
-569.199829
 30
0.0
 11
257.250488
 21
-537.199951
 31
0.0
  0
LINE
  5
3EF
330
1F
100
AcDbEntity
  8
0
  6
Continuous
 62
     3
100
AcDbLine
 10
257.250488
 20
-619.199951
 30
0.0
 11
257.250488
 21
-587.199829
 31
0.0
  0
LINE
  5
3F0
330
1F
100
AcDbEntity
  8
0
  6
Continuous
 62
     3
100
AcDbLine
 10
256.450439
 20
-569.199829
 30
0.0
 11
256.450439
 21
-537.199951
 31
0.0
  0
LINE
  5
3F1
330
1F
100
AcDbEntity
  8
0
  6
Continuous
 62
     3
100
AcDbLine
 10
256.450439
 20
-619.199951
 30
0.0
 11
256.450439
 21
-587.199829
 31
0.0
  0
LINE
  5
3F2
330
1F
100
AcDbEntity
  8
0
  6
Continuous
 62
     3
100
AcDbLine
 10
255.650513
 20
-569.199829
 30
0.0
 11
255.650513
 21
-537.199951
 31
0.0
  0
LINE
  5
3F3
330
1F
100
AcDbEntity
  8
0
  6
Continuous
 62
     3
100
AcDbLine
 10
255.650513
 20
-619.199951
 30
0.0
 11
255.650513
 21
-587.199829
 31
0.0
  0
LINE
  5
3F4
330
1F
100
AcDbEntity
  8
0
  6
Continuous
 62
     3
100
AcDbLine
 10
254.850464
 20
-569.199829
 30
0.0
 11
254.850464
 21
-537.199951
 31
0.0
  0
LINE
  5
3F5
330
1F
100
AcDbEntity
  8
0
  6
Continuous
 62
     3
100
AcDbLine
 10
254.850464
 20
-619.199951
 30
0.0
 11
254.850464
 21
-587.199829
 31
0.0
  0
LINE
  5
3F6
330
1F
100
AcDbEntity
  8
0
  6
Continuous
 62
     3
100
AcDbLine
 10
254.050537
 20
-569.199829
 30
0.0
 11
254.050537
 21
-537.649292
 31
0.0
  0
LINE
  5
3F7
330
1F
100
AcDbEntity
  8
0
  6
Continuous
 62
     3
100
AcDbLine
 10
254.050537
 20
-619.199951
 30
0.0
 11
254.050537
 21
-587.199829
 31
0.0
  0
LINE
  5
3F8
330
1F
100
AcDbEntity
  8
0
  6
Continuous
 62
     3
100
AcDbLine
 10
253.250488
 20
-569.199829
 30
0.0
 11
253.250488
 21
-538.449341
 31
0.0
  0
LINE
  5
3F9
330
1F
100
AcDbEntity
  8
0
  6
Continuous
 62
     3
100
AcDbLine
 10
253.250488
 20
-619.199951
 30
0.0
 11
253.250488
 21
-587.199829
 31
0.0
  0
LINE
  5
3FA
330
1F
100
AcDbEntity
  8
0
  6
Continuous
 62
     1
100
AcDbLine
 10
264.5
 20
-587.199951
 30
0.0
 11
264.5
 21
-619.199951
 31
0.0
  0
LINE
  5
3FB
330
1F
100
AcDbEntity
  8
0
  6
Continuous
 62
     1
100
AcDbLine
 10
252.5
 20
-619.199951
 30
0.0
 11
252.5
 21
-587.199951
 31
0.0
  0
LINE
  5
3FC
330
1F
100
AcDbEntity
  8
0
  6
Continuous
 62
     1
100
AcDbLine
 10
264.5
 20
-539.199951
 30
0.0
 11
264.5
 21
-569.199829
 31
0.0
  0
LINE
  5
3FD
330
1F
100
AcDbEntity
  8
0
  6
Continuous
 62
     1
100
AcDbLine
 10
262.500122
 20
-537.199951
 30
0.0
 11
264.5
 21
-539.199951
 31
0.0
  0
LINE
  5
3FE
330
1F
100
AcDbEntity
  8
0
  6
Continuous
 62
     1
100
AcDbLine
 10
254.499878
 20
-537.199951
 30
0.0
 11
262.500122
 21
-537.199951
 31
0.0
  0
LINE
  5
3FF
330
1F
100
AcDbEntity
  8
0
  6
Continuous
 62
     1
100
AcDbLine
 10
252.5
 20
-539.199951
 30
0.0
 11
254.499878
 21
-537.199951
 31
0.0
  0
LINE
  5
400
330
1F
100
AcDbEntity
  8
0
  6
Continuous
 62
     1
100
AcDbLine
 10
252.500336
 20
-569.199829
 30
0.0
 11
252.5
 21
-539.199951
 31
0.0
  0
LINE
  5
401
330
1F
100
AcDbEntity
  8
0
  6
Continuous
 62
     1
100
AcDbLine
 10
264.5
 20
-583.699951
 30
0.0
 11
264.5
 21
-586.199707
 31
0.0
  0
LINE
  5
402
330
1F
100
AcDbEntity
  8
0
  6
Continuous
 62
     1
100
AcDbLine
 10
264.5
 20
-570.199707
 30
0.0
 11
264.5
 21
-572.699951
 31
0.0
  0
LINE
  5
403
330
1F
100
AcDbEntity
  8
0
  6
Continuous
 62
     3
100
AcDbLine
 10
262.2688341948525
 20
-574.999878
 30
0.0
 11
262.2482041948525
 21
-574.979248
 31
0.0
  0
LINE
  5
404
330
1F
100
AcDbEntity
  8
0
  6
Continuous
 62
     1
100
AcDbLine
 10
273.501099
 20
-586.199951
 30
0.0
 11
271.001099
 21
-583.699951
 31
0.0
  0
LINE
  5
405
330
1F
100
AcDbEntity
  8
0
  6
Continuous
 62
     1
100
AcDbLine
 10
274.001099
 20
-586.199951
 30
0.0
 11
273.501099
 21
-586.199951
 31
0.0
  0
LINE
  5
406
330
1F
100
AcDbEntity
  8
0
  6
Continuous
 62
     1
100
AcDbLine
 10
274.001099
 20
-570.199951
 30
0.0
 11
274.001099
 21
-586.199951
 31
0.0
  0
LINE
  5
407
330
1F
100
AcDbEntity
  8
0
  6
Continuous
 62
     1
100
AcDbLine
 10
273.501099
 20
-570.199951
 30
0.0
 11
274.001099
 21
-570.199951
 31
0.0
  0
LINE
  5
408
330
1F
100
AcDbEntity
  8
0
  6
Continuous
 62
     1
100
AcDbLine
 10
271.00061
 20
-572.699951
 30
0.0
 11
273.501099
 21
-570.199951
 31
0.0
  0
LINE
  5
409
330
1F
100
AcDbEntity
  8
0
  6
Continuous
 62
     1
100
AcDbLine
 10
259.500977
 20
-572.699951
 30
0.0
 11
271.00061
 21
-572.699951
 31
0.0
  0
LINE
  5
40A
330
1F
100
AcDbEntity
  8
0
  6
Continuous
 62
     1
100
AcDbLine
 10
259.001099
 20
-573.199951
 30
0.0
 11
259.500977
 21
-572.699951
 31
0.0
  0
LINE
  5
40B
330
1F
100
AcDbEntity
  8
0
  6
Continuous
 62
     1
100
AcDbLine
 10
259.001099
 20
-574.199951
 30
0.0
 11
259.001099
 21
-573.199951
 31
0.0
  0
LINE
  5
40C
330
1F
100
AcDbEntity
  8
0
  6
Continuous
 62
     1
100
AcDbLine
 10
262.2482041948525
 20
-574.199951
 30
0.0
 11
259.001099
 21
-574.199951
 31
0.0
  0
LINE
  5
40D
330
1F
100
AcDbEntity
  8
0
  6
Continuous
 62
     1
100
AcDbLine
 10
262.2482041948525
 20
-574.999878
 30
0.0
 11
262.2482041948525
 21
-574.199951
 31
0.0
  0
LINE
  5
40E
330
1F
100
AcDbEntity
  8
0
  6
Continuous
 62
     1
100
AcDbLine
 10
271.000854
 20
-574.999878
 30
0.0
 11
262.2482041948525
 21
-574.999878
 31
0.0
  0
LINE
  5
40F
330
1F
100
AcDbEntity
  8
0
  6
Continuous
 62
     1
100
AcDbLine
 10
272.848267
 20
-578.199707
 30
0.0
 11
271.000854
 21
-574.999878
 31
0.0
  0
LINE
  5
410
330
1F
100
AcDbEntity
  8
0
  6
Continuous
 62
     1
100
AcDbLine
 10
271.000732
 20
-581.399902
 30
0.0
 11
272.848267
 21
-578.199707
 31
0.0
  0
LINE
  5
411
330
1F
100
AcDbEntity
  8
0
  6
Continuous
 62
     1
100
AcDbLine
 10
262.2482041948525
 20
-581.399902
 30
0.0
 11
271.000732
 21
-581.399902
 31
0.0
  0
LINE
  5
412
330
1F
100
AcDbEntity
  8
0
  6
Continuous
 62
     1
100
AcDbLine
 10
262.2482041948525
 20
-582.199951
 30
0.0
 11
262.2482041948525
 21
-581.399902
 31
0.0
  0
LINE
  5
413
330
1F
100
AcDbEntity
  8
0
  6
Continuous
 62
     1
100
AcDbLine
 10
259.001099
 20
-582.199951
 30
0.0
 11
262.2482041948525
 21
-582.199951
 31
0.0
  0
LINE
  5
414
330
1F
100
AcDbEntity
  8
0
  6
Continuous
 62
     1
100
AcDbLine
 10
259.001099
 20
-583.199951
 30
0.0
 11
259.001099
 21
-582.199951
 31
0.0
  0
LINE
  5
415
330
1F
100
AcDbEntity
  8
0
  6
Continuous
 62
     1
100
AcDbLine
 10
259.501099
 20
-583.699951
 30
0.0
 11
259.001099
 21
-583.199951
 31
0.0
  0
LINE
  5
416
330
1F
100
AcDbEntity
  8
0
  6
Continuous
 62
     1
100
AcDbLine
 10
271.001099
 20
-583.699951
 30
0.0
 11
259.501099
 21
-583.699951
 31
0.0
  0
LINE
  5
417
330
1F
100
AcDbEntity
  8
0
  6
Continuous
 62
     1
100
AcDbLine
 10
250.7981311948525
 20
-574.199951
 30
0.0
 11
262.2482041948525
 21
-574.199951
 31
0.0
  0
LINE
  5
418
330
1F
100
AcDbEntity
  8
0
  6
Continuous
 62
     1
100
AcDbLine
 10
250.7981311948525
 20
-582.199951
 30
0.0
 11
250.7981311948525
 21
-574.199951
 31
0.0
  0
LINE
  5
419
330
1F
100
AcDbEntity
  8
0
  6
Continuous
 62
     1
100
AcDbLine
 10
262.2482041948525
 20
-582.199951
 30
0.0
 11
250.7981311948525
 21
-582.199951
 31
0.0
  0
LINE
  5
41A
330
1F
100
AcDbEntity
  8
0
  6
Continuous
 62
     1
100
AcDbLine
 10
265.700806
 20
-583.699707
 30
0.0
 11
271.001099
 21
-583.699951
 31
0.0
  0
LINE
  5
41B
330
1F
100
AcDbEntity
  8
0
  6
Continuous
 62
     1
100
AcDbLine
 10
265.700806
 20
-604.199707
 30
0.0
 11
265.700806
 21
-583.699707
 31
0.0
  0
LINE
  5
41C
330
1F
100
AcDbEntity
  8
0
  6
Continuous
 62
     1
100
AcDbLine
 10
271.700806
 20
-604.199707
 30
0.0
 11
265.700806
 21
-604.199707
 31
0.0
  0
LINE
  5
41D
330
1F
100
AcDbEntity
  8
0
  6
Continuous
 62
     1
100
AcDbLine
 10
273.700806
 20
-602.199585
 30
0.0
 11
271.700806
 21
-604.199707
 31
0.0
  0
LINE
  5
41E
330
1F
100
AcDbEntity
  8
0
  6
Continuous
 62
     1
100
AcDbLine
 10
273.700806
 20
-586.399658
 30
0.0
 11
273.700806
 21
-602.199585
 31
0.0
  0
LINE
  5
41F
330
1F
100
AcDbEntity
  8
0
  6
Continuous
 62
     1
100
AcDbLine
 10
271.001099
 20
-583.699951
 30
0.0
 11
273.700806
 21
-586.399658
 31
0.0
  0
LINE
  5
420
330
1F
100
AcDbEntity
  8
0
  6
Continuous
 62
     1
100
AcDbLine
 10
268.001099
 20
-574.999878
 30
0.0
 11
268.001099
 21
-581.399902
 31
0.0
  0
LINE
  5
421
330
1F
100
AcDbEntity
  8
0
  6
Continuous
 62
     2
100
AcDbLine
 10
265.200317
 20
-569.699707
 30
0.0
 11
265.000366
 21
-569.699707
 31
0.0
  0
LINE
  5
422
330
1F
100
AcDbEntity
  8
0
  6
Continuous
 62
     2
100
AcDbLine
 10
265.200317
 20
-566.699707
 30
0.0
 11
265.200317
 21
-569.699707
 31
0.0
  0
LINE
  5
423
330
1F
100
AcDbEntity
  8
0
  6
Continuous
 62
     2
100
AcDbLine
 10
265.000366
 20
-566.699707
 30
0.0
 11
265.200317
 21
-566.699707
 31
0.0
  0
LINE
  5
424
330
1F
100
AcDbEntity
  8
0
  6
Continuous
 62
     2
100
AcDbLine
 10
265.000366
 20
-569.699707
 30
0.0
 11
265.000366
 21
-566.699707
 31
0.0
  0
LINE
  5
425
330
1F
100
AcDbEntity
  8
0
  6
Continuous
 62
     1
100
AcDbLine
 10
265.700317
 20
-570.199707
 30
0.0
 11
264.5
 21
-570.199707
 31
0.0
  0
LINE
  5
426
330
1F
100
AcDbEntity
  8
0
  6
Continuous
 62
     1
100
AcDbLine
 10
265.700317
 20
-566.199707
 30
0.0
 11
265.700317
 21
-570.199707
 31
0.0
  0
LINE
  5
427
330
1F
100
AcDbEntity
  8
0
  6
Continuous
 62
     1
100
AcDbLine
 10
264.500366
 20
-566.199707
 30
0.0
 11
265.700317
 21
-566.199707
 31
0.0
  0
LINE
  5
428
330
1F
100
AcDbEntity
  8
0
  6
Continuous
 62
     1
100
AcDbLine
 10
264.5
 20
-570.199707
 30
0.0
 11
264.500366
 21
-566.199707
 31
0.0
  0
LINE
  5
429
330
1F
100
AcDbEntity
  8
0
  6
Continuous
 62
     2
100
AcDbLine
 10
265.200317
 20
-601.699707
 30
0.0
 11
265.000366
 21
-601.699707
 31
0.0
  0
LINE
  5
42A
330
1F
100
AcDbEntity
  8
0
  6
Continuous
 62
     2
100
AcDbLine
 10
265.200317
 20
-586.699707
 30
0.0
 11
265.200317
 21
-601.699707
 31
0.0
  0
LINE
  5
42B
330
1F
100
AcDbEntity
  8
0
  6
Continuous
 62
     2
100
AcDbLine
 10
265.000366
 20
-586.699707
 30
0.0
 11
265.200317
 21
-586.699707
 31
0.0
  0
LINE
  5
42C
330
1F
100
AcDbEntity
  8
0
  6
Continuous
 62
     2
100
AcDbLine
 10
265.000366
 20
-601.699707
 30
0.0
 11
265.000366
 21
-586.699707
 31
0.0
  0
LINE
  5
42D
330
1F
100
AcDbEntity
  8
0
  6
Continuous
 62
     1
100
AcDbLine
 10
265.700317
 20
-602.199707
 30
0.0
 11
264.500366
 21
-602.199707
 31
0.0
  0
LINE
  5
42E
330
1F
100
AcDbEntity
  8
0
  6
Continuous
 62
     1
100
AcDbLine
 10
265.700317
 20
-586.199707
 30
0.0
 11
265.700317
 21
-602.199707
 31
0.0
  0
LINE
  5
42F
330
1F
100
AcDbEntity
  8
0
  6
Continuous
 62
     1
100
AcDbLine
 10
264.5
 20
-586.199707
 30
0.0
 11
265.700317
 21
-586.199707
 31
0.0
  0
LINE
  5
430
330
1F
100
AcDbEntity
  8
0
  6
Continuous
 62
     1
100
AcDbLine
 10
264.500366
 20
-602.199707
 30
0.0
 11
264.5
 21
-586.199707
 31
0.0
  0
LINE
  5
431
330
1F
100
AcDbEntity
  8
0
  6
Continuous
 62
     1
100
AcDbLine
 10
271.00061
 20
-572.699951
 30
0.0
 11
265.700806
 21
-572.699707
 31
0.0
  0
LINE
  5
432
330
1F
100
AcDbEntity
  8
0
  6
Continuous
 62
     1
100
AcDbLine
 10
271.00061
 20
-572.699951
 30
0.0
 11
273.700806
 21
-569.999634
 31
0.0
  0
LINE
  5
433
330
1F
100
AcDbEntity
  8
0
  6
Continuous
 62
     1
100
AcDbLine
 10
273.700806
 20
-566.199585
 30
0.0
 11
273.700806
 21
-569.999634
 31
0.0
  0
LINE
  5
434
330
1F
100
AcDbEntity
  8
0
  6
Continuous
 62
     1
100
AcDbLine
 10
271.700806
 20
-564.199707
 30
0.0
 11
273.700806
 21
-566.199585
 31
0.0
  0
LINE
  5
435
330
1F
100
AcDbEntity
  8
0
  6
Continuous
 62
     1
100
AcDbLine
 10
265.700806
 20
-564.199707
 30
0.0
 11
271.700806
 21
-564.199707
 31
0.0
  0
LINE
  5
436
330
1F
100
AcDbEntity
  8
0
  6
Continuous
 62
     1
100
AcDbLine
 10
265.700806
 20
-572.699707
 30
0.0
 11
265.700806
 21
-564.199707
 31
0.0
  0
LINE
  5
437
330
1F
100
AcDbEntity
  8
0
  6
Continuous
 62
     3
100
AcDbLine
 10
268.001099
 20
-574.199951
 30
0.0
 11
262.2482041948525
 21
-574.199951
 31
0.0
  0
LINE
  5
438
330
1F
100
AcDbEntity
  8
0
  6
Continuous
 62
     1
100
AcDbLine
 10
268.001099
 20
-574.999878
 30
0.0
 11
268.001099
 21
-574.199951
 31
0.0
  0
LINE
  5
439
330
1F
100
AcDbEntity
  8
0
  6
Continuous
 62
     1
100
AcDbLine
 10
268.001099
 20
-582.199951
 30
0.0
 11
268.001099
 21
-581.399902
 31
0.0
  0
LINE
  5
43A
330
1F
100
AcDbEntity
  8
0
  6
Continuous
 62
     3
100
AcDbLine
 10
262.2482041948525
 20
-582.199951
 30
0.0
 11
268.001099
 21
-582.199951
 31
0.0
  0
LINE
  5
43B
330
1F
100
AcDbEntity
  8
0
  6
Continuous
 62
     1
100
AcDbLine
 10
271.000854
 20
-574.999878
 30
0.0
 11
271.000732
 21
-581.399902
 31
0.0
  0
LINE
  5
43C
330
1F
100
AcDbEntity
  8
0
  6
Continuous
 62
     1
100
AcDbLine
 10
262.2482041948525
 20
-574.999878
 30
0.0
 11
262.2482041948525
 21
-581.399902
 31
0.0
  0
LINE
  5
43D
330
1F
100
AcDbEntity
  8
0
  6
Continuous
 62
     3
100
AcDbLine
 10
249.1980331948525
 20
-581.3999020000001
 30
0.0
 11
262.2482041948525
 21
-581.399902
 31
0.0
  0
LINE
  5
43E
330
1F
100
AcDbEntity
  8
0
  6
Continuous
 62
     3
100
AcDbLine
 10
249.1980331948525
 20
-574.999878
 30
0.0
 11
262.2482041948525
 21
-574.999878
 31
0.0
  0
LINE
  5
43F
330
1F
100
AcDbEntity
  8
0
  6
Continuous
 62
     1
100
AcDbLine
 10
250.7981311948525
 20
-582.199951
 30
0.0
 11
249.5980581948525
 21
-581.506958
 31
0.0
  0
LINE
  5
440
330
1F
100
AcDbEntity
  8
0
  6
Continuous
 62
     1
100
AcDbLine
 10
250.7981311948525
 20
-574.199951
 30
0.0
 11
249.5980581948525
 21
-574.8927
 31
0.0
  0
LINE
  5
441
330
1F
100
AcDbEntity
  8
0
  6
Continuous
 62
     1
100
AcDbLine
 10
244.2483261948525
 20
-577.199951
 30
0.0
 11
244.2482041948525
 21
-570.949951
 31
0.0
  0
LINE
  5
442
330
1F
100
AcDbEntity
  8
0
  6
Continuous
 62
     1
100
AcDbLine
 10
244.2482041948525
 20
-579.199951
 30
0.0
 11
244.2483261948525
 21
-585.449951
 31
0.0
  0
LINE
  5
443
330
1F
100
AcDbEntity
  8
0
  6
Continuous
 62
     1
100
AcDbLine
 10
245.8483021948525
 20
-579.199951
 30
0.0
 11
244.2482041948525
 21
-579.199951
 31
0.0
  0
LINE
  5
444
330
1F
100
AcDbEntity
  8
0
  6
Continuous
 62
     1
100
AcDbLine
 10
245.8483021948525
 20
-577.199951
 30
0.0
 11
245.8483021948525
 21
-579.199951
 31
0.0
  0
LINE
  5
445
330
1F
100
AcDbEntity
  8
0
  6
Continuous
 62
     1
100
AcDbLine
 10
244.2483261948525
 20
-577.199951
 30
0.0
 11
245.8483021948525
 21
-577.199951
 31
0.0
  0
LINE
  5
446
330
1F
100
AcDbEntity
  8
0
  6
Continuous
 62
     3
100
AcDbLine
 10
248.2981311948525
 20
-575.499878
 30
0.0
 11
248.2981311948525
 21
-580.899902
 31
0.0
  0
LINE
  5
447
330
1F
100
AcDbEntity
  8
0
  6
Continuous
 62
     1
100
AcDbLine
 10
244.2483261948525
 20
-585.449951
 30
0.0
 11
248.0636341948525
 21
-581.634155
 31
0.0
  0
LINE
  5
448
330
1F
100
AcDbEntity
  8
0
  6
Continuous
 62
     1
100
AcDbLine
 10
244.2482041948525
 20
-570.949951
 30
0.0
 11
248.0637561948525
 21
-574.765503
 31
0.0
  0
LINE
  5
449
330
1F
100
AcDbEntity
  8
0
  6
Continuous
 62
     1
100
AcDbLine
 10
248.6294301948526
 20
-581.3999020000001
 30
0.0
 11
249.1980331948525
 21
-581.3999020000001
 31
0.0
  0
LINE
  5
44A
330
1F
100
AcDbEntity
  8
0
  6
Continuous
 62
     1
100
AcDbLine
 10
248.6295521948525
 20
-574.9998780000001
 30
0.0
 11
249.1980331948525
 21
-574.999878
 31
0.0
  0
LINE
  5
44B
330
1F
100
AcDbEntity
  8
0
  6
DASH_CENTER
 62
     3
100
AcDbLine
 10
262.600464
 20
-514.200073
 30
0.0
 11
201.800415
 21
-514.200073
 31
0.0
  0
LINE
  5
44C
330
1F
100
AcDbEntity
  8
0
  6
Continuous
 62
     1
100
AcDbLine
 10
463.499878
 20
-583.699829
 30
0.0
 11
463.499878
 21
-585.699829
 31
0.0
  0
LINE
  5
44D
330
1F
100
AcDbEntity
  8
0
  6
Continuous
 62
     1
100
AcDbLine
 10
463.499878
 20
-570.699829
 30
0.0
 11
463.499878
 21
-572.699829
 31
0.0
  0
LINE
  5
44E
330
1F
100
AcDbEntity
  8
0
  6
Continuous
 62
     1
100
AcDbLine
 10
453.499878
 20
-570.699829
 30
0.0
 11
453.499878
 21
-574.199829
 31
0.0
  0
LINE
  5
44F
330
1F
100
AcDbEntity
  8
0
  6
Continuous
 62
     2
100
AcDbLine
 10
462.999878
 20
-570.199829
 30
0.0
 11
462.999878
 21
-569.699829
 31
0.0
  0
LINE
  5
450
330
1F
100
AcDbEntity
  8
0
  6
Continuous
 62
     2
100
AcDbLine
 10
453.999878
 20
-570.199829
 30
0.0
 11
462.999878
 21
-570.199829
 31
0.0
  0
LINE
  5
451
330
1F
100
AcDbEntity
  8
0
  6
Continuous
 62
     2
100
AcDbLine
 10
453.999878
 20
-569.699829
 30
0.0
 11
453.999878
 21
-570.199829
 31
0.0
  0
LINE
  5
452
330
1F
100
AcDbEntity
  8
0
  6
Continuous
 62
     2
100
AcDbLine
 10
462.999878
 20
-569.699829
 30
0.0
 11
453.999878
 21
-569.699829
 31
0.0
  0
LINE
  5
453
330
1F
100
AcDbEntity
  8
0
  6
Continuous
 62
     2
100
AcDbLine
 10
453.999878
 20
-586.699829
 30
0.0
 11
453.999878
 21
-586.199829
 31
0.0
  0
LINE
  5
454
330
1F
100
AcDbEntity
  8
0
  6
Continuous
 62
     2
100
AcDbLine
 10
462.999878
 20
-586.699829
 30
0.0
 11
453.999878
 21
-586.699829
 31
0.0
  0
LINE
  5
455
330
1F
100
AcDbEntity
  8
0
  6
Continuous
 62
     2
100
AcDbLine
 10
462.999878
 20
-586.199829
 30
0.0
 11
462.999878
 21
-586.699829
 31
0.0
  0
LINE
  5
456
330
1F
100
AcDbEntity
  8
0
  6
Continuous
 62
     2
100
AcDbLine
 10
453.999878
 20
-586.199829
 30
0.0
 11
462.999878
 21
-586.199829
 31
0.0
  0
LINE
  5
457
330
1F
100
AcDbEntity
  8
0
  6
Continuous
 62
     1
100
AcDbLine
 10
463.499878
 20
-570.699829
 30
0.0
 11
463.499878
 21
-569.199829
 31
0.0
  0
LINE
  5
458
330
1F
100
AcDbEntity
  8
0
  6
Continuous
 62
     1
100
AcDbLine
 10
453.499878
 20
-570.699829
 30
0.0
 11
463.499878
 21
-570.699829
 31
0.0
  0
LINE
  5
459
330
1F
100
AcDbEntity
  8
0
  6
Continuous
 62
     1
100
AcDbLine
 10
453.499878
 20
-569.199829
 30
0.0
 11
453.499878
 21
-570.699829
 31
0.0
  0
LINE
  5
45A
330
1F
100
AcDbEntity
  8
0
  6
Continuous
 62
     1
100
AcDbLine
 10
463.499878
 20
-569.199829
 30
0.0
 11
453.499878
 21
-569.199829
 31
0.0
  0
LINE
  5
45B
330
1F
100
AcDbEntity
  8
0
  6
Continuous
 62
     1
100
AcDbLine
 10
453.499878
 20
-587.199829
 30
0.0
 11
453.499878
 21
-585.699829
 31
0.0
  0
LINE
  5
45C
330
1F
100
AcDbEntity
  8
0
  6
Continuous
 62
     1
100
AcDbLine
 10
463.499878
 20
-587.199829
 30
0.0
 11
453.499878
 21
-587.199829
 31
0.0
  0
LINE
  5
45D
330
1F
100
AcDbEntity
  8
0
  6
Continuous
 62
     1
100
AcDbLine
 10
463.499878
 20
-585.699829
 30
0.0
 11
463.499878
 21
-587.199829
 31
0.0
  0
LINE
  5
45E
330
1F
100
AcDbEntity
  8
0
  6
Continuous
 62
     1
100
AcDbLine
 10
453.499878
 20
-585.699829
 30
0.0
 11
463.499878
 21
-585.699829
 31
0.0
  0
LINE
  5
45F
330
1F
100
AcDbEntity
  8
0
  6
Continuous
 62
     1
100
AcDbLine
 10
464.499878
 20
-587.199585
 30
0.0
 11
464.499878
 21
-619.199829
 31
0.0
  0
LINE
  5
460
330
1F
100
AcDbEntity
  8
0
  6
Continuous
 62
     1
100
AcDbLine
 10
452.499878
 20
-587.199829
 30
0.0
 11
464.499878
 21
-587.199585
 31
0.0
  0
LINE
  5
461
330
1F
100
AcDbEntity
  8
0
  6
Continuous
 62
     1
100
AcDbLine
 10
452.499878
 20
-619.199829
 30
0.0
 11
452.499878
 21
-587.199829
 31
0.0
  0
LINE
  5
462
330
1F
100
AcDbEntity
  8
0
  6
Continuous
 62
     1
100
AcDbLine
 10
464.499878
 20
-539.199829
 30
0.0
 11
464.499878
 21
-569.199585
 31
0.0
  0
LINE
  5
463
330
1F
100
AcDbEntity
  8
0
  6
Continuous
 62
     1
100
AcDbLine
 10
462.5
 20
-537.199829
 30
0.0
 11
464.499878
 21
-539.199829
 31
0.0
  0
LINE
  5
464
330
1F
100
AcDbEntity
  8
0
  6
Continuous
 62
     1
100
AcDbLine
 10
454.499756
 20
-537.199829
 30
0.0
 11
462.5
 21
-537.199829
 31
0.0
  0
LINE
  5
465
330
1F
100
AcDbEntity
  8
0
  6
Continuous
 62
     1
100
AcDbLine
 10
452.499878
 20
-539.199829
 30
0.0
 11
454.499756
 21
-537.199829
 31
0.0
  0
LINE
  5
466
330
1F
100
AcDbEntity
  8
0
  6
Continuous
 62
     1
100
AcDbLine
 10
452.500183
 20
-569.199707
 30
0.0
 11
452.499878
 21
-539.199829
 31
0.0
  0
LINE
  5
467
330
1F
100
AcDbEntity
  8
0
  6
Continuous
 62
     1
100
AcDbLine
 10
464.499878
 20
-569.199585
 30
0.0
 11
452.500183
 21
-569.199707
 31
0.0
  0
LINE
  5
468
330
1F
100
AcDbEntity
  8
0
  6
DASH_CENTER
 62
     3
100
AcDbLine
 10
447.499878
 20
-619.199829
 30
0.0
 11
472.499878
 21
-619.199829
 31
0.0
  0
LINE
  5
469
330
1F
100
AcDbEntity
  8
0
  6
DASH_CENTER
 62
     3
100
AcDbLine
 10
477.848145
 20
-578.199585
 30
0.0
 11
442.848145
 21
-578.199585
 31
0.0
  0
LINE
  5
46A
330
1F
100
AcDbEntity
  8
0
  6
Continuous
 62
     3
100
AcDbLine
 10
463.650391
 20
-569.199585
 30
0.0
 11
463.650391
 21
-538.35022
 31
0.0
  0
LINE
  5
46B
330
1F
100
AcDbEntity
  8
0
  6
Continuous
 62
     3
100
AcDbLine
 10
463.650391
 20
-619.199829
 30
0.0
 11
463.650391
 21
-587.199585
 31
0.0
  0
LINE
  5
46C
330
1F
100
AcDbEntity
  8
0
  6
Continuous
 62
     3
100
AcDbLine
 10
462.850342
 20
-569.199585
 30
0.0
 11
462.850342
 21
-537.550171
 31
0.0
  0
LINE
  5
46D
330
1F
100
AcDbEntity
  8
0
  6
Continuous
 62
     3
100
AcDbLine
 10
462.850342
 20
-619.199829
 30
0.0
 11
462.850342
 21
-587.199585
 31
0.0
  0
LINE
  5
46E
330
1F
100
AcDbEntity
  8
0
  6
Continuous
 62
     3
100
AcDbLine
 10
462.050293
 20
-569.199585
 30
0.0
 11
462.050293
 21
-537.199829
 31
0.0
  0
LINE
  5
46F
330
1F
100
AcDbEntity
  8
0
  6
Continuous
 62
     3
100
AcDbLine
 10
462.050293
 20
-619.199829
 30
0.0
 11
462.050293
 21
-587.199585
 31
0.0
  0
LINE
  5
470
330
1F
100
AcDbEntity
  8
0
  6
Continuous
 62
     3
100
AcDbLine
 10
461.250366
 20
-569.199585
 30
0.0
 11
461.250366
 21
-537.199829
 31
0.0
  0
LINE
  5
471
330
1F
100
AcDbEntity
  8
0
  6
Continuous
 62
     3
100
AcDbLine
 10
461.250366
 20
-619.199829
 30
0.0
 11
461.250366
 21
-587.199585
 31
0.0
  0
LINE
  5
472
330
1F
100
AcDbEntity
  8
0
  6
Continuous
 62
     3
100
AcDbLine
 10
460.450317
 20
-569.199585
 30
0.0
 11
460.450317
 21
-537.199829
 31
0.0
  0
LINE
  5
473
330
1F
100
AcDbEntity
  8
0
  6
Continuous
 62
     3
100
AcDbLine
 10
460.450317
 20
-619.199829
 30
0.0
 11
460.450317
 21
-587.199585
 31
0.0
  0
LINE
  5
474
330
1F
100
AcDbEntity
  8
0
  6
Continuous
 62
     3
100
AcDbLine
 10
459.650391
 20
-569.199585
 30
0.0
 11
459.650391
 21
-537.199829
 31
0.0
  0
LINE
  5
475
330
1F
100
AcDbEntity
  8
0
  6
Continuous
 62
     3
100
AcDbLine
 10
459.650391
 20
-619.199829
 30
0.0
 11
459.650391
 21
-587.199585
 31
0.0
  0
LINE
  5
476
330
1F
100
AcDbEntity
  8
0
  6
Continuous
 62
     3
100
AcDbLine
 10
458.850342
 20
-569.199585
 30
0.0
 11
458.850342
 21
-537.199829
 31
0.0
  0
LINE
  5
477
330
1F
100
AcDbEntity
  8
0
  6
Continuous
 62
     3
100
AcDbLine
 10
458.850342
 20
-619.199829
 30
0.0
 11
458.850342
 21
-587.199585
 31
0.0
  0
LINE
  5
478
330
1F
100
AcDbEntity
  8
0
  6
Continuous
 62
     3
100
AcDbLine
 10
458.050415
 20
-569.199707
 30
0.0
 11
458.050415
 21
-537.199829
 31
0.0
  0
LINE
  5
479
330
1F
100
AcDbEntity
  8
0
  6
Continuous
 62
     3
100
AcDbLine
 10
458.050415
 20
-619.199829
 30
0.0
 11
458.050415
 21
-587.199707
 31
0.0
  0
LINE
  5
47A
330
1F
100
AcDbEntity
  8
0
  6
Continuous
 62
     3
100
AcDbLine
 10
457.250366
 20
-569.199707
 30
0.0
 11
457.250366
 21
-537.199829
 31
0.0
  0
LINE
  5
47B
330
1F
100
AcDbEntity
  8
0
  6
Continuous
 62
     3
100
AcDbLine
 10
457.250366
 20
-619.199829
 30
0.0
 11
457.250366
 21
-587.199707
 31
0.0
  0
LINE
  5
47C
330
1F
100
AcDbEntity
  8
0
  6
Continuous
 62
     3
100
AcDbLine
 10
456.450317
 20
-569.199707
 30
0.0
 11
456.450317
 21
-537.199829
 31
0.0
  0
LINE
  5
47D
330
1F
100
AcDbEntity
  8
0
  6
Continuous
 62
     3
100
AcDbLine
 10
456.450317
 20
-619.199829
 30
0.0
 11
456.450317
 21
-587.199707
 31
0.0
  0
LINE
  5
47E
330
1F
100
AcDbEntity
  8
0
  6
Continuous
 62
     3
100
AcDbLine
 10
455.650391
 20
-569.199707
 30
0.0
 11
455.650391
 21
-537.199829
 31
0.0
  0
LINE
  5
47F
330
1F
100
AcDbEntity
  8
0
  6
Continuous
 62
     3
100
AcDbLine
 10
455.650391
 20
-619.199829
 30
0.0
 11
455.650391
 21
-587.199707
 31
0.0
  0
LINE
  5
480
330
1F
100
AcDbEntity
  8
0
  6
Continuous
 62
     3
100
AcDbLine
 10
454.850342
 20
-569.199707
 30
0.0
 11
454.850342
 21
-537.199829
 31
0.0
  0
LINE
  5
481
330
1F
100
AcDbEntity
  8
0
  6
Continuous
 62
     3
100
AcDbLine
 10
454.850342
 20
-619.199829
 30
0.0
 11
454.850342
 21
-587.199707
 31
0.0
  0
LINE
  5
482
330
1F
100
AcDbEntity
  8
0
  6
Continuous
 62
     3
100
AcDbLine
 10
454.050415
 20
-569.199707
 30
0.0
 11
454.050415
 21
-537.64917
 31
0.0
  0
LINE
  5
483
330
1F
100
AcDbEntity
  8
0
  6
Continuous
 62
     3
100
AcDbLine
 10
454.050415
 20
-619.199829
 30
0.0
 11
454.050415
 21
-587.199707
 31
0.0
  0
LINE
  5
484
330
1F
100
AcDbEntity
  8
0
  6
Continuous
 62
     3
100
AcDbLine
 10
453.250366
 20
-569.199707
 30
0.0
 11
453.250366
 21
-538.449219
 31
0.0
  0
LINE
  5
485
330
1F
100
AcDbEntity
  8
0
  6
Continuous
 62
     3
100
AcDbLine
 10
453.250366
 20
-619.199829
 30
0.0
 11
453.250366
 21
-587.199707
 31
0.0
  0
LINE
  5
486
330
1F
100
AcDbEntity
  8
0
  6
Continuous
 62
     1
100
AcDbLine
 10
464.499878
 20
-583.699829
 30
0.0
 11
464.499878
 21
-586.199585
 31
0.0
  0
LINE
  5
487
330
1F
100
AcDbEntity
  8
0
  6
Continuous
 62
     1
100
AcDbLine
 10
464.499878
 20
-570.199585
 30
0.0
 11
464.499878
 21
-572.699829
 31
0.0
  0
LINE
  5
488
330
1F
100
AcDbEntity
  8
0
  6
Continuous
 62
     3
100
AcDbLine
 10
462.2072986792494
 20
-574.999756
 30
0.0
 11
462.1866686792495
 21
-574.979126
 31
0.0
  0
LINE
  5
489
330
1F
100
AcDbEntity
  8
0
  6
Continuous
 62
     1
100
AcDbLine
 10
473.500977
 20
-586.199829
 30
0.0
 11
471.000977
 21
-583.699829
 31
0.0
  0
LINE
  5
48A
330
1F
100
AcDbEntity
  8
0
  6
Continuous
 62
     1
100
AcDbLine
 10
474.000977
 20
-586.199829
 30
0.0
 11
473.500977
 21
-586.199829
 31
0.0
  0
LINE
  5
48B
330
1F
100
AcDbEntity
  8
0
  6
Continuous
 62
     1
100
AcDbLine
 10
474.000977
 20
-570.199829
 30
0.0
 11
474.000977
 21
-586.199829
 31
0.0
  0
LINE
  5
48C
330
1F
100
AcDbEntity
  8
0
  6
Continuous
 62
     1
100
AcDbLine
 10
473.500977
 20
-570.199829
 30
0.0
 11
474.000977
 21
-570.199829
 31
0.0
  0
LINE
  5
48D
330
1F
100
AcDbEntity
  8
0
  6
Continuous
 62
     1
100
AcDbLine
 10
471.000488
 20
-572.699829
 30
0.0
 11
473.500977
 21
-570.199829
 31
0.0
  0
LINE
  5
48E
330
1F
100
AcDbEntity
  8
0
  6
Continuous
 62
     1
100
AcDbLine
 10
459.500854
 20
-572.699829
 30
0.0
 11
471.000488
 21
-572.699829
 31
0.0
  0
LINE
  5
48F
330
1F
100
AcDbEntity
  8
0
  6
Continuous
 62
     1
100
AcDbLine
 10
459.000977
 20
-573.199829
 30
0.0
 11
459.500854
 21
-572.699829
 31
0.0
  0
LINE
  5
490
330
1F
100
AcDbEntity
  8
0
  6
Continuous
 62
     1
100
AcDbLine
 10
459.000977
 20
-574.199829
 30
0.0
 11
459.000977
 21
-573.199829
 31
0.0
  0
LINE
  5
491
330
1F
100
AcDbEntity
  8
0
  6
Continuous
 62
     1
100
AcDbLine
 10
462.1866686792495
 20
-574.199829
 30
0.0
 11
459.000977
 21
-574.199829
 31
0.0
  0
LINE
  5
492
330
1F
100
AcDbEntity
  8
0
  6
Continuous
 62
     1
100
AcDbLine
 10
462.1866686792495
 20
-574.999756
 30
0.0
 11
462.1866686792495
 21
-574.199829
 31
0.0
  0
LINE
  5
493
330
1F
100
AcDbEntity
  8
0
  6
Continuous
 62
     1
100
AcDbLine
 10
471.000732
 20
-574.999756
 30
0.0
 11
462.1866686792495
 21
-574.999756
 31
0.0
  0
LINE
  5
494
330
1F
100
AcDbEntity
  8
0
  6
Continuous
 62
     1
100
AcDbLine
 10
472.848145
 20
-578.199585
 30
0.0
 11
471.000732
 21
-574.999756
 31
0.0
  0
LINE
  5
495
330
1F
100
AcDbEntity
  8
0
  6
Continuous
 62
     1
100
AcDbLine
 10
471.00061
 20
-581.39978
 30
0.0
 11
472.848145
 21
-578.199585
 31
0.0
  0
LINE
  5
496
330
1F
100
AcDbEntity
  8
0
  6
Continuous
 62
     1
100
AcDbLine
 10
462.1866686792495
 20
-581.39978
 30
0.0
 11
471.00061
 21
-581.39978
 31
0.0
  0
LINE
  5
497
330
1F
100
AcDbEntity
  8
0
  6
Continuous
 62
     1
100
AcDbLine
 10
462.1866686792495
 20
-582.199829
 30
0.0
 11
462.1866686792495
 21
-581.39978
 31
0.0
  0
LINE
  5
498
330
1F
100
AcDbEntity
  8
0
  6
Continuous
 62
     1
100
AcDbLine
 10
459.000977
 20
-582.199829
 30
0.0
 11
462.1866686792495
 21
-582.199829
 31
0.0
  0
LINE
  5
499
330
1F
100
AcDbEntity
  8
0
  6
Continuous
 62
     1
100
AcDbLine
 10
459.000977
 20
-583.199829
 30
0.0
 11
459.000977
 21
-582.199829
 31
0.0
  0
LINE
  5
49A
330
1F
100
AcDbEntity
  8
0
  6
Continuous
 62
     1
100
AcDbLine
 10
459.500977
 20
-583.699829
 30
0.0
 11
459.000977
 21
-583.199829
 31
0.0
  0
LINE
  5
49B
330
1F
100
AcDbEntity
  8
0
  6
Continuous
 62
     1
100
AcDbLine
 10
450.7365956792494
 20
-574.199829
 30
0.0
 11
462.1866686792495
 21
-574.199829
 31
0.0
  0
LINE
  5
49C
330
1F
100
AcDbEntity
  8
0
  6
Continuous
 62
     1
100
AcDbLine
 10
450.7365956792494
 20
-582.199829
 30
0.0
 11
450.7365956792494
 21
-574.199829
 31
0.0
  0
LINE
  5
49D
330
1F
100
AcDbEntity
  8
0
  6
Continuous
 62
     1
100
AcDbLine
 10
462.1866686792495
 20
-582.199829
 30
0.0
 11
450.7365956792494
 21
-582.199829
 31
0.0
  0
LINE
  5
49E
330
1F
100
AcDbEntity
  8
0
  6
Continuous
 62
     1
100
AcDbLine
 10
465.700684
 20
-604.199585
 30
0.0
 11
465.700684
 21
-583.699829
 31
0.0
  0
LINE
  5
49F
330
1F
100
AcDbEntity
  8
0
  6
Continuous
 62
     1
100
AcDbLine
 10
471.700684
 20
-604.199585
 30
0.0
 11
465.700684
 21
-604.199585
 31
0.0
  0
LINE
  5
4A0
330
1F
100
AcDbEntity
  8
0
  6
Continuous
 62
     1
100
AcDbLine
 10
473.700684
 20
-602.199463
 30
0.0
 11
471.700684
 21
-604.199585
 31
0.0
  0
LINE
  5
4A1
330
1F
100
AcDbEntity
  8
0
  6
Continuous
 62
     1
100
AcDbLine
 10
473.700684
 20
-586.399536
 30
0.0
 11
473.700684
 21
-602.199463
 31
0.0
  0
LINE
  5
4A2
330
1F
100
AcDbEntity
  8
0
  6
Continuous
 62
     1
100
AcDbLine
 10
471.000977
 20
-583.699829
 30
0.0
 11
473.700684
 21
-586.399536
 31
0.0
  0
LINE
  5
4A3
330
1F
100
AcDbEntity
  8
0
  6
Continuous
 62
     1
100
AcDbLine
 10
468.000977
 20
-574.999756
 30
0.0
 11
468.000977
 21
-581.39978
 31
0.0
  0
LINE
  5
4A4
330
1F
100
AcDbEntity
  8
0
  6
Continuous
 62
     2
100
AcDbLine
 10
465.200195
 20
-569.699585
 30
0.0
 11
465.000244
 21
-569.699585
 31
0.0
  0
LINE
  5
4A5
330
1F
100
AcDbEntity
  8
0
  6
Continuous
 62
     2
100
AcDbLine
 10
465.200195
 20
-566.699585
 30
0.0
 11
465.200195
 21
-569.699585
 31
0.0
  0
LINE
  5
4A6
330
1F
100
AcDbEntity
  8
0
  6
Continuous
 62
     2
100
AcDbLine
 10
465.000244
 20
-566.699585
 30
0.0
 11
465.200195
 21
-566.699585
 31
0.0
  0
LINE
  5
4A7
330
1F
100
AcDbEntity
  8
0
  6
Continuous
 62
     2
100
AcDbLine
 10
465.000244
 20
-569.699585
 30
0.0
 11
465.000244
 21
-566.699585
 31
0.0
  0
LINE
  5
4A8
330
1F
100
AcDbEntity
  8
0
  6
Continuous
 62
     1
100
AcDbLine
 10
465.700195
 20
-570.199585
 30
0.0
 11
464.499878
 21
-570.199585
 31
0.0
  0
LINE
  5
4A9
330
1F
100
AcDbEntity
  8
0
  6
Continuous
 62
     1
100
AcDbLine
 10
465.700195
 20
-566.199585
 30
0.0
 11
465.700195
 21
-570.199585
 31
0.0
  0
LINE
  5
4AA
330
1F
100
AcDbEntity
  8
0
  6
Continuous
 62
     1
100
AcDbLine
 10
464.500244
 20
-566.199585
 30
0.0
 11
465.700195
 21
-566.199585
 31
0.0
  0
LINE
  5
4AB
330
1F
100
AcDbEntity
  8
0
  6
Continuous
 62
     1
100
AcDbLine
 10
464.499878
 20
-570.199585
 30
0.0
 11
464.500244
 21
-566.199585
 31
0.0
  0
LINE
  5
4AC
330
1F
100
AcDbEntity
  8
0
  6
Continuous
 62
     2
100
AcDbLine
 10
465.200195
 20
-601.699585
 30
0.0
 11
465.000244
 21
-601.699585
 31
0.0
  0
LINE
  5
4AD
330
1F
100
AcDbEntity
  8
0
  6
Continuous
 62
     2
100
AcDbLine
 10
465.200195
 20
-586.699585
 30
0.0
 11
465.200195
 21
-601.699585
 31
0.0
  0
LINE
  5
4AE
330
1F
100
AcDbEntity
  8
0
  6
Continuous
 62
     2
100
AcDbLine
 10
465.000244
 20
-586.699585
 30
0.0
 11
465.200195
 21
-586.699585
 31
0.0
  0
LINE
  5
4AF
330
1F
100
AcDbEntity
  8
0
  6
Continuous
 62
     2
100
AcDbLine
 10
465.000244
 20
-601.699585
 30
0.0
 11
465.000244
 21
-586.699585
 31
0.0
  0
LINE
  5
4B0
330
1F
100
AcDbEntity
  8
0
  6
Continuous
 62
     1
100
AcDbLine
 10
465.700195
 20
-602.199585
 30
0.0
 11
464.500244
 21
-602.199585
 31
0.0
  0
LINE
  5
4B1
330
1F
100
AcDbEntity
  8
0
  6
Continuous
 62
     1
100
AcDbLine
 10
465.700195
 20
-586.199585
 30
0.0
 11
465.700195
 21
-602.199585
 31
0.0
  0
LINE
  5
4B2
330
1F
100
AcDbEntity
  8
0
  6
Continuous
 62
     1
100
AcDbLine
 10
464.499878
 20
-586.199585
 30
0.0
 11
465.700195
 21
-586.199585
 31
0.0
  0
LINE
  5
4B3
330
1F
100
AcDbEntity
  8
0
  6
Continuous
 62
     1
100
AcDbLine
 10
464.500244
 20
-602.199585
 30
0.0
 11
464.499878
 21
-586.199585
 31
0.0
  0
LINE
  5
4B4
330
1F
100
AcDbEntity
  8
0
  6
Continuous
 62
     1
100
AcDbLine
 10
471.000488
 20
-572.699829
 30
0.0
 11
465.700684
 21
-572.699585
 31
0.0
  0
LINE
  5
4B5
330
1F
100
AcDbEntity
  8
0
  6
Continuous
 62
     1
100
AcDbLine
 10
471.000488
 20
-572.699829
 30
0.0
 11
473.700684
 21
-569.999512
 31
0.0
  0
LINE
  5
4B6
330
1F
100
AcDbEntity
  8
0
  6
Continuous
 62
     1
100
AcDbLine
 10
473.700684
 20
-566.199463
 30
0.0
 11
473.700684
 21
-569.999512
 31
0.0
  0
LINE
  5
4B7
330
1F
100
AcDbEntity
  8
0
  6
Continuous
 62
     1
100
AcDbLine
 10
471.700684
 20
-564.199585
 30
0.0
 11
473.700684
 21
-566.199463
 31
0.0
  0
LINE
  5
4B8
330
1F
100
AcDbEntity
  8
0
  6
Continuous
 62
     1
100
AcDbLine
 10
465.700684
 20
-564.199585
 30
0.0
 11
471.700684
 21
-564.199585
 31
0.0
  0
LINE
  5
4B9
330
1F
100
AcDbEntity
  8
0
  6
Continuous
 62
     1
100
AcDbLine
 10
465.700684
 20
-572.699585
 30
0.0
 11
465.700684
 21
-564.199585
 31
0.0
  0
LINE
  5
4BA
330
1F
100
AcDbEntity
  8
0
  6
Continuous
 62
     3
100
AcDbLine
 10
468.000977
 20
-574.199829
 30
0.0
 11
462.1866686792495
 21
-574.199829
 31
0.0
  0
LINE
  5
4BB
330
1F
100
AcDbEntity
  8
0
  6
Continuous
 62
     1
100
AcDbLine
 10
468.000977
 20
-574.999756
 30
0.0
 11
468.000977
 21
-574.199829
 31
0.0
  0
LINE
  5
4BC
330
1F
100
AcDbEntity
  8
0
  6
Continuous
 62
     1
100
AcDbLine
 10
468.000977
 20
-582.199829
 30
0.0
 11
468.000977
 21
-581.39978
 31
0.0
  0
LINE
  5
4BD
330
1F
100
AcDbEntity
  8
0
  6
Continuous
 62
     3
100
AcDbLine
 10
462.1866686792495
 20
-582.199829
 30
0.0
 11
468.000977
 21
-582.199829
 31
0.0
  0
LINE
  5
4BE
330
1F
100
AcDbEntity
  8
0
  6
Continuous
 62
     1
100
AcDbLine
 10
471.000732
 20
-574.999756
 30
0.0
 11
471.00061
 21
-581.39978
 31
0.0
  0
LINE
  5
4BF
330
1F
100
AcDbEntity
  8
0
  6
Continuous
 62
     1
100
AcDbLine
 10
462.1866686792495
 20
-574.999756
 30
0.0
 11
462.1866686792495
 21
-581.39978
 31
0.0
  0
LINE
  5
4C0
330
1F
100
AcDbEntity
  8
0
  6
Continuous
 62
     3
100
AcDbLine
 10
449.1364976792494
 20
-581.39978
 30
0.0
 11
462.1866686792495
 21
-581.39978
 31
0.0
  0
LINE
  5
4C1
330
1F
100
AcDbEntity
  8
0
  6
Continuous
 62
     3
100
AcDbLine
 10
449.1364976792494
 20
-574.999756
 30
0.0
 11
462.1866686792495
 21
-574.999756
 31
0.0
  0
LINE
  5
4C2
330
1F
100
AcDbEntity
  8
0
  6
Continuous
 62
     1
100
AcDbLine
 10
450.7365956792494
 20
-582.199829
 30
0.0
 11
449.5365226792495
 21
-581.506836
 31
0.0
  0
LINE
  5
4C3
330
1F
100
AcDbEntity
  8
0
  6
Continuous
 62
     1
100
AcDbLine
 10
450.7365956792494
 20
-574.199829
 30
0.0
 11
449.5365226792495
 21
-574.892578
 31
0.0
  0
LINE
  5
4C4
330
1F
100
AcDbEntity
  8
0
  6
Continuous
 62
     1
100
AcDbLine
 10
444.1867906792494
 20
-577.199829
 30
0.0
 11
444.1866686792495
 21
-570.949829
 31
0.0
  0
LINE
  5
4C5
330
1F
100
AcDbEntity
  8
0
  6
Continuous
 62
     1
100
AcDbLine
 10
444.1866686792495
 20
-579.199829
 30
0.0
 11
444.1867906792494
 21
-585.449829
 31
0.0
  0
LINE
  5
4C6
330
1F
100
AcDbEntity
  8
0
  6
Continuous
 62
     1
100
AcDbLine
 10
445.7867666792495
 20
-579.199829
 30
0.0
 11
444.1866686792495
 21
-579.199829
 31
0.0
  0
LINE
  5
4C7
330
1F
100
AcDbEntity
  8
0
  6
Continuous
 62
     1
100
AcDbLine
 10
445.7867666792495
 20
-577.199829
 30
0.0
 11
445.7867666792495
 21
-579.199829
 31
0.0
  0
LINE
  5
4C8
330
1F
100
AcDbEntity
  8
0
  6
Continuous
 62
     1
100
AcDbLine
 10
444.1867906792494
 20
-577.199829
 30
0.0
 11
445.7867666792495
 21
-577.199829
 31
0.0
  0
LINE
  5
4C9
330
1F
100
AcDbEntity
  8
0
  6
Continuous
 62
     3
100
AcDbLine
 10
448.2365956792494
 20
-575.499756
 30
0.0
 11
448.2365956792494
 21
-580.89978
 31
0.0
  0
LINE
  5
4CA
330
1F
100
AcDbEntity
  8
0
  6
Continuous
 62
     1
100
AcDbLine
 10
444.1867906792494
 20
-585.449829
 30
0.0
 11
448.0020986792495
 21
-581.634033
 31
0.0
  0
LINE
  5
4CB
330
1F
100
AcDbEntity
  8
0
  6
Continuous
 62
     1
100
AcDbLine
 10
444.1866686792495
 20
-570.949829
 30
0.0
 11
448.0022206792494
 21
-574.765381
 31
0.0
  0
LINE
  5
4CC
330
1F
100
AcDbEntity
  8
0
  6
Continuous
 62
     1
100
AcDbLine
 10
448.5678946792494
 20
-581.39978
 30
0.0
 11
449.1364976792494
 21
-581.39978
 31
0.0
  0
LINE
  5
4CD
330
1F
100
AcDbEntity
  8
0
  6
Continuous
 62
     1
100
AcDbLine
 10
448.5680166792495
 20
-574.999756
 30
0.0
 11
449.1364976792494
 21
-574.999756
 31
0.0
  0
LINE
  5
4CE
330
1F
100
AcDbEntity
  8
0
  6
Continuous
 62
     3
100
AcDbLine
 10
448.500244
 20
-515.999878
 30
0.0
 11
441.500244
 21
-515.999878
 31
0.0
  0
LINE
  5
4CF
330
1F
100
AcDbEntity
  8
0
  6
Continuous
 62
     3
100
AcDbLine
 10
448.500244
 20
-512.399902
 30
0.0
 11
441.500244
 21
-512.399902
 31
0.0
  0
LINE
  5
4D0
330
1F
100
AcDbEntity
  8
0
  6
Continuous
 62
     1
100
AcDbLine
 10
448.500244
 20
-511.699951
 30
0.0
 11
441.500244
 21
-511.699951
 31
0.0
  0
LINE
  5
4D1
330
1F
100
AcDbEntity
  8
0
  6
Continuous
 62
     1
100
AcDbLine
 10
448.500244
 20
-516.699951
 30
0.0
 11
441.500244
 21
-516.699951
 31
0.0
  0
LINE
  5
4D2
330
1F
100
AcDbEntity
  8
0
  6
Continuous
 62
     1
100
AcDbLine
 10
448.500244
 20
-511.699951
 30
0.0
 11
448.500244
 21
-516.699951
 31
0.0
  0
LINE
  5
4D3
330
1F
100
AcDbEntity
  8
0
  6
Continuous
 62
     1
100
AcDbLine
 10
443.399732
 20
-574.299805
 30
0.0
 11
443.2997560000001
 21
-574.199707
 31
0.0
  0
LINE
  5
4D4
330
1F
100
AcDbEntity
  8
0
  6
DASH_CENTER
 62
     3
100
AcDbLine
 10
462.600342
 20
-514.199951
 30
0.0
 11
401.800293
 21
-514.199951
 31
0.0
  0
LINE
  5
4D5
330
1F
100
AcDbEntity
  8
0
  6
Continuous
 62
     1
100
AcDbLine
 10
439.5
 20
-521.899902
 30
0.0
 11
439.5
 21
-502.0
 31
0.0
  0
LINE
  5
4D6
330
1F
100
AcDbEntity
  8
0
  6
DASH_CENTER
 62
     3
100
AcDbLine
 10
486.432495
 20
-511.699951
 30
0.0
 11
486.432495
 21
-551.699951
 31
0.0
  0
LINE
  5
4D7
330
1F
100
AcDbEntity
  8
0
  6
DASH_CENTER
 62
     3
100
AcDbLine
 10
471.499878
 20
-476.699951
 30
0.0
 11
446.499878
 21
-476.699951
 31
0.0
  0
LINE
  5
4D8
102
{ACAD_REACTORS
330
5F6
330
5F6
102
}
330
1F
100
AcDbEntity
  8
0
  6
Continuous
 62
     1
100
AcDbLine
 10
451.499878
 20
-488.699951
 30
0.0
 11
442.499878
 21
-488.699951
 31
0.0
  0
LINE
  5
4D9
102
{ACAD_REACTORS
330
5F6
330
5F6
102
}
330
1F
100
AcDbEntity
  8
0
  6
Continuous
 62
     1
100
AcDbLine
 10
451.499878
 20
-486.699951
 30
0.0
 11
451.499878
 21
-488.699951
 31
0.0
  0
LINE
  5
4DA
102
{ACAD_REACTORS
330
5F6
330
5F6
102
}
330
1F
100
AcDbEntity
  8
0
  6
Continuous
 62
     1
100
AcDbLine
 10
442.499878
 20
-486.699951
 30
0.0
 11
451.499878
 21
-486.699951
 31
0.0
  0
LINE
  5
4DB
102
{ACAD_REACTORS
330
5F6
330
5F6
102
}
330
1F
100
AcDbEntity
  8
0
  6
Continuous
 62
     1
100
AcDbLine
 10
439.499878
 20
-530.699951
 30
0.0
 11
439.499878
 21
-489.699951
 31
0.0
  0
LINE
  5
4DC
102
{ACAD_REACTORS
330
5F6
330
5F6
102
}
330
1F
100
AcDbEntity
  8
0
  6
Continuous
 62
     1
100
AcDbLine
 10
475.432495
 20
-543.699951
 30
0.0
 11
475.432495
 21
-534.699951
 31
0.0
  0
LINE
  5
4DD
102
{ACAD_REACTORS
330
5F6
330
5F6
102
}
330
1F
100
AcDbEntity
  8
0
  6
Continuous
 62
     1
100
AcDbLine
 10
486.432495
 20
-546.699951
 30
0.0
 11
478.432495
 21
-546.699951
 31
0.0
  0
LINE
  5
4DE
102
{ACAD_REACTORS
330
5F6
330
5F6
102
}
330
1F
100
AcDbEntity
  8
0
  6
Continuous
 62
     1
100
AcDbLine
 10
486.432495
 20
-544.699951
 30
0.0
 11
486.432495
 21
-546.699951
 31
0.0
  0
LINE
  5
4DF
102
{ACAD_REACTORS
330
5F6
330
5F6
102
}
330
1F
100
AcDbEntity
  8
0
  6
Continuous
 62
     1
100
AcDbLine
 10
478.432495
 20
-544.699951
 30
0.0
 11
486.432495
 21
-544.699951
 31
0.0
  0
LINE
  5
4E0
102
{ACAD_REACTORS
330
5F6
330
5F6
102
}
330
1F
100
AcDbEntity
  8
0
  6
Continuous
 62
     1
100
AcDbLine
 10
477.432495
 20
-534.699951
 30
0.0
 11
477.432495
 21
-543.699951
 31
0.0
  0
LINE
  5
4E1
330
1F
100
AcDbEntity
  8
0
  6
Continuous
 62
     1
100
AcDbLine
 10
471.514771
 20
-539.652466
 30
0.0
 11
471.685059
 21
-539.547607
 31
0.0
  0
LINE
  5
4E2
102
{ACAD_REACTORS
330
5F6
330
5F6
102
}
330
1F
100
AcDbEntity
  8
0
  6
Continuous
 62
     1
100
AcDbLine
 10
442.499878
 20
-531.699951
 30
0.0
 11
464.941284
 21
-531.699951
 31
0.0
  0
LINE
  5
4E3
102
{ACAD_REACTORS
330
5F6
330
5F6
102
}
330
1F
100
AcDbEntity
  8
0
  6
Continuous
 62
     1
100
AcDbLine
 10
441.499878
 20
-489.699951
 30
0.0
 11
441.499878
 21
-530.699951
 31
0.0
  0
LINE
  5
4E4
330
1F
100
AcDbEntity
  8
0
  6
Continuous
 62
     1
100
AcDbLine
 10
239.5
 20
-515.699951
 30
0.0
 11
254.901611
 21
-515.699951
 31
0.0
  0
LINE
  5
4E5
330
1F
100
AcDbEntity
  8
0
  6
Continuous
 62
     1
100
AcDbLine
 10
239.5
 20
-512.699829
 30
0.0
 11
254.901794
 21
-512.699829
 31
0.0
  0
LINE
  5
4E6
330
1F
100
AcDbEntity
  8
0
  6
Continuous
 62
     1
100
AcDbLine
 10
486.432495
 20
-511.699951
 30
0.0
 11
471.499878
 21
-511.699951
 31
0.0
  0
LINE
  5
4E7
330
1F
100
AcDbEntity
  8
0
  6
DASH_CENTER
 62
     3
100
AcDbLine
 10
486.432495
 20
-476.699951
 30
0.0
 11
486.432495
 21
-511.699951
 31
0.0
  0
LINE
  5
4E8
330
1F
100
AcDbEntity
  8
0
  6
DASH_CENTER
 62
     3
100
AcDbLine
 10
471.499878
 20
-476.699951
 30
0.0
 11
486.432495
 21
-476.699951
 31
0.0
  0
LINE
  5
4E9
330
1F
100
AcDbEntity
  8
0
  6
Continuous
 62
     1
100
AcDbLine
 10
471.499878
 20
-511.699951
 30
0.0
 11
471.499878
 21
-476.699951
 31
0.0
  0
LINE
  5
4EA
330
1F
100
AcDbEntity
  8
0
  6
Continuous
 62
     1
100
AcDbLine
 10
453.499878
 20
-486.699951
 30
0.0
 11
453.499878
 21
-476.699951
 31
0.0
  0
LINE
  5
4EB
330
1F
100
AcDbEntity
  8
0
  6
Continuous
 62
     1
100
AcDbLine
 10
451.499878
 20
-486.699951
 30
0.0
 11
453.499878
 21
-486.699951
 31
0.0
  0
LINE
  5
4EC
330
1F
100
AcDbEntity
  8
0
  6
Continuous
 62
     1
100
AcDbLine
 10
451.499878
 20
-486.699951
 30
0.0
 11
451.499878
 21
-476.699951
 31
0.0
  0
LINE
  5
4ED
330
1F
100
AcDbEntity
  8
0
  6
Continuous
 62
     3
100
AcDbLine
 10
252.5
 20
-476.699951
 30
0.0
 11
279.60376
 21
-476.699951
 31
0.0
  0
LINE
  5
4EE
330
1F
100
AcDbEntity
  8
0
  6
Continuous
 62
     3
100
AcDbLine
 10
282.5
 20
-480.874756
 30
0.0
 11
279.60376
 21
-476.699951
 31
0.0
  0
LINE
  5
4EF
330
1F
100
AcDbEntity
  8
0
  6
Continuous
 62
     3
100
AcDbLine
 10
282.5
 20
-480.874756
 30
0.0
 11
282.5
 21
-522.372314
 31
0.0
  0
LINE
  5
4F0
330
1F
100
AcDbEntity
  8
0
  6
Continuous
 62
     3
100
AcDbLine
 10
282.5
 20
-523.699951
 30
0.0
 11
282.5
 21
-522.372314
 31
0.0
  0
LINE
  5
4F1
330
1F
100
AcDbEntity
  8
0
  6
Continuous
 62
     3
100
AcDbLine
 10
284.1875
 20
-525.5625
 30
0.0
 11
282.5
 21
-523.699951
 31
0.0
  0
LINE
  5
4F2
330
1F
100
AcDbEntity
  8
0
  6
Continuous
 62
     3
100
AcDbLine
 10
281.1875
 20
-526.9375
 30
0.0
 11
284.1875
 21
-525.5625
 31
0.0
  0
LINE
  5
4F3
330
1F
100
AcDbEntity
  8
0
  6
Continuous
 62
     3
100
AcDbLine
 10
284.5625
 20
-527.3125
 30
0.0
 11
281.1875
 21
-526.9375
 31
0.0
  0
LINE
  5
4F4
330
1F
100
AcDbEntity
  8
0
  6
Continuous
 62
     3
100
AcDbLine
 10
279.3125
 20
-530.0625
 30
0.0
 11
284.5625
 21
-527.3125
 31
0.0
  0
LINE
  5
4F5
330
1F
100
AcDbEntity
  8
0
  6
Continuous
 62
     3
100
AcDbLine
 10
285.6875
 20
-531.4375
 30
0.0
 11
279.3125
 21
-530.0625
 31
0.0
  0
LINE
  5
4F6
330
1F
100
AcDbEntity
  8
0
  6
Continuous
 62
     3
100
AcDbLine
 10
280.9375
 20
-532.6875
 30
0.0
 11
285.6875
 21
-531.4375
 31
0.0
  0
LINE
  5
4F7
330
1F
100
AcDbEntity
  8
0
  6
Continuous
 62
     3
100
AcDbLine
 10
283.8125
 20
-534.8125
 30
0.0
 11
280.9375
 21
-532.6875
 31
0.0
  0
LINE
  5
4F8
330
1F
100
AcDbEntity
  8
0
  6
Continuous
 62
     3
100
AcDbLine
 10
280.9375
 20
-536.0625
 30
0.0
 11
283.8125
 21
-534.8125
 31
0.0
  0
LINE
  5
4F9
330
1F
100
AcDbEntity
  8
0
  6
Continuous
 62
     3
100
AcDbLine
 10
283.8125
 20
-536.6875
 30
0.0
 11
280.9375
 21
-536.0625
 31
0.0
  0
LINE
  5
4FA
330
1F
100
AcDbEntity
  8
0
  6
Continuous
 62
     3
100
AcDbLine
 10
280.9375
 20
-538.1875
 30
0.0
 11
283.8125
 21
-536.6875
 31
0.0
  0
LINE
  5
4FB
330
1F
100
AcDbEntity
  8
0
  6
Continuous
 62
     3
100
AcDbLine
 10
283.9375
 20
-539.6875
 30
0.0
 11
280.9375
 21
-538.1875
 31
0.0
  0
LINE
  5
4FC
330
1F
100
AcDbEntity
  8
0
  6
Continuous
 62
     3
100
AcDbLine
 10
280.5625
 20
-541.5625
 30
0.0
 11
283.9375
 21
-539.6875
 31
0.0
  0
LINE
  5
4FD
330
1F
100
AcDbEntity
  8
0
  6
Continuous
 62
     3
100
AcDbLine
 10
283.9375
 20
-542.3125
 30
0.0
 11
280.5625
 21
-541.5625
 31
0.0
  0
LINE
  5
4FE
330
1F
100
AcDbEntity
  8
0
  6
Continuous
 62
     3
100
AcDbLine
 10
282.0625
 20
-543.4375
 30
0.0
 11
283.9375
 21
-542.3125
 31
0.0
  0
LINE
  5
4FF
330
1F
100
AcDbEntity
  8
0
  6
Continuous
 62
     3
100
AcDbLine
 10
285.4375
 20
-543.9375
 30
0.0
 11
282.0625
 21
-543.4375
 31
0.0
  0
LINE
  5
500
330
1F
100
AcDbEntity
  8
0
  6
Continuous
 62
     3
100
AcDbLine
 10
280.799927
 20
-546.699951
 30
0.0
 11
285.4375
 21
-543.9375
 31
0.0
  0
LINE
  5
501
330
1F
100
AcDbEntity
  8
0
  6
Continuous
 62
     3
100
AcDbLine
 10
250.9375
 20
-478.9375
 30
0.0
 11
252.5
 21
-476.699951
 31
0.0
  0
LINE
  5
502
330
1F
100
AcDbEntity
  8
0
  6
Continuous
 62
     3
100
AcDbLine
 10
249.4375
 20
-476.5625
 30
0.0
 11
250.9375
 21
-478.9375
 31
0.0
  0
LINE
  5
503
330
1F
100
AcDbEntity
  8
0
  6
Continuous
 62
     3
100
AcDbLine
 10
247.9375
 20
-479.5625
 30
0.0
 11
249.4375
 21
-476.5625
 31
0.0
  0
LINE
  5
504
330
1F
100
AcDbEntity
  8
0
  6
Continuous
 62
     3
100
AcDbLine
 10
247.3125
 20
-478.0625
 30
0.0
 11
247.9375
 21
-479.5625
 31
0.0
  0
LINE
  5
505
330
1F
100
AcDbEntity
  8
0
  6
Continuous
 62
     3
100
AcDbLine
 10
245.8125
 20
-480.3125
 30
0.0
 11
247.3125
 21
-478.0625
 31
0.0
  0
LINE
  5
506
330
1F
100
AcDbEntity
  8
0
  6
Continuous
 62
     3
100
AcDbLine
 10
244.5625
 20
-476.6875
 30
0.0
 11
245.8125
 21
-480.3125
 31
0.0
  0
LINE
  5
507
330
1F
100
AcDbEntity
  8
0
  6
Continuous
 62
     3
100
AcDbLine
 10
243.4375
 20
-480.3125
 30
0.0
 11
244.5625
 21
-476.6875
 31
0.0
  0
LINE
  5
508
330
1F
100
AcDbEntity
  8
0
  6
Continuous
 62
     3
100
AcDbLine
 10
242.8125
 20
-478.4375
 30
0.0
 11
243.4375
 21
-480.3125
 31
0.0
  0
LINE
  5
509
330
1F
100
AcDbEntity
  8
0
  6
Continuous
 62
     3
100
AcDbLine
 10
241.6875
 20
-481.5625
 30
0.0
 11
242.8125
 21
-478.4375
 31
0.0
  0
LINE
  5
50A
330
1F
100
AcDbEntity
  8
0
  6
Continuous
 62
     3
100
AcDbLine
 10
239.5
 20
-476.699951
 30
0.0
 11
241.6875
 21
-481.5625
 31
0.0
  0
LINE
  5
50B
330
1F
100
AcDbEntity
  8
0
  6
Continuous
 62
     3
100
AcDbLine
 10
281.172363
 20
-523.699951
 30
0.0
 11
282.5
 21
-522.372314
 31
0.0
  0
LINE
  5
50C
330
1F
100
AcDbEntity
  8
0
  6
Continuous
 62
     1
100
AcDbLine
 10
282.5
 20
-523.699951
 30
0.0
 11
252.5
 21
-523.699951
 31
0.0
  0
LINE
  5
50D
330
1F
100
AcDbEntity
  8
0
  6
Continuous
 62
     1
100
AcDbLine
 10
252.5
 20
-512.699829
 30
0.0
 11
252.5
 21
-476.699951
 31
0.0
  0
LINE
  5
50E
330
1F
100
AcDbEntity
  8
0
  6
Continuous
 62
     1
100
AcDbLine
 10
252.5
 20
-523.699951
 30
0.0
 11
252.5
 21
-515.699951
 31
0.0
  0
LINE
  5
50F
330
1F
100
AcDbEntity
  8
0
  6
Continuous
 62
     1
100
AcDbLine
 10
252.5
 20
-523.699951
 30
0.0
 11
252.5
 21
-533.699951
 31
0.0
  0
LINE
  5
510
330
1F
100
AcDbEntity
  8
0
  6
Continuous
 62
     1
100
AcDbLine
 10
239.5
 20
-533.699951
 30
0.0
 11
239.5
 21
-490.900146
 31
0.0
  0
LINE
  5
511
330
1F
100
AcDbEntity
  8
0
  6
Continuous
 62
     1
100
AcDbLine
 10
252.5
 20
-533.699951
 30
0.0
 11
270.799927
 21
-533.699951
 31
0.0
  0
LINE
  5
512
330
1F
100
AcDbEntity
  8
0
  6
Continuous
 62
     1
100
AcDbLine
 10
239.5
 20
-533.699951
 30
0.0
 11
252.5
 21
-533.699951
 31
0.0
  0
LINE
  5
513
330
1F
100
AcDbEntity
  8
0
  6
Continuous
 62
     1
100
AcDbLine
 10
265.799927
 20
-546.699951
 30
0.0
 11
280.799927
 21
-546.699951
 31
0.0
  0
LINE
  5
514
330
1F
100
AcDbEntity
  8
0
  6
Continuous
 62
     1
100
AcDbLine
 10
265.799927
 20
-540.699951
 30
0.0
 11
265.799927
 21
-546.699951
 31
0.0
  0
LINE
  5
515
330
1F
100
AcDbEntity
  8
0
  6
Continuous
 62
     1
100
AcDbLine
 10
270.799927
 20
-540.699951
 30
0.0
 11
265.799927
 21
-540.699951
 31
0.0
  0
LINE
  5
516
330
1F
100
AcDbEntity
  8
0
  6
Continuous
 62
     1
100
AcDbLine
 10
270.799927
 20
-533.699951
 30
0.0
 11
270.799927
 21
-540.699951
 31
0.0
  0
LINE
  5
517
330
1F
100
AcDbEntity
  8
0
  6
Continuous
 62
     1
100
AcDbLine
 10
239.5
 20
-512.108521
 30
0.0
 11
240.730255
 21
-516.699829
 31
0.0
  0
LINE
  5
518
330
1F
100
AcDbEntity
  8
0
  6
Continuous
 62
     1
100
AcDbLine
 10
241.978699
 20
-511.699829
 30
0.0
 11
243.31842
 21
-516.699829
 31
0.0
  0
LINE
  5
519
330
1F
100
AcDbEntity
  8
0
  6
Continuous
 62
     1
100
AcDbLine
 10
244.566772
 20
-511.699585
 30
0.0
 11
245.906555
 21
-516.699829
 31
0.0
  0
LINE
  5
51A
330
1F
100
AcDbEntity
  8
0
  6
Continuous
 62
     1
100
AcDbLine
 10
247.155029
 20
-511.699585
 30
0.0
 11
248.494812
 21
-516.699951
 31
0.0
  0
LINE
  5
51B
330
1F
100
AcDbEntity
  8
0
  6
Continuous
 62
     1
100
AcDbLine
 10
249.743225
 20
-511.699585
 30
0.0
 11
251.083008
 21
-516.699951
 31
0.0
  0
LINE
  5
51C
330
1F
100
AcDbEntity
  8
0
  6
Continuous
 62
     1
100
AcDbLine
 10
252.33136
 20
-511.699707
 30
0.0
 11
253.671082
 21
-516.699951
 31
0.0
  0
LINE
  5
51D
330
1F
100
AcDbEntity
  8
0
  6
Continuous
 62
     1
100
AcDbLine
 10
254.919556
 20
-511.699829
 30
0.0
 11
256.259338
 21
-516.699951
 31
0.0
  0
LINE
  5
51E
330
1F
100
AcDbEntity
  8
0
  6
Continuous
 62
     1
100
AcDbLine
 10
257.5
 20
-514.199951
 30
0.0
 11
254.901611
 21
-515.699951
 31
0.0
  0
LINE
  5
51F
330
1F
100
AcDbEntity
  8
0
  6
Continuous
 62
     1
100
AcDbLine
 10
257.5
 20
-514.199951
 30
0.0
 11
254.901794
 21
-512.699829
 31
0.0
  0
LINE
  5
520
330
1F
100
AcDbEntity
  8
1
  6
Continuous
 62
     1
100
AcDbLine
 10
551.827720945826
 20
-646.155531761354
 30
0.0
 11
559.827720945826
 21
-646.155531761354
 31
0.0
  0
LINE
  5
521
330
1F
100
AcDbEntity
  8
1
  6
Continuous
 62
     1
100
AcDbLine
 10
409.799878
 20
-527.699951
 30
0.0
 11
409.799878
 21
-532.699951
 31
0.0
  0
LINE
  5
522
330
1F
100
AcDbEntity
  8
0
  6
Continuous
 62
     1
100
AcDbLine
 10
453.499878
 20
-582.199829
 30
0.0
 11
453.499878
 21
-585.699829
 31
0.0
  0
ARC
  5
523
330
1F
100
AcDbEntity
  8
1
  6
Continuous
 62
     4
100
AcDbCircle
 10
351.8875702393757
 20
-573.8456814811959
 30
0.0
 40
155.5000827130401
100
AcDbArc
 50
168.9134373687339
 51
-169.031629707089
  0
ARC
  5
524
330
1F
100
AcDbEntity
  8
1
  6
Continuous
 62
     4
100
AcDbCircle
 10
351.8875702393757
 20
-573.8456814811959
 30
0.0
 40
155.0000829798558
100
AcDbArc
 50
168.9132467360661
 51
-169.0318203397571
  0
ARC
  5
525
330
1F
100
AcDbEntity
  8
0
  6
Continuous
 62
     3
100
AcDbCircle
 10
233.8000030000001
 20
-522.200012
 30
0.0
 40
0.2999879999999848
100
AcDbArc
 50
90.0
 51
180.0
  0
ARC
  5
526
330
1F
100
AcDbEntity
  8
0
  6
Continuous
 62
     3
100
AcDbCircle
 10
236.2000130000001
 20
-521.599976
 30
0.0
 40
0.3000489999999445
100
AcDbArc
 50
-90.0
 51
0.0
  0
ARC
  5
527
330
1F
100
AcDbEntity
  8
0
  6
Continuous
 62
     3
100
AcDbCircle
 10
236.2000130000001
 20
-515.2000119999999
 30
0.0
 40
0.2999879999998143
100
AcDbArc
 50
0.0
 51
90.0
  0
ARC
  5
528
330
1F
100
AcDbEntity
  8
0
  6
Continuous
 62
     3
100
AcDbCircle
 10
232.3000030000001
 20
-514.599976
 30
0.0
 40
0.3000030000000891
100
AcDbArc
 50
180.0
 51
-90.0
  0
ARC
  5
529
330
1F
100
AcDbEntity
  8
0
  6
Continuous
 62
     3
100
AcDbCircle
 10
232.3000030000001
 20
-512.699951
 30
0.0
 40
0.2999879999999848
100
AcDbArc
 50
90.0
 51
180.0
  0
ARC
  5
52A
330
1F
100
AcDbEntity
  8
0
  6
Continuous
 62
     3
100
AcDbCircle
 10
236.2000130000001
 20
-512.0999149999999
 30
0.0
 40
0.3000490000000582
100
AcDbArc
 50
-90.0
 51
0.0
  0
ARC
  5
52B
330
1F
100
AcDbEntity
  8
0
  6
Continuous
 62
     3
100
AcDbCircle
 10
236.2000130000001
 20
-507.0
 30
0.0
 40
0.2999879999998143
100
AcDbArc
 50
0.0
 51
90.0
  0
ARC
  5
52C
330
1F
100
AcDbEntity
  8
0
  6
Continuous
 62
     3
100
AcDbCircle
 10
211.8000030000001
 20
-507.0
 30
0.0
 40
0.2999880000000985
100
AcDbArc
 50
90.0
 51
180.0
  0
ARC
  5
52D
330
1F
100
AcDbEntity
  8
0
  6
Continuous
 62
     3
100
AcDbCircle
 10
211.8000030000001
 20
-512.0999149999999
 30
0.0
 40
0.3000030000000891
100
AcDbArc
 50
180.0
 51
-90.0
  0
ARC
  5
52E
330
1F
100
AcDbEntity
  8
0
  6
Continuous
 62
     3
100
AcDbCircle
 10
215.7000130000001
 20
-512.699951
 30
0.0
 40
0.2999879999998143
100
AcDbArc
 50
0.0
 51
90.0
  0
ARC
  5
52F
330
1F
100
AcDbEntity
  8
0
  6
Continuous
 62
     3
100
AcDbCircle
 10
215.7000130000001
 20
-514.599976
 30
0.0
 40
0.3000489999998308
100
AcDbArc
 50
-90.0
 51
0.0
  0
ARC
  5
530
330
1F
100
AcDbEntity
  8
0
  6
Continuous
 62
     3
100
AcDbCircle
 10
211.8000030000001
 20
-515.2000119999999
 30
0.0
 40
0.2999879999997574
100
AcDbArc
 50
90.0
 51
180.0
  0
ARC
  5
531
330
1F
100
AcDbEntity
  8
0
  6
Continuous
 62
     3
100
AcDbCircle
 10
211.8000030000001
 20
-521.599976
 30
0.0
 40
0.3000030000000891
100
AcDbArc
 50
180.0
 51
-90.0
  0
ARC
  5
532
330
1F
100
AcDbEntity
  8
0
  6
Continuous
 62
     3
100
AcDbCircle
 10
214.2000130000001
 20
-522.200012
 30
0.0
 40
0.2999879999998143
100
AcDbArc
 50
0.0
 51
90.0
  0
ARC
  5
533
330
1F
100
AcDbEntity
  8
0
  6
Continuous
 62
     1
100
AcDbCircle
 10
237.5
 20
-522.400024
 30
0.0
 40
2.0
100
AcDbArc
 50
-90.0
 51
0.0
  0
ARC
  5
534
330
1F
100
AcDbEntity
  8
0
  6
Continuous
 62
     1
100
AcDbCircle
 10
237.5
 20
-505.7000119999999
 30
0.0
 40
2.0
100
AcDbArc
 50
0.0
 51
90.0
  0
ARC
  5
535
330
1F
100
AcDbEntity
  8
0
  6
Continuous
 62
     1
100
AcDbCircle
 10
210.5
 20
-505.7000119999999
 30
0.0
 40
2.0
100
AcDbArc
 50
90.0
 51
180.0
  0
ARC
  5
536
330
1F
100
AcDbEntity
  8
0
  6
Continuous
 62
     1
100
AcDbCircle
 10
210.5
 20
-522.400024
 30
0.0
 40
2.0
100
AcDbArc
 50
180.0
 51
-90.0
  0
ARC
  5
537
330
1F
100
AcDbEntity
  8
0
  6
Continuous
 62
     3
100
AcDbCircle
 10
234.0
 20
-523.900024
 30
0.0
 40
0.5
100
AcDbArc
 50
180.0
 51
-90.0
  0
ARC
  5
538
330
1F
100
AcDbEntity
  8
0
  6
Continuous
 62
     3
100
AcDbCircle
 10
214.0
 20
-523.900024
 30
0.0
 40
0.5
100
AcDbArc
 50
-90.0
 51
0.0
  0
ARC
  5
539
330
1F
100
AcDbEntity
  8
1
  6
Continuous
 62
     1
100
AcDbCircle
 10
199.9476154119018
 20
-602.900073
 30
0.0
 40
0.3000000000001347
100
AcDbArc
 50
-170.7291434788515
 51
-70.00000000002989
  0
ARC
  5
53A
330
1F
100
AcDbEntity
  8
1
  6
Continuous
 62
     1
100
AcDbCircle
 10
200.02995635354
 20
-544.5000729999999
 30
0.0
 40
0.3000000000001145
100
AcDbArc
 50
70.00000000002989
 51
170.567575488744
  0
ARC
  5
53B
330
1F
100
AcDbEntity
  8
1
  6
Continuous
 62
     1
100
AcDbCircle
 10
377.300336
 20
-573.950073
 30
0.0
 40
180.0000000000001
100
AcDbArc
 50
170.5675754887302
 51
-170.7291434788248
  0
ARC
  5
53C
330
1F
100
AcDbEntity
  8
1
  6
Continuous
 62
     4
100
AcDbCircle
 10
551.8871122393757
 20
-573.845559481196
 30
0.0
 40
155.5000827130401
100
AcDbArc
 50
168.9134373687339
 51
-169.0316297070889
  0
ARC
  5
53D
330
1F
100
AcDbEntity
  8
1
  6
Continuous
 62
     4
100
AcDbCircle
 10
551.8871122393757
 20
-573.845559481196
 30
0.0
 40
155.0000829798558
100
AcDbArc
 50
168.9132467360661
 51
-169.0318203397571
  0
ARC
  5
53E
330
1F
100
AcDbEntity
  8
0
  6
Continuous
 62
     3
100
AcDbCircle
 10
433.8000030000001
 20
-522.1998900000001
 30
0.0
 40
0.2999879999999848
100
AcDbArc
 50
90.0
 51
180.0
  0
ARC
  5
53F
330
1F
100
AcDbEntity
  8
0
  6
Continuous
 62
     3
100
AcDbCircle
 10
436.2000130000001
 20
-521.599854
 30
0.0
 40
0.3000489999999445
100
AcDbArc
 50
-90.0
 51
0.0
  0
ARC
  5
540
330
1F
100
AcDbEntity
  8
0
  6
Continuous
 62
     3
100
AcDbCircle
 10
436.2000130000001
 20
-515.19989
 30
0.0
 40
0.2999879999997574
100
AcDbArc
 50
0.0
 51
90.0
  0
ARC
  5
541
330
1F
100
AcDbEntity
  8
0
  6
Continuous
 62
     3
100
AcDbCircle
 10
432.3000030000001
 20
-514.599854
 30
0.0
 40
0.3000030000001175
100
AcDbArc
 50
180.0
 51
-90.0
  0
ARC
  5
542
330
1F
100
AcDbEntity
  8
0
  6
Continuous
 62
     3
100
AcDbCircle
 10
432.3000030000001
 20
-512.6998290000001
 30
0.0
 40
0.2999879999999848
100
AcDbArc
 50
90.0
 51
180.0
  0
ARC
  5
543
330
1F
100
AcDbEntity
  8
0
  6
Continuous
 62
     3
100
AcDbCircle
 10
436.2000130000001
 20
-512.099793
 30
0.0
 40
0.3000490000000582
100
AcDbArc
 50
-90.0
 51
0.0
  0
ARC
  5
544
330
1F
100
AcDbEntity
  8
0
  6
Continuous
 62
     3
100
AcDbCircle
 10
436.2000130000001
 20
-506.9998780000001
 30
0.0
 40
0.2999879999997574
100
AcDbArc
 50
0.0
 51
90.0
  0
ARC
  5
545
330
1F
100
AcDbEntity
  8
0
  6
Continuous
 62
     3
100
AcDbCircle
 10
411.8000030000001
 20
-506.9998780000001
 30
0.0
 40
0.2999880000000985
100
AcDbArc
 50
90.0
 51
180.0
  0
ARC
  5
546
330
1F
100
AcDbEntity
  8
0
  6
Continuous
 62
     3
100
AcDbCircle
 10
411.8000030000001
 20
-512.099793
 30
0.0
 40
0.3000030000001175
100
AcDbArc
 50
180.0
 51
-90.0
  0
ARC
  5
547
330
1F
100
AcDbEntity
  8
0
  6
Continuous
 62
     3
100
AcDbCircle
 10
415.7000130000001
 20
-512.6998290000001
 30
0.0
 40
0.2999879999997574
100
AcDbArc
 50
0.0
 51
90.0
  0
ARC
  5
548
330
1F
100
AcDbEntity
  8
0
  6
Continuous
 62
     3
100
AcDbCircle
 10
415.7000130000001
 20
-514.599854
 30
0.0
 40
0.3000489999998308
100
AcDbArc
 50
-90.0
 51
0.0
  0
ARC
  5
549
330
1F
100
AcDbEntity
  8
0
  6
Continuous
 62
     3
100
AcDbCircle
 10
411.8000030000001
 20
-515.19989
 30
0.0
 40
0.2999879999997574
100
AcDbArc
 50
90.0
 51
180.0
  0
ARC
  5
54A
330
1F
100
AcDbEntity
  8
0
  6
Continuous
 62
     3
100
AcDbCircle
 10
411.8000030000001
 20
-521.599854
 30
0.0
 40
0.3000030000001175
100
AcDbArc
 50
180.0
 51
-90.0
  0
ARC
  5
54B
330
1F
100
AcDbEntity
  8
0
  6
Continuous
 62
     3
100
AcDbCircle
 10
414.2000130000001
 20
-522.1998900000001
 30
0.0
 40
0.2999879999997574
100
AcDbArc
 50
0.0
 51
90.0
  0
ARC
  5
54C
330
1F
100
AcDbEntity
  8
0
  6
Continuous
 62
     1
100
AcDbCircle
 10
437.5
 20
-522.3999020000001
 30
0.0
 40
2.0
100
AcDbArc
 50
-90.0
 51
0.0
  0
ARC
  5
54D
330
1F
100
AcDbEntity
  8
0
  6
Continuous
 62
     1
100
AcDbCircle
 10
437.5
 20
-505.69989
 30
0.0
 40
2.0
100
AcDbArc
 50
0.0
 51
90.0
  0
ARC
  5
54E
330
1F
100
AcDbEntity
  8
0
  6
Continuous
 62
     1
100
AcDbCircle
 10
410.5
 20
-505.69989
 30
0.0
 40
2.0
100
AcDbArc
 50
90.0
 51
180.0
  0
ARC
  5
54F
330
1F
100
AcDbEntity
  8
0
  6
Continuous
 62
     1
100
AcDbCircle
 10
410.5
 20
-522.3999020000001
 30
0.0
 40
2.0
100
AcDbArc
 50
180.0
 51
-90.0
  0
ARC
  5
550
330
1F
100
AcDbEntity
  8
0
  6
Continuous
 62
     3
100
AcDbCircle
 10
434.0
 20
-523.8999020000001
 30
0.0
 40
0.5
100
AcDbArc
 50
180.0
 51
-90.0
  0
ARC
  5
551
330
1F
100
AcDbEntity
  8
0
  6
Continuous
 62
     3
100
AcDbCircle
 10
414.0
 20
-523.8999020000001
 30
0.0
 40
0.5
100
AcDbArc
 50
-90.0
 51
0.0
  0
ARC
  5
552
330
1F
100
AcDbEntity
  8
1
  6
Continuous
 62
     1
100
AcDbCircle
 10
399.9471574119019
 20
-602.8999510000001
 30
0.0
 40
0.3000000000001066
100
AcDbArc
 50
-170.7291434788506
 51
-70.00000000005028
  0
ARC
  5
553
330
1F
100
AcDbEntity
  8
1
  6
Continuous
 62
     1
100
AcDbCircle
 10
400.02949835354
 20
-544.499951
 30
0.0
 40
0.3000000000001534
100
AcDbArc
 50
70.00000000000948
 51
170.5675754887405
  0
ARC
  5
554
330
1F
100
AcDbEntity
  8
1
  6
Continuous
 62
     1
100
AcDbCircle
 10
577.299878
 20
-573.949951
 30
0.0
 40
180.0
100
AcDbArc
 50
170.5675754887302
 51
-170.7291434788248
  0
ARC
  5
555
330
1F
100
AcDbEntity
  8
0
  6
Continuous
 62
     1
100
AcDbCircle
 10
248.6294301948526
 20
-582.199829
 30
0.0
 40
0.7999269999999115
100
AcDbArc
 50
90.0
 51
135.0061810000016
  0
ARC
  5
556
330
1F
100
AcDbEntity
  8
0
  6
Continuous
 62
     1
100
AcDbCircle
 10
249.1980331948525
 20
-582.199829
 30
0.0
 40
0.8000560000000152
100
AcDbArc
 50
60.00030400000545
 51
90.0
  0
ARC
  5
557
330
1F
100
AcDbEntity
  8
0
  6
Continuous
 62
     1
100
AcDbCircle
 10
249.1980331948526
 20
-574.199829
 30
0.0
 40
0.8000489999999445
100
AcDbArc
 50
-90.00000000000611
 51
-60.00030400000555
  0
ARC
  5
558
330
1F
100
AcDbEntity
  8
0
  6
Continuous
 62
     1
100
AcDbCircle
 10
248.6295521948525
 20
-574.199829
 30
0.0
 40
0.8000700000000192
100
AcDbArc
 50
-135.006180999998
 51
-90.0
  0
ARC
  5
559
330
1F
100
AcDbEntity
  8
0
  6
Continuous
 62
     1
100
AcDbCircle
 10
448.5678946792494
 20
-582.199707
 30
0.0
 40
0.7999270000000251
100
AcDbArc
 50
90.0
 51
135.0061809999959
  0
ARC
  5
55A
330
1F
100
AcDbEntity
  8
0
  6
Continuous
 62
     1
100
AcDbCircle
 10
449.1364976792494
 20
-582.199707
 30
0.0
 40
0.8000560000000294
100
AcDbArc
 50
60.00030400000369
 51
90.0
  0
ARC
  5
55B
330
1F
100
AcDbEntity
  8
0
  6
Continuous
 62
     1
100
AcDbCircle
 10
449.1364976792494
 20
-574.199707
 30
0.0
 40
0.8000490000000582
100
AcDbArc
 50
-90.0
 51
-60.00030399999321
  0
ARC
  5
55C
330
1F
100
AcDbEntity
  8
0
  6
Continuous
 62
     1
100
AcDbCircle
 10
448.5680166792495
 20
-574.199707
 30
0.0
 40
0.8000700000000392
100
AcDbArc
 50
-135.0061809999995
 51
-90.0
  0
ARC
  5
55D
102
{ACAD_REACTORS
330
5F6
330
5F6
102
}
330
1F
100
AcDbEntity
  8
0
  6
Continuous
 62
     1
100
AcDbCircle
 10
442.499878
 20
-489.699951
 30
0.0
 40
1.0
100
AcDbArc
 50
90.0
 51
180.0
  0
ARC
  5
55E
102
{ACAD_REACTORS
330
5F6
330
5F6
102
}
330
1F
100
AcDbEntity
  8
0
  6
Continuous
 62
     1
100
AcDbCircle
 10
442.499878
 20
-489.699951
 30
0.0
 40
3.0
100
AcDbArc
 50
90.0
 51
180.0
  0
ARC
  5
55F
102
{ACAD_REACTORS
330
5F6
330
5F6
102
}
330
1F
100
AcDbEntity
  8
0
  6
Continuous
 62
     1
100
AcDbCircle
 10
442.499878
 20
-530.699951
 30
0.0
 40
3.0
100
AcDbArc
 50
180.0
 51
-90.0
  0
ARC
  5
560
102
{ACAD_REACTORS
330
5F6
330
5F6
102
}
330
1F
100
AcDbEntity
  8
0
  6
Continuous
 62
     1
100
AcDbCircle
 10
464.941162
 20
-534.6999509999999
 30
0.0
 40
0.9999799999998888
100
AcDbArc
 50
31.62949599999859
 51
90.0
  0
ARC
  5
561
102
{ACAD_REACTORS
330
5F6
330
5F6
102
}
330
1F
100
AcDbEntity
  8
0
  6
Continuous
 62
     1
100
AcDbCircle
 10
471.5999592217872
 20
-539.5999487551653
 30
0.0
 40
2.099972999756259
100
AcDbArc
 50
-148.3739519999978
 51
31.62604799999876
  0
ARC
  5
562
102
{ACAD_REACTORS
330
5F6
330
5F6
102
}
330
1F
100
AcDbEntity
  8
0
  6
Continuous
 62
     1
100
AcDbCircle
 10
472.222534
 20
-534.699951
 30
0.0
 40
1.000000000000054
100
AcDbArc
 50
89.98601200000289
 51
-148.3668349999987
  0
ARC
  5
563
102
{ACAD_REACTORS
330
5F6
330
5F6
102
}
330
1F
100
AcDbEntity
  8
0
  6
Continuous
 62
     1
100
AcDbCircle
 10
474.432495
 20
-534.699951
 30
0.0
 40
1.0
100
AcDbArc
 50
0.0
 51
90.0
  0
ARC
  5
564
102
{ACAD_REACTORS
330
5F6
330
5F6
102
}
330
1F
100
AcDbEntity
  8
0
  6
Continuous
 62
     1
100
AcDbCircle
 10
478.432495
 20
-543.699951
 30
0.0
 40
3.0
100
AcDbArc
 50
180.0
 51
-90.0
  0
ARC
  5
565
102
{ACAD_REACTORS
330
5F6
330
5F6
102
}
330
1F
100
AcDbEntity
  8
0
  6
Continuous
 62
     1
100
AcDbCircle
 10
478.432495
 20
-543.699951
 30
0.0
 40
1.0
100
AcDbArc
 50
180.0
 51
-90.0
  0
ARC
  5
566
102
{ACAD_REACTORS
330
5F6
330
5F6
102
}
330
1F
100
AcDbEntity
  8
0
  6
Continuous
 62
     1
100
AcDbCircle
 10
474.432495
 20
-534.699951
 30
0.0
 40
3.0
100
AcDbArc
 50
0.0
 51
90.0
  0
ARC
  5
567
102
{ACAD_REACTORS
330
5F6
330
5F6
102
}
330
1F
100
AcDbEntity
  8
0
  6
Continuous
 62
     1
100
AcDbCircle
 10
472.222534
 20
-534.699951
 30
0.0
 40
3.000045
100
AcDbArc
 50
90.0
 51
-148.3717260000012
  0
ARC
  5
568
102
{ACAD_REACTORS
330
5F6
330
5F6
102
}
330
1F
100
AcDbEntity
  8
0
  6
Continuous
 62
     1
100
AcDbCircle
 10
464.9412840000001
 20
-534.699707
 30
0.0
 40
2.999755999999915
100
AcDbArc
 50
31.62873400000128
 51
90.00000000000217
  0
ARC
  5
569
102
{ACAD_REACTORS
330
5F6
330
5F6
102
}
330
1F
100
AcDbEntity
  8
0
  6
Continuous
 62
     1
100
AcDbCircle
 10
442.499878
 20
-530.699951
 30
0.0
 40
1.0
100
AcDbArc
 50
180.0
 51
-90.0
  0
CIRCLE
  5
56A
330
1F
100
AcDbEntity
  8
1
  6
Continuous
 62
     4
100
AcDbCircle
 10
220.800336
 20
-575.700073
 30
0.0
 40
21.25
  0
CIRCLE
  5
56B
330
1F
100
AcDbEntity
  8
1
  6
Continuous
 62
     4
100
AcDbCircle
 10
220.800336
 20
-575.700073
 30
0.0
 40
20.75
  0
CIRCLE
  5
56C
330
1F
100
AcDbEntity
  8
1
  6
Continuous
 62
     4
100
AcDbCircle
 10
206.800336
 20
-575.700073
 30
0.0
 40
3.0
  0
CIRCLE
  5
56D
330
1F
100
AcDbEntity
  8
1
  6
Continuous
 62
     4
100
AcDbCircle
 10
234.800336
 20
-575.700073
 30
0.0
 40
3.0
  0
CIRCLE
  5
56E
330
1F
100
AcDbEntity
  8
1
  6
Continuous
 62
     4
100
AcDbCircle
 10
206.800336
 20
-575.700073
 30
0.0
 40
2.5
  0
CIRCLE
  5
56F
330
1F
100
AcDbEntity
  8
1
  6
Continuous
 62
     4
100
AcDbCircle
 10
234.800336
 20
-575.700073
 30
0.0
 40
2.5
  0
CIRCLE
  5
570
330
1F
100
AcDbEntity
  8
1
  6
Continuous
 62
     4
100
AcDbCircle
 10
420.799878
 20
-575.699951
 30
0.0
 40
21.25
  0
CIRCLE
  5
571
330
1F
100
AcDbEntity
  8
1
  6
Continuous
 62
     4
100
AcDbCircle
 10
420.799878
 20
-575.699951
 30
0.0
 40
20.75
  0
CIRCLE
  5
572
330
1F
100
AcDbEntity
  8
1
  6
Continuous
 62
     4
100
AcDbCircle
 10
406.799878
 20
-575.699951
 30
0.0
 40
3.0
  0
CIRCLE
  5
573
330
1F
100
AcDbEntity
  8
1
  6
Continuous
 62
     4
100
AcDbCircle
 10
434.799878
 20
-575.699951
 30
0.0
 40
3.0
  0
CIRCLE
  5
574
330
1F
100
AcDbEntity
  8
1
  6
Continuous
 62
     4
100
AcDbCircle
 10
406.799878
 20
-575.699951
 30
0.0
 40
2.5
  0
CIRCLE
  5
575
330
1F
100
AcDbEntity
  8
1
  6
Continuous
 62
     4
100
AcDbCircle
 10
434.799878
 20
-575.699951
 30
0.0
 40
2.5
  0
ARC
  5
584
330
1F
100
AcDbEntity
  8
1
  6
Continuous
 62
     4
100
AcDbCircle
 10
199.7188735285531
 20
-603.3365862671119
 30
0.0
 40
0.5000000000003437
100
AcDbArc
 50
-168.9725335378569
 51
-70.00000000002579
  0
ARC
  5
585
330
1F
100
AcDbEntity
  8
1
  6
Continuous
 62
     4
100
AcDbCircle
 10
199.7802307624272
 20
-544.0399269863581
 30
0.0
 40
0.5000000000010584
100
AcDbArc
 50
70.00000000006145
 51
168.9725335378569
  0
ARC
  5
586
330
1F
100
AcDbEntity
  8
1
  6
Continuous
 62
     1
100
AcDbCircle
 10
242.300336
 20
-602.450073
 30
0.0
 40
1.5
100
AcDbArc
 50
-90.0
 51
-48.18968510422624
  0
ARC
  5
587
330
1F
100
AcDbEntity
  8
1
  6
Continuous
 62
     1
100
AcDbCircle
 10
242.300336
 20
-545.450073
 30
0.0
 40
1.499999999999972
100
AcDbArc
 50
48.18968510422045
 51
90.0
  0
ARC
  5
588
330
1F
100
AcDbEntity
  8
1
  6
Continuous
 62
     1
100
AcDbCircle
 10
230.1498962308951
 20
-526.0103807898929
 30
0.0
 40
0.5
100
AcDbArc
 50
-90.0
 51
-20.00000000003821
  0
ARC
  5
589
330
1F
100
AcDbEntity
  8
1
  6
Continuous
 62
     1
100
AcDbCircle
 10
217.8501037691051
 20
-526.0103807898929
 30
0.0
 40
0.5000000000001651
100
AcDbArc
 50
-159.9999999999618
 51
-90.0
  0
ARC
  5
58A
330
1F
100
AcDbEntity
  8
1
  6
Continuous
 62
     1
100
AcDbCircle
 10
212.089011134595
 20
-533.700073
 30
0.0
 40
1.0
100
AcDbArc
 50
90.0
 51
150.0000000000166
  0
ARC
  5
58B
330
1F
100
AcDbEntity
  8
1
  6
Continuous
 62
     1
100
AcDbCircle
 10
212.089011134595
 20
-533.700073
 30
0.0
 40
1.0
100
AcDbArc
 50
90.0
 51
150.0000000000166
  0
ARC
  5
58C
330
1F
100
AcDbEntity
  8
1
  6
Continuous
 62
     1
100
AcDbCircle
 10
229.511660865405
 20
-533.700073
 30
0.0
 40
1.000000000000673
100
AcDbArc
 50
29.99999999997775
 51
90.0
  0
ARC
  5
58D
330
1F
100
AcDbEntity
  8
1
  6
Continuous
 62
     4
100
AcDbCircle
 10
399.7184155285531
 20
-603.336464267112
 30
0.0
 40
0.500000000000288
100
AcDbArc
 50
-168.9725335378556
 51
-70.00000000001968
  0
ARC
  5
58E
330
1F
100
AcDbEntity
  8
1
  6
Continuous
 62
     4
100
AcDbCircle
 10
399.7797727624272
 20
-544.0398049863581
 30
0.0
 40
0.5000000000010584
100
AcDbArc
 50
70.00000000006145
 51
168.9725335378569
  0
ARC
  5
58F
330
1F
100
AcDbEntity
  8
1
  6
Continuous
 62
     1
100
AcDbCircle
 10
442.299878
 20
-602.449951
 30
0.0
 40
1.5
100
AcDbArc
 50
-90.0
 51
-48.18968510422624
  0
ARC
  5
590
330
1F
100
AcDbEntity
  8
1
  6
Continuous
 62
     1
100
AcDbCircle
 10
442.299878
 20
-545.449951
 30
0.0
 40
1.499999999999972
100
AcDbArc
 50
48.18968510422045
 51
90.0
  0
ARC
  5
591
330
1F
100
AcDbEntity
  8
1
  6
Continuous
 62
     1
100
AcDbCircle
 10
430.1498962308951
 20
-526.010258789893
 30
0.0
 40
0.5
100
AcDbArc
 50
-90.0
 51
-20.00000000003821
  0
ARC
  5
592
330
1F
100
AcDbEntity
  8
1
  6
Continuous
 62
     1
100
AcDbCircle
 10
417.8501037691051
 20
-526.010258789893
 30
0.0
 40
0.5000000000001651
100
AcDbArc
 50
-159.9999999999618
 51
-90.0
  0
ARC
  5
593
330
1F
100
AcDbEntity
  8
1
  6
Continuous
 62
     1
100
AcDbCircle
 10
412.088553134595
 20
-533.699951
 30
0.0
 40
1.0
100
AcDbArc
 50
90.0
 51
150.0000000000157
  0
ARC
  5
594
330
1F
100
AcDbEntity
  8
1
  6
Continuous
 62
     1
100
AcDbCircle
 10
412.088553134595
 20
-533.699951
 30
0.0
 40
1.0
100
AcDbArc
 50
90.0
 51
150.0000000000157
  0
ARC
  5
595
330
1F
100
AcDbEntity
  8
1
  6
Continuous
 62
     1
100
AcDbCircle
 10
429.511202865405
 20
-533.699951
 30
0.0
 40
1.000000000000771
100
AcDbArc
 50
29.99999999997449
 51
90.0
  0
TEXT
  5
596
330
1F
100
AcDbEntity
  8
0
 62
     1
100
AcDbText
 10
329.191284
 20
-573.324707
 30
0.0
 40
5.0
  1
Stahlrahmen
 41
0.99
  7
CONVERTER_17
100
AcDbText
  0
TEXT
  5
597
330
1F
100
AcDbEntity
  8
0
 62
     1
100
AcDbText
 10
329.191284
 20
-564.324707
 30
0.0
 40
5.0
  1
Anschlag auf
 41
0.99
  7
CONVERTER_17
100
AcDbText
  0
TEXT
  5
598
330
1F
100
AcDbEntity
  8
0
 62
     1
100
AcDbText
 10
129.191284
 20
-574.324707
 30
0.0
 40
5.0
  1
Holzrahmen
 41
0.99
  7
CONVERTER_17
100
AcDbText
  0
TEXT
  5
599
330
1F
100
AcDbEntity
  8
0
 62
     1
100
AcDbText
 10
129.191284
 20
-565.324707
 30
0.0
 40
5.0
  1
Anschlag auf
 41
0.99
  7
CONVERTER_17
100
AcDbText
  0
DIMENSION
  5
5A4
330
1F
100
AcDbEntity
  8
1
100
AcDbDimension
  2
*D13
 10
400.537212427005
 20
-537.199829
 30
0.0
 11
397.287212427005
 21
-521.096783937327
 31
0.0
 70
    32
  1
<>
 71
     5
 42
-1.0
 53
-90.0
  3
ME10_DIM_17
100
AcDbAlignedDimension
 13
410.5
 23
-503.69989
 33
0.0
 14
454.850342
 24
-537.199829
 34
0.0
 50
-90.0
100
AcDbRotatedDimension
  0
DIMENSION
  5
5AF
330
1F
100
AcDbEntity
  8
1
100
AcDbDimension
  2
*D14
 10
199.913257814671
 20
-537.199951
 30
0.0
 11
196.663257814671
 21
-520.056870721275
 31
0.0
 70
    32
  1
<>
 71
     5
 42
-1.0
 53
-90.0
  3
ME10_DIM_18
100
AcDbAlignedDimension
 13
210.5
 23
-503.7000119999999
 33
0.0
 14
254.499878
 24
-537.199951
 34
0.0
 50
-90.0
100
AcDbRotatedDimension
  0
DIMENSION
  5
5BB
330
1F
100
AcDbEntity
  8
1
100
AcDbDimension
  2
*D15
 10
295.637151726585
 20
-537.199951
 30
0.0
 11
291.887151726585
 21
-558.269281652791
 31
0.0
 70
    32
  1
<>
 71
     5
 42
-1.0
 53
90.0
  3
ME10_DIM_19
100
AcDbAlignedDimension
 13
277.848267
 23
-578.199707
 33
0.0
 14
262.500122
 24
-537.199951
 34
0.0
 50
90.0
100
AcDbRotatedDimension
  0
DIMENSION
  5
5C6
330
1F
100
AcDbEntity
  8
1
100
AcDbDimension
  2
*D16
 10
285.971413245773
 20
-569.199829
 30
0.0
 11
282.221413245773
 21
-578.27782562305
 31
0.0
 70
    32
  1
<>
 71
     5
 42
-1.0
 53
90.0
  3
ME10_DIM_20
100
AcDbAlignedDimension
 13
264.5
 23
-587.199951
 33
0.0
 14
264.5
 24
-569.199829
 34
0.0
 50
90.0
100
AcDbRotatedDimension
  0
DIMENSION
  5
5D2
330
1F
100
AcDbEntity
  8
1
100
AcDbDimension
  2
*D17
 10
252.5
 20
-629.474922354528
 30
0.0
 11
281.071629136008
 21
-625.724922354528
 31
0.0
 70
    32
  1
10mm/12mm
 71
     5
 42
-1.0
 53
0.00013888888889
  3
ME10_DIM_21
100
AcDbAlignedDimension
 13
264.5
 23
-619.199951
 33
0.0
 14
252.5
 24
-619.199951
 34
0.0
100
AcDbRotatedDimension
  0
DIMENSION
  5
5DE
330
1F
100
AcDbEntity
  8
1
100
AcDbDimension
  2
*D18
 10
452.499878
 20
-629.154701943952
 30
0.0
 11
437.41338434163
 21
-625.404701943952
 31
0.0
 70
    32
  1
10mm/12mm
 71
     5
 42
-1.0
 53
0.00013888888889
  3
ME10_DIM_22
100
AcDbAlignedDimension
 13
464.499878
 23
-619.199829
 33
0.0
 14
452.499878
 24
-619.199829
 34
0.0
100
AcDbRotatedDimension
  0
DIMENSION
  5
5E9
330
1F
100
AcDbEntity
  8
1
100
AcDbDimension
  2
*D19
 10
485.75894975382
 20
-569.199585
 30
0.0
 11
482.00894975382
 21
-578.114786337229
 31
0.0
 70
    32
  1
<>
 71
     5
 42
-1.0
 53
90.0
  3
ME10_DIM_23
100
AcDbAlignedDimension
 13
464.499878
 23
-587.199585
 33
0.0
 14
464.499878
 24
-569.199585
 34
0.0
 50
90.0
100
AcDbRotatedDimension
  0
DIMENSION
  5
5F5
330
1F
100
AcDbEntity
  8
1
100
AcDbDimension
  2
*D20
 10
496.761702172591
 20
-578.199585
 30
0.0
 11
493.011702172591
 21
-557.504971948777
 31
0.0
 70
    32
  1
<>
 71
     5
 42
-1.0
 53
90.0
  3
ME10_DIM_24
100
AcDbAlignedDimension
 13
460.450317
 23
-537.199829
 33
0.0
 14
477.848145
 24
-578.199585
 34
0.0
 50
90.0
100
AcDbRotatedDimension
  0
HATCH
  5
5F6
330
1F
100
AcDbEntity
  8
1
  6
Continuous
 62
     3
100
AcDbHatch
 10
0.0
 20
0.0
 30
0.0
210
0.0
220
0.0
230
1.0
  2
_USER
 70
     0
 71
     1
 91
        1
 92
        1
 93
       31
 72
     1
 10
477.432495
 20
-534.699951
 11
477.432495
 21
-543.699951
 72
     2
 10
478.432495
 20
-543.699951
 40
1.0
 50
180.0
 51
270.0
 73
     1
 72
     1
 10
478.432495
 20
-544.699951
 11
486.432495
 21
-544.699951
 72
     1
 10
486.432495
 20
-544.699951
 11
486.432495
 21
-546.699951
 72
     1
 10
486.432495
 20
-546.699951
 11
478.432495
 21
-546.699951
 72
     2
 10
478.432495
 20
-543.699951
 40
3.0
 50
90.0
 51
180.0
 73
     0
 72
     1
 10
475.432495
 20
-543.699951
 11
475.432495
 21
-534.699951
 72
     2
 10
474.432495
 20
-534.699951
 40
1.0
 50
0.0
 51
90.0
 73
     1
 72
     1
 10
474.432495
 20
-533.699951
 11
472.2227781366533
 21
-533.6999510298014
 72
     2
 10
472.222534
 20
-534.699951
 40
1.000000000000054
 50
89.98601200000289
 51
211.6331650000013
 73
     1
 72
     1
 10
471.371110511715
 20
-535.2244298304562
 11
473.3880623541719
 21
-538.4987794731468
 72
     2
 10
471.5999592217872
 20
-539.5999487551653
 40
2.099972999756259
 50
328.3739520000013
 51
508.3739519999978
 73
     0
 72
     1
 10
469.8118560894025
 20
-540.701118037184
 11
465.7926020429925
 21
-534.1755371809708
 72
     2
 10
464.941162
 20
-534.6999509999999
 40
0.9999799999998888
 50
31.62949599999859
 51
90.0
 73
     1
 72
     1
 10
464.941162
 20
-533.699971
 11
442.499878
 21
-533.699951
 72
     2
 10
442.499878
 20
-530.699951
 40
3.0
 50
90.0
 51
180.0
 73
     0
 72
     1
 10
439.499878
 20
-530.699951
 11
439.499878
 21
-489.699951
 72
     2
 10
442.499878
 20
-489.699951
 40
3.0
 50
180.0
 51
270.0
 73
     0
 72
     1
 10
442.499878
 20
-486.699951
 11
451.499878
 21
-486.699951
 72
     1
 10
451.499878
 20
-486.699951
 11
451.499878
 21
-488.699951
 72
     1
 10
451.499878
 20
-488.699951
 11
442.499878
 21
-488.699951
 72
     2
 10
442.499878
 20
-489.699951
 40
1.0
 50
90.0
 51
180.0
 73
     1
 72
     1
 10
441.499878
 20
-489.699951
 11
441.499878
 21
-530.699951
 72
     2
 10
442.499878
 20
-530.699951
 40
1.0
 50
180.0
 51
270.0
 73
     1
 72
     1
 10
442.499878
 20
-531.699951
 11
464.941284
 21
-531.699951
 72
     2
 10
464.9412840000001
 20
-534.699707
 40
2.999755999999915
 50
269.9999999999978
 51
328.3712659999987
 73
     0
 72
     1
 10
467.4954683825486
 20
-533.1265960059882
 11
471.5999592217872
 21
-539.5999487551653
 72
     1
 10
471.5999592217872
 20
-539.5999487551653
 11
469.6680909134629
 21
-536.2731930410313
 72
     2
 10
472.222534
 20
-534.699951
 40
3.000045
 50
148.3717260000012
 51
270.0
 73
     0
 72
     1
 10
472.222534
 20
-531.699906
 11
474.432495
 21
-531.699951
 72
     2
 10
474.432495
 20
-534.699951
 40
3.0
 50
270.0
 51
360.0
 73
     0
 97
       31
330
4E0
330
565
330
4DF
330
4DE
330
4DD
330
564
330
4DC
330
563
330
3C6
330
562
330
3C5
330
561
330
3C2
330
560
330
3C1
330
55F
330
4DB
330
55E
330
4DA
330
4D9
330
4D8
330
55D
330
4E3
330
569
330
4E2
330
568
330
3C3
330
3C4
330
567
330
3C7
330
566
 75
     1
 76
     0
 52
45.0
 41
2.5
 77
     0
 78
     1
 53
45.0
 43
0.0
 44
0.0
 45
-1.767766952966369
 46
1.767766952966369
 79
     0
 98
        1
 10
0.0
 20
0.0
  0
HATCH
  5
5F7
330
1F
100
AcDbEntity
  8
1
  6
Continuous
 62
     3
100
AcDbHatch
 10
0.0
 20
0.0
 30
0.0
210
0.0
220
0.0
230
1.0
  2
_USER
 70
     0
 71
     0
 91
        1
 92
        1
 93
        4
 72
     1
 10
486.432495
 20
-476.699951
 11
471.499878
 21
-476.699951
 72
     1
 10
471.499878
 20
-476.699951
 11
471.499878
 21
-511.699951
 72
     1
 10
471.499878
 20
-511.699951
 11
486.432495
 21
-511.699951
 72
     1
 10
486.432495
 20
-511.699951
 11
486.432495
 21
-476.699951
 97
        0
 75
     1
 76
     0
 52
45.0
 41
5.0
 77
     0
 78
     1
 53
45.0
 43
0.0
 44
0.0
 45
-3.535533905932737
 46
3.535533905932738
 79
     0
 98
        1
 10
0.0
 20
0.0
  0
HATCH
  5
5F8
330
1F
100
AcDbEntity
  8
1
  6
Continuous
 62
     3
100
AcDbHatch
 10
0.0
 20
0.0
 30
0.0
210
0.0
220
0.0
230
1.0
  2
_USER
 70
     0
 71
     0
 91
        1
 92
        1
 93
       11
 72
     1
 10
279.60376
 20
-476.699951
 11
252.5
 21
-476.699951
 72
     1
 10
252.5
 20
-476.699951
 11
252.5
 21
-512.699829
 72
     1
 10
252.5
 20
-512.699829
 11
254.901794
 21
-512.699829
 72
     1
 10
254.901794
 20
-512.699829
 11
257.5
 21
-514.199951
 72
     1
 10
257.5
 20
-514.199951
 11
254.901611
 21
-515.699951
 72
     1
 10
254.901611
 20
-515.699951
 11
252.5
 21
-515.870739028601
 72
     1
 10
252.5
 20
-515.870739028601
 11
252.5
 21
-516.983834164138
 72
     1
 10
252.5
 20
-516.983834164138
 11
252.5
 21
-523.699951
 72
     1
 10
252.5
 20
-523.699951
 11
282.5
 21
-523.699951
 72
     1
 10
282.5
 20
-523.699951
 11
282.5
 21
-480.874756
 72
     1
 10
282.5
 20
-480.874756
 11
279.60376
 21
-476.699951
 97
        0
 75
     1
 76
     0
 52
45.0
 41
5.0
 77
     0
 78
     1
 53
45.0
 43
0.0
 44
0.0
 45
-3.535533905932737
 46
3.535533905932738
 79
     0
 98
        1
 10
0.0
 20
0.0
  0
HATCH
  5
5F9
330
1F
100
AcDbEntity
  8
1
  6
Continuous
 62
     3
100
AcDbHatch
 10
0.0
 20
0.0
 30
0.0
210
0.0
220
0.0
230
1.0
  2
_USER
 70
     0
 71
     0
 91
        1
 92
        1
 93
       19
 72
     1
 10
274.001099
 20
-586.199951
 11
274.001099
 21
-570.199951
 72
     1
 10
274.001099
 20
-570.199951
 11
273.501099
 21
-570.199951
 72
     1
 10
273.501099
 20
-570.199951
 11
271.00061
 21
-572.699951
 72
     1
 10
271.00061
 20
-572.699951
 11
259.500977
 21
-572.699951
 72
     1
 10
259.500977
 20
-572.699951
 11
259.001099
 21
-573.199951
 72
     1
 10
259.001099
 20
-573.199951
 11
259.001099
 21
-574.199951
 72
     1
 10
259.001099
 20
-574.199951
 11
262.2482041948525
 21
-574.199951
 72
     1
 10
262.2482041948525
 20
-574.199951
 11
262.2688341948525
 21
-574.999878
 72
     1
 10
262.2688341948525
 20
-574.999878
 11
271.000854
 21
-574.999878
 72
     1
 10
271.000854
 20
-574.999878
 11
272.848267
 21
-578.199707
 72
     1
 10
272.848267
 20
-578.199707
 11
271.000732
 21
-581.399902
 72
     1
 10
271.000732
 20
-581.399902
 11
262.2482041948525
 21
-581.399902
 72
     1
 10
262.2482041948525
 20
-581.399902
 11
262.2482041948525
 21
-582.199951
 72
     1
 10
262.2482041948525
 20
-582.199951
 11
259.001099
 21
-582.199951
 72
     1
 10
259.001099
 20
-582.199951
 11
259.001099
 21
-583.199951
 72
     1
 10
259.001099
 20
-583.199951
 11
259.501099
 21
-583.699951
 72
     1
 10
259.501099
 20
-583.699951
 11
271.001099
 21
-583.699951
 72
     1
 10
271.001099
 20
-583.699951
 11
273.501099
 21
-586.199951
 72
     1
 10
273.501099
 20
-586.199951
 11
274.001099
 21
-586.199951
 97
        0
 75
     1
 76
     0
 52
45.0
 41
2.5
 77
     0
 78
     1
 53
45.0
 43
0.0
 44
0.0
 45
-1.767766952966369
 46
1.767766952966369
 79
     0
 98
        1
 10
0.0
 20
0.0
  0
HATCH
  5
5FA
330
1F
100
AcDbEntity
  8
1
  6
Continuous
 62
     3
100
AcDbHatch
 10
0.0
 20
0.0
 30
0.0
210
0.0
220
0.0
230
1.0
  2
_USER
 70
     0
 71
     0
 91
        1
 92
        1
 93
        6
 72
     1
 10
271.00061
 20
-572.699951
 11
273.700806
 21
-569.999634
 72
     1
 10
273.700806
 20
-569.999634
 11
273.700806
 21
-566.199585
 72
     1
 10
273.700806
 20
-566.199585
 11
271.700806
 21
-564.199707
 72
     1
 10
271.700806
 20
-564.199707
 11
265.700806
 21
-564.199707
 72
     1
 10
265.700806
 20
-564.199707
 11
265.700806
 21
-572.699707
 72
     1
 10
265.700806
 20
-572.699707
 11
271.00061
 21
-572.699951
 97
        0
 75
     1
 76
     0
 52
-45.0
 41
5.0
 77
     0
 78
     1
 53
-45.0
 43
0.0
 44
0.0
 45
3.535533905932737
 46
3.535533905932738
 79
     0
 98
        1
 10
0.0
 20
0.0
  0
HATCH
  5
5FB
330
1F
100
AcDbEntity
  8
1
  6
Continuous
 62
     3
100
AcDbHatch
 10
0.0
 20
0.0
 30
0.0
210
0.0
220
0.0
230
1.0
  2
_USER
 70
     0
 71
     0
 91
        1
 92
        1
 93
        6
 72
     1
 10
265.700806
 20
-583.699707
 11
271.001099
 21
-583.699951
 72
     1
 10
271.001099
 20
-583.699951
 11
273.700806
 21
-586.399658
 72
     1
 10
273.700806
 20
-586.399658
 11
273.700806
 21
-602.199585
 72
     1
 10
273.700806
 20
-602.199585
 11
271.700806
 21
-604.199707
 72
     1
 10
271.700806
 20
-604.199707
 11
265.700806
 21
-604.199707
 72
     1
 10
265.700806
 20
-604.199707
 11
265.700806
 21
-583.699707
 97
        0
 75
     1
 76
     0
 52
-45.0
 41
5.0
 77
     0
 78
     1
 53
-45.0
 43
0.0
 44
0.0
 45
3.535533905932737
 46
3.535533905932738
 79
     0
 98
        1
 10
0.0
 20
0.0
  0
HATCH
  5
5FC
330
1F
100
AcDbEntity
  8
1
  6
Continuous
 62
     3
100
AcDbHatch
 10
0.0
 20
0.0
 30
0.0
210
0.0
220
0.0
230
1.0
  2
_USER
 70
     0
 71
     0
 91
        1
 92
        1
 93
       21
 72
     1
 10
459.000977
 20
-583.199829
 11
459.500977
 21
-583.699829
 72
     1
 10
459.500977
 20
-583.699829
 11
465.700684
 21
-583.699829
 72
     1
 10
465.700684
 20
-583.699829
 11
471.000977
 21
-583.699829
 72
     1
 10
471.000977
 20
-583.699829
 11
473.500977
 21
-586.199829
 72
     1
 10
473.500977
 20
-586.199829
 11
474.000977
 21
-586.199829
 72
     1
 10
474.000977
 20
-586.199829
 11
474.000977
 21
-570.199829
 72
     1
 10
474.000977
 20
-570.199829
 11
473.500977
 21
-570.199829
 72
     1
 10
473.500977
 20
-570.199829
 11
471.000488
 21
-572.699829
 72
     1
 10
471.000488
 20
-572.699829
 11
459.500854
 21
-572.699829
 72
     1
 10
459.500854
 20
-572.699829
 11
459.000977
 21
-573.199829
 72
     1
 10
459.000977
 20
-573.199829
 11
459.000977
 21
-574.199829
 72
     1
 10
459.000977
 20
-574.199829
 11
462.1866686792495
 21
-574.199829
 72
     1
 10
462.1866686792495
 20
-574.199829
 11
462.1866686792495
 21
-574.979126
 72
     1
 10
462.1866686792495
 20
-574.979126
 11
467.019307099496
 21
-574.999756
 72
     1
 10
467.019307099496
 20
-574.999756
 11
471.000732
 21
-574.999756
 72
     1
 10
471.000732
 20
-574.999756
 11
472.848145
 21
-578.199585
 72
     1
 10
472.848145
 20
-578.199585
 11
471.00061
 21
-581.39978
 72
     1
 10
471.00061
 20
-581.39978
 11
462.1866686792495
 21
-581.39978
 72
     1
 10
462.1866686792495
 20
-581.39978
 11
462.1866686792495
 21
-582.199829
 72
     1
 10
462.1866686792495
 20
-582.199829
 11
459.000977
 21
-582.199829
 72
     1
 10
459.000977
 20
-582.199829
 11
459.000977
 21
-583.199829
 97
        0
 75
     1
 76
     0
 52
45.0
 41
2.5
 77
     0
 78
     1
 53
45.0
 43
0.0
 44
0.0
 45
-1.767766952966369
 46
1.767766952966369
 79
     0
 98
        1
 10
0.0
 20
0.0
  0
HATCH
  5
5FD
330
1F
100
AcDbEntity
  8
1
  6
Continuous
 62
     3
100
AcDbHatch
 10
0.0
 20
0.0
 30
0.0
210
0.0
220
0.0
230
1.0
  2
_USER
 70
     0
 71
     0
 91
        1
 92
        1
 93
        6
 72
     1
 10
465.700684
 20
-564.199585
 11
471.700684
 21
-564.199585
 72
     1
 10
471.700684
 20
-564.199585
 11
473.700684
 21
-566.199463
 72
     1
 10
473.700684
 20
-566.199463
 11
473.700684
 21
-569.999512
 72
     1
 10
473.700684
 20
-569.999512
 11
471.000488
 21
-572.699829
 72
     1
 10
471.000488
 20
-572.699829
 11
465.700684
 21
-572.699585
 72
     1
 10
465.700684
 20
-572.699585
 11
465.700684
 21
-564.199585
 97
        0
 75
     1
 76
     0
 52
-45.0
 41
5.0
 77
     0
 78
     1
 53
-45.0
 43
0.0
 44
0.0
 45
3.535533905932737
 46
3.535533905932738
 79
     0
 98
        1
 10
0.0
 20
0.0
  0
HATCH
  5
5FE
330
1F
100
AcDbEntity
  8
1
  6
Continuous
 62
     3
100
AcDbHatch
 10
0.0
 20
0.0
 30
0.0
210
0.0
220
0.0
230
1.0
  2
_USER
 70
     0
 71
     0
 91
        1
 92
        1
 93
        6
 72
     1
 10
471.700684
 20
-604.199585
 11
473.700684
 21
-602.199463
 72
     1
 10
473.700684
 20
-602.199463
 11
473.700684
 21
-586.399536
 72
     1
 10
473.700684
 20
-586.399536
 11
471.000977
 21
-583.699829
 72
     1
 10
471.000977
 20
-583.699829
 11
465.700684
 21
-583.699829
 72
     1
 10
465.700684
 20
-583.699829
 11
465.700684
 21
-604.199585
 72
     1
 10
465.700684
 20
-604.199585
 11
471.700684
 21
-604.199585
 97
        0
 75
     1
 76
     0
 52
-45.0
 41
5.0
 77
     0
 78
     1
 53
-45.0
 43
0.0
 44
0.0
 45
3.535533905932737
 46
3.535533905932738
 79
     0
 98
        1
 10
0.0
 20
0.0
  0
ENDSEC
  0
SECTION
  2
OBJECTS
  0
DICTIONARY
  5
C
330
0
100
AcDbDictionary
281
     1
  3
ACAD_GROUP
350
D
  3
ACAD_LAYOUT
350
1A
  3
ACAD_MLINESTYLE
350
17
  3
ACAD_PLOTSETTINGS
350
19
  3
ACAD_PLOTSTYLENAME
350
E
  3
ACAD_TABLESTYLE
350
5FF
  3
ACAD_VISUALSTYLE
350
2A
  0
DICTIONARY
  5
D
102
{ACAD_REACTORS
330
C
102
}
330
C
100
AcDbDictionary
281
     1
  0
DICTIONARY
  5
1A
102
{ACAD_REACTORS
330
C
102
}
330
C
100
AcDbDictionary
281
     1
  3
Layout1
350
1E
  3
Layout2
350
26
  3
Model
350
22
  0
DICTIONARY
  5
17
102
{ACAD_REACTORS
330
C
102
}
330
C
100
AcDbDictionary
281
     1
  3
Standard
350
18
  0
DICTIONARY
  5
19
102
{ACAD_REACTORS
330
C
102
}
330
C
100
AcDbDictionary
281
     1
  0
ACDBDICTIONARYWDFLT
  5
E
102
{ACAD_REACTORS
330
C
102
}
330
C
100
AcDbDictionary
281
     1
  3
Normal
350
F
100
AcDbDictionaryWithDefault
340
F
  0
DICTIONARY
  5
5FF
102
{ACAD_REACTORS
330
C
102
}
330
C
100
AcDbDictionary
281
     1
  0
DICTIONARY
  5
2A
102
{ACAD_REACTORS
330
C
102
}
330
C
100
AcDbDictionary
281
     1
  3
2dWireframe
350
2F
  3
3D Hidden
350
31
  3
3dWireframe
350
30
  3
Basic
350
32
  3
Brighten
350
36
  3
ColorChange
350
3A
  3
Conceptual
350
34
  3
Dim
350
35
  3
Facepattern
350
39
  3
Flat
350
2B
  3
FlatWithEdges
350
2C
  3
Gouraud
350
2D
  3
GouraudWithEdges
350
2E
  3
Linepattern
350
38
  3
Realistic
350
33
  3
Thicken
350
37
  0
LAYOUT
  5
1E
102
{ACAD_REACTORS
330
1A
102
}
330
1A
100
AcDbPlotSettings
  1

  2
none_device
  4

  6

 40
0.0
 41
0.0
 42
0.0
 43
0.0
 44
0.0
 45
0.0
 46
0.0
 47
0.0
 48
0.0
 49
0.0
140
0.0
141
0.0
142
1.0
143
1.0
 70
   688
 72
     0
 73
     0
 74
     5
  7

 75
    16
147
1.0
148
0.0
149
0.0
100
AcDbLayout
  1
Layout1
 70
     1
 71
     1
 10
0.0
 20
0.0
 11
12.0
 21
9.0
 12
0.0
 22
0.0
 32
0.0
 14
1.00000000000000E+20
 24
1.00000000000000E+20
 34
1.00000000000000E+20
 15
-1.00000000000000E+20
 25
-1.00000000000000E+20
 35
-1.00000000000000E+20
146
0.0
 13
0.0
 23
0.0
 33
0.0
 16
1.0
 26
0.0
 36
0.0
 17
0.0
 27
1.0
 37
0.0
 76
     0
330
1B
  0
LAYOUT
  5
26
102
{ACAD_REACTORS
330
1A
102
}
330
1A
100
AcDbPlotSettings
  1

  2
none_device
  4

  6

 40
0.0
 41
0.0
 42
0.0
 43
0.0
 44
0.0
 45
0.0
 46
0.0
 47
0.0
 48
0.0
 49
0.0
140
0.0
141
0.0
142
1.0
143
1.0
 70
   688
 72
     0
 73
     0
 74
     5
  7

 75
    16
147
1.0
148
0.0
149
0.0
100
AcDbLayout
  1
Layout2
 70
     1
 71
     2
 10
0.0
 20
0.0
 11
0.0
 21
0.0
 12
0.0
 22
0.0
 32
0.0
 14
0.0
 24
0.0
 34
0.0
 15
0.0
 25
0.0
 35
0.0
146
0.0
 13
0.0
 23
0.0
 33
0.0
 16
1.0
 26
0.0
 36
0.0
 17
0.0
 27
1.0
 37
0.0
 76
     0
330
23
  0
LAYOUT
  5
22
102
{ACAD_REACTORS
330
1A
102
}
330
1A
100
AcDbPlotSettings
  1

  2
none_device
  4

  6

 40
0.0
 41
0.0
 42
0.0
 43
0.0
 44
0.0
 45
0.0
 46
0.0
 47
0.0
 48
0.0
 49
0.0
140
0.0
141
0.0
142
1.0
143
1.0
 70
  1712
 72
     0
 73
     0
 74
     0
  7

 75
     0
147
1.0
148
0.0
149
0.0
100
AcDbLayout
  1
Model
 70
     1
 71
     0
 10
0.0
 20
0.0
 11
12.0
 21
9.0
 12
0.0
 22
0.0
 32
0.0
 14
83.7784353741496
 24
-650.245869367347
 34
0.0
 15
667.7784353741496
 25
-240.245869367347
 35
0.0
146
0.0
 13
0.0
 23
0.0
 33
0.0
 16
1.0
 26
0.0
 36
0.0
 17
0.0
 27
1.0
 37
0.0
 76
     0
330
1F
331
29
  0
MLINESTYLE
  5
18
102
{ACAD_REACTORS
330
17
102
}
330
17
100
AcDbMlineStyle
  2
Standard
 70
     0
  3

 62
   256
 51
90.0
 52
90.0
 71
     2
 49
0.5
 62
   256
  6
BYLAYER
 49
-0.5
 62
   256
  6
BYLAYER
  0
ACDBPLACEHOLDER
  5
F
102
{ACAD_REACTORS
330
E
102
}
330
E
  0
VISUALSTYLE
  5
2F
102
{ACAD_REACTORS
330
2A
102
}
330
2A
100
AcDbVisualStyle
  2
2dWireframe
 70
     4
 71
     0
 72
     2
 73
     0
 90
        0
 40
-0.6
 41
-30.0
 62
     5
 63
     7
 74
     1
 91
        4
 64
     7
 65
   257
 75
     1
175
     1
 42
1.0
 92
        0
 66
   257
 43
1.0
 76
     1
 77
     6
 78
     2
 67
     7
 79
     5
170
     0
171
     0
290
     0
174
     0
 93
        1
 44
0.0
173
     0
291
     0
 45
0.0
1001
ACAD
1000
AcDbSavedByObjectVersion
1070
     0
  0
VISUALSTYLE
  5
31
102
{ACAD_REACTORS
330
2A
102
}
330
2A
100
AcDbVisualStyle
  2
3D Hidden
 70
     6
 71
     1
 72
     2
 73
     2
 90
        0
 40
-0.6
 41
-30.0
 62
     5
 63
     7
 74
     2
 91
        2
 64
     7
 65
   257
 75
     2
175
     1
 42
40.0
 92
        0
 66
   257
 43
1.0
 76
     1
 77
     6
 78
     2
 67
     7
 79
     3
170
     0
171
     0
290
     0
174
     0
 93
        1
 44
0.0
173
     0
291
     0
 45
0.0
1001
ACAD
1000
AcDbSavedByObjectVersion
1070
     0
  0
VISUALSTYLE
  5
30
102
{ACAD_REACTORS
330
2A
102
}
330
2A
100
AcDbVisualStyle
  2
3dWireframe
 70
     5
 71
     0
 72
     2
 73
     0
 90
        0
 40
-0.6
 41
-30.0
 62
     5
 63
     7
 74
     1
 91
        4
 64
     7
 65
   257
 75
     1
175
     1
 42
1.0
 92
        0
 66
   257
 43
1.0
 76
     1
 77
     6
 78
     2
 67
     7
 79
     5
170
     0
171
     0
290
     0
174
     0
 93
        1
 44
0.0
173
     0
291
     0
 45
0.0
1001
ACAD
1000
AcDbSavedByObjectVersion
1070
     0
  0
VISUALSTYLE
  5
32
102
{ACAD_REACTORS
330
2A
102
}
330
2A
100
AcDbVisualStyle
  2
Basic
 70
     7
 71
     1
 72
     0
 73
     1
 90
        0
 40
-0.6
 41
-30.0
 62
     5
 63
     7
 74
     0
 91
        4
 64
     7
 65
   257
 75
     1
175
     1
 42
1.0
 92
        8
 66
     7
 43
1.0
 76
     1
 77
     6
 78
     2
 67
     7
 79
     5
170
     0
171
     0
290
     0
174
     0
 93
        1
 44
0.0
173
     0
291
     1
 45
0.0
1001
ACAD
1000
AcDbSavedByObjectVersion
1070
     0
  0
VISUALSTYLE
  5
36
102
{ACAD_REACTORS
330
2A
102
}
330
2A
100
AcDbVisualStyle
  2
Brighten
 70
    12
 71
     2
 72
     2
 73
     0
 90
        0
 40
-0.6
 41
-30.0
 62
     5
 63
     7
 74
     1
 91
        4
 64
     7
 65
   257
 75
     1
175
     1
 42
1.0
 92
        8
 66
     7
 43
1.0
 76
     1
 77
     6
 78
     2
 67
     7
 79
     5
170
     0
171
     0
290
     0
174
     0
 93
        1
 44
50.0
173
     0
291
     1
 45
0.0
1001
ACAD
1000
AcDbSavedByObjectVersion
1070
     0
  0
VISUALSTYLE
  5
3A
102
{ACAD_REACTORS
330
2A
102
}
330
2A
100
AcDbVisualStyle
  2
ColorChange
 70
    16
 71
     2
 72
     2
 73
     3
 90
        0
 40
-0.6
 41
-30.0
 62
     5
 63
     8
 74
     1
 91
        4
 64
     7
 65
   257
 75
     1
175
     1
 42
1.0
 92
        8
 66
     8
 43
1.0
 76
     1
 77
     6
 78
     2
 67
     7
 79
     5
170
     0
171
     0
290
     0
174
     0
 93
        1
 44
0.0
173
     0
291
     1
 45
0.0
1001
ACAD
1000
AcDbSavedByObjectVersion
1070
     0
  0
VISUALSTYLE
  5
34
102
{ACAD_REACTORS
330
2A
102
}
330
2A
100
AcDbVisualStyle
  2
Conceptual
 70
     9
 71
     3
 72
     2
 73
     0
 90
        0
 40
-0.6
 41
-30.0
 62
     5
 63
     7
 74
     2
 91
        2
 64
     7
 65
   257
 75
     1
175
     1
 42
40.0
 92
        8
 66
     7
 43
1.0
 76
     1
 77
     6
 78
     2
 67
     7
 79
     3
170
     0
171
     0
290
     0
174
     0
 93
        1
 44
0.0
173
     0
291
     0
 45
0.0
1001
ACAD
1000
AcDbSavedByObjectVersion
1070
     0
  0
VISUALSTYLE
  5
35
102
{ACAD_REACTORS
330
2A
102
}
330
2A
100
AcDbVisualStyle
  2
Dim
 70
    11
 71
     2
 72
     2
 73
     0
 90
        0
 40
-0.6
 41
-30.0
 62
     5
 63
     7
 74
     1
 91
        4
 64
     7
 65
   257
 75
     1
175
     1
 42
1.0
 92
        8
 66
     7
 43
1.0
 76
     1
 77
     6
 78
     2
 67
     7
 79
     5
170
     0
171
     0
290
     0
174
     0
 93
        1
 44
-50.0
173
     0
291
     1
 45
0.0
1001
ACAD
1000
AcDbSavedByObjectVersion
1070
     0
  0
VISUALSTYLE
  5
39
102
{ACAD_REACTORS
330
2A
102
}
330
2A
100
AcDbVisualStyle
  2
Facepattern
 70
    15
 71
     2
 72
     2
 73
     0
 90
        0
 40
-0.6
 41
-30.0
 62
     5
 63
     7
 74
     1
 91
        4
 64
     7
 65
   257
 75
     1
175
     1
 42
1.0
 92
        8
 66
     7
 43
1.0
 76
     1
 77
     6
 78
     2
 67
     7
 79
     5
170
     0
171
     0
290
     0
174
     0
 93
        1
 44
0.0
173
     0
291
     1
 45
0.0
1001
ACAD
1000
AcDbSavedByObjectVersion
1070
     0
  0
VISUALSTYLE
  5
2B
102
{ACAD_REACTORS
330
2A
102
}
330
2A
100
AcDbVisualStyle
  2
Flat
 70
     0
 71
     2
 72
     1
 73
     1
 90
        2
 40
-0.6
 41
30.0
 62
     5
 63
     7
 74
     0
 91
        4
 64
     7
 65
   257
 75
     1
175
     1
 42
1.0
 92
        8
 66
     7
 43
1.0
 76
     1
 77
     6
 78
     2
 67
     7
 79
     5
170
     0
171
     0
290
     0
174
     0
 93
       13
 44
0.0
173
     0
291
     1
 45
0.0
1001
ACAD
1000
AcDbSavedByObjectVersion
1070
     0
  0
VISUALSTYLE
  5
2C
102
{ACAD_REACTORS
330
2A
102
}
330
2A
100
AcDbVisualStyle
  2
FlatWithEdges
 70
     1
 71
     2
 72
     1
 73
     1
 90
        2
 40
-0.6
 41
30.0
 62
     5
 63
     7
 74
     1
 91
        4
 64
     7
 65
   257
 75
     1
175
     1
 42
1.0
 92
        0
 66
   257
 43
1.0
 76
     1
 77
     6
 78
     2
 67
     7
 79
     5
170
     0
171
     0
290
     0
174
     0
 93
       13
 44
0.0
173
     0
291
     1
 45
0.0
1001
ACAD
1000
AcDbSavedByObjectVersion
1070
     0
  0
VISUALSTYLE
  5
2D
102
{ACAD_REACTORS
330
2A
102
}
330
2A
100
AcDbVisualStyle
  2
Gouraud
 70
     2
 71
     2
 72
     2
 73
     1
 90
        2
 40
-0.6
 41
30.0
 62
     5
 63
     7
 74
     0
 91
        4
 64
     7
 65
   257
 75
     1
175
     1
 42
1.0
 92
        0
 66
     7
 43
1.0
 76
     1
 77
     6
 78
     2
 67
     7
 79
     5
170
     0
171
     0
290
     0
174
     0
 93
       13
 44
0.0
173
     0
291
     1
 45
0.0
1001
ACAD
1000
AcDbSavedByObjectVersion
1070
     0
  0
VISUALSTYLE
  5
2E
102
{ACAD_REACTORS
330
2A
102
}
330
2A
100
AcDbVisualStyle
  2
GouraudWithEdges
 70
     3
 71
     2
 72
     2
 73
     1
 90
        2
 40
-0.6
 41
30.0
 62
     5
 63
     7
 74
     1
 91
        4
 64
     7
 65
   257
 75
     1
175
     1
 42
1.0
 92
        0
 66
   257
 43
1.0
 76
     1
 77
     6
 78
     2
 67
     7
 79
     5
170
     0
171
     0
290
     0
174
     0
 93
       13
 44
0.0
173
     0
291
     1
 45
0.0
1001
ACAD
1000
AcDbSavedByObjectVersion
1070
     0
  0
VISUALSTYLE
  5
38
102
{ACAD_REACTORS
330
2A
102
}
330
2A
100
AcDbVisualStyle
  2
Linepattern
 70
    14
 71
     2
 72
     2
 73
     0
 90
        0
 40
-0.6
 41
-30.0
 62
     5
 63
     7
 74
     1
 91
        4
 64
     7
 65
   257
 75
     7
175
     7
 42
1.0
 92
        8
 66
     7
 43
1.0
 76
     1
 77
     6
 78
     2
 67
     7
 79
     5
170
     0
171
     0
290
     0
174
     0
 93
        1
 44
0.0
173
     0
291
     1
 45
0.0
1001
ACAD
1000
AcDbSavedByObjectVersion
1070
     0
  0
VISUALSTYLE
  5
33
102
{ACAD_REACTORS
330
2A
102
}
330
2A
100
AcDbVisualStyle
  2
Realistic
 70
     8
 71
     2
 72
     2
 73
     0
 90
        0
 40
-0.6
 41
-30.0
 62
     5
 63
     7
 74
     1
 91
        0
 64
     7
 65
   257
 75
     1
175
     1
 42
1.0
 92
        8
 66
     8
 43
1.0
 76
     1
 77
     6
 78
     2
 67
     7
 79
     5
170
     0
171
     0
290
     0
174
     0
 93
       13
 44
0.0
173
     0
291
     0
 45
0.0
1001
ACAD
1000
AcDbSavedByObjectVersion
1070
     0
  0
VISUALSTYLE
  5
37
102
{ACAD_REACTORS
330
2A
102
}
330
2A
100
AcDbVisualStyle
  2
Thicken
 70
    13
 71
     2
 72
     2
 73
     0
 90
        0
 40
-0.6
 41
-30.0
 62
     5
 63
     7
 74
     1
 91
        4
 64
     7
 65
   257
 75
     1
175
     1
 42
1.0
 92
       12
 66
     7
 43
1.0
 76
     1
 77
     6
 78
     2
 67
     7
 79
     5
170
     0
171
     0
290
     0
174
     0
 93
        1
 44
0.0
173
     0
291
     1
 45
0.0
1001
ACAD
1000
AcDbSavedByObjectVersion
1070
     0
  0
ENDSEC
  0
EOF
